osu file format v14

[General]
AudioFilename: (+1)BREAKIN' electronic.mp3
AudioLeadIn: 0
PreviewTime: 11889
Countdown: 0
SampleSet: Normal
StackLeniency: 0.7
Mode: 1
LetterboxInBreaks: 0
WidescreenStoryboard: 1

[Editor]
DistanceSpacing: 1
BeatDivisor: 4
GridSize: 8
TimelineZoom: 3.799999

[Metadata]
Title:BREAKIN' Electronic
TitleUnicode:BREAKIN' Electronic
Artist:Rekii
ArtistUnicode:れきい
Creator:monkeydluffy3u4
Version:Inner Oni
Source:
Tags:
BeatmapID:516702
BeatmapSetID:203793

[Difficulty]
HPDrainRate:5
CircleSize:5
OverallDifficulty:5
ApproachRate:5
SliderMultiplier:1.4
SliderTickRate:2

[Events]
//Background and Video events
0,0,"Breakinnn''.PNG",0,0
//Break Periods
//Storyboard Layer 0 (Background)
//Storyboard Layer 1 (Fail)
//Storyboard Layer 2 (Pass)
//Storyboard Layer 3 (Foreground)
//Storyboard Sound Samples

[TimingPoints]
1,333.333333333333,4,1,0,64,1,0
1334,-100,4,1,0,64,0,0
12000,-100,4,1,0,64,0,0
22667,-100,4,1,0,64,0,0
33334,-100,4,1,0,64,0,0
44000,-100,4,1,0,64,0,0
54667,-100,4,1,0,64,0,0
65334,-100,4,1,0,64,0,0
76000,-100,4,1,0,74,0,1
89000,-66.6666666666667,4,1,0,74,0,0

[Colours]
Combo1 : 255,255,255
Combo2 : 255,255,255

[HitObjects]
0,80,1,5,0,0:0:0:0:
56,80,167,1,8,0:0:0:0:
112,80,334,1,0,0:0:0:0:
168,80,500,1,8,0:0:0:0:
224,80,667,1,0,0:0:0:0:
368,80,1000,1,12,0:0:0:0:
8,144,1334,1,0,0:0:0:0:
72,144,1500,1,0,0:0:0:0:
128,144,1667,1,8,0:0:0:0:
184,144,1834,1,0,0:0:0:0:
208,144,1917,1,0,0:0:0:0:
240,144,2000,1,0,0:0:0:0:
304,144,2167,1,0,0:0:0:0:
368,144,2334,1,8,0:0:0:0:
432,144,2500,1,0,0:0:0:0:
456,144,2584,1,0,0:0:0:0:
8,208,2667,1,0,0:0:0:0:
72,208,2834,1,8,0:0:0:0:
152,208,3000,1,8,0:0:0:0:
240,208,3167,1,0,0:0:0:0:
288,208,3250,1,0,0:0:0:0:
336,208,3334,1,0,0:0:0:0:
424,208,3500,1,0,0:0:0:0:
464,208,3584,1,0,0:0:0:0:
512,208,3667,1,8,0:0:0:0:
392,208,3834,1,8,0:0:0:0:
376,208,3889,1,8,0:0:0:0:
416,208,3945,1,8,0:0:0:0:
448,208,4000,1,0,0:0:0:0:
24,272,4167,1,0,0:0:0:0:
112,272,4250,1,0,0:0:0:0:
200,272,4334,1,8,0:0:0:0:
272,272,4500,1,8,0:0:0:0:
352,272,4667,1,0,0:0:0:0:
432,272,4834,1,0,0:0:0:0:
472,272,4917,1,0,0:0:0:0:
496,272,5000,1,8,0:0:0:0:
496,272,5167,1,8,0:0:0:0:
0,312,5334,1,0,0:0:0:0:
88,320,5500,1,0,0:0:0:0:
128,320,5584,1,0,0:0:0:0:
168,320,5667,1,8,0:0:0:0:
248,320,5834,1,8,0:0:0:0:
280,320,5917,1,8,0:0:0:0:
312,320,6000,1,0,0:0:0:0:
384,320,6167,1,0,0:0:0:0:
424,320,6250,1,0,0:0:0:0:
464,320,6334,1,8,0:0:0:0:
512,320,6500,1,8,0:0:0:0:
512,320,6556,1,8,0:0:0:0:
512,320,6612,1,8,0:0:0:0:
512,320,6667,1,0,0:0:0:0:
24,48,6834,1,0,0:0:0:0:
112,40,7000,1,8,0:0:0:0:
208,48,7167,1,0,0:0:0:0:
248,48,7250,1,0,0:0:0:0:
280,48,7334,1,8,0:0:0:0:
376,48,7500,1,0,0:0:0:0:
408,48,7584,1,0,0:0:0:0:
448,48,7667,1,8,0:0:0:0:
504,48,7834,1,8,0:0:0:0:
16,104,8000,1,0,0:0:0:0:
112,104,8167,1,0,0:0:0:0:
208,104,8334,1,8,0:0:0:0:
296,104,8500,1,0,0:0:0:0:
336,104,8584,1,0,0:0:0:0:
368,104,8667,1,8,0:0:0:0:
432,104,8834,1,0,0:0:0:0:
472,104,8917,1,0,0:0:0:0:
504,104,9000,1,8,0:0:0:0:
488,104,9167,1,8,0:0:0:0:
8,176,9334,1,0,0:0:0:0:
104,176,9500,1,8,0:0:0:0:
144,176,9584,1,8,0:0:0:0:
192,176,9667,1,0,0:0:0:0:
264,176,9834,1,8,0:0:0:0:
312,176,9917,1,8,0:0:0:0:
352,176,10000,1,0,0:0:0:0:
416,176,10167,1,8,0:0:0:0:
448,176,10250,1,8,0:0:0:0:
472,176,10334,1,0,0:0:0:0:
512,176,10417,1,8,0:0:0:0:
424,176,10500,1,8,0:0:0:0:
0,240,10667,2,0,L|232:240|224:240,1,216,0|0,0:0|0:0,0:0:0:0:
304,240,11334,1,0,0:0:0:0:
432,248,11667,1,12,0:0:0:0:
32,48,12000,1,0,0:0:0:0:
128,48,12167,1,0,0:0:0:0:
192,56,12250,1,0,0:0:0:0:
160,56,12334,1,8,0:0:0:0:
264,48,12500,1,8,0:0:0:0:
304,48,12584,1,8,0:0:0:0:
336,48,12667,1,0,0:0:0:0:
32,128,12834,1,0,0:0:0:0:
64,128,12917,1,0,0:0:0:0:
104,128,13000,1,8,0:0:0:0:
176,128,13167,1,8,0:0:0:0:
208,128,13223,1,8,0:0:0:0:
192,128,13278,1,8,0:0:0:0:
232,128,13334,1,0,0:0:0:0:
312,128,13500,1,0,0:0:0:0:
336,128,13584,1,0,0:0:0:0:
368,128,13667,1,8,0:0:0:0:
48,176,13834,1,8,0:0:0:0:
64,176,13917,1,8,0:0:0:0:
88,176,14000,1,0,0:0:0:0:
112,176,14084,1,0,0:0:0:0:
136,176,14167,1,0,0:0:0:0:
152,176,14250,1,0,0:0:0:0:
176,176,14334,1,8,0:0:0:0:
248,184,14500,1,8,0:0:0:0:
272,184,14556,1,8,0:0:0:0:
296,184,14612,1,8,0:0:0:0:
312,184,14667,1,0,0:0:0:0:
392,184,14834,1,0,0:0:0:0:
408,184,14917,1,0,0:0:0:0:
464,184,15000,1,8,0:0:0:0:
24,232,15167,1,8,0:0:0:0:
40,232,15250,1,8,0:0:0:0:
64,232,15334,1,0,0:0:0:0:
128,240,15500,1,0,0:0:0:0:
152,240,15584,1,0,0:0:0:0:
168,240,15667,1,8,0:0:0:0:
208,240,15750,1,8,0:0:0:0:
184,240,15834,1,8,0:0:0:0:
232,240,15917,1,8,0:0:0:0:
248,240,16000,1,0,0:0:0:0:
336,240,16167,1,0,0:0:0:0:
352,240,16250,1,0,0:0:0:0:
376,240,16334,1,8,0:0:0:0:
264,48,16500,1,8,0:0:0:0:
304,48,16584,1,8,0:0:0:0:
336,48,16667,1,0,0:0:0:0:
152,296,16834,1,0,0:0:0:0:
184,296,16917,1,0,0:0:0:0:
208,296,17000,1,8,0:0:0:0:
288,296,17167,1,8,0:0:0:0:
32,40,17334,1,0,0:0:0:0:
120,48,17500,1,0,0:0:0:0:
160,48,17584,1,0,0:0:0:0:
192,48,17667,1,8,0:0:0:0:
232,112,17834,1,8,0:0:0:0:
272,120,17917,1,8,0:0:0:0:
288,112,18000,1,0,0:0:0:0:
24,120,18167,1,0,0:0:0:0:
56,120,18250,1,0,0:0:0:0:
88,120,18334,1,8,0:0:0:0:
256,48,18500,1,8,0:0:0:0:
296,48,18555,1,8,0:0:0:0:
320,48,18611,1,8,0:0:0:0:
352,48,18666,1,0,0:0:0:0:
264,120,18834,1,0,0:0:0:0:
280,128,18917,1,0,0:0:0:0:
304,128,19000,1,8,0:0:0:0:
8,176,19167,1,8,0:0:0:0:
32,176,19250,1,8,0:0:0:0:
56,176,19334,1,0,0:0:0:0:
80,176,19417,1,0,0:0:0:0:
112,184,19500,1,8,0:0:0:0:
136,176,19584,1,0,0:0:0:0:
160,176,19667,1,8,0:0:0:0:
240,184,19834,1,8,0:0:0:0:
0,240,20000,1,0,0:0:0:0:
64,240,20167,1,8,0:0:0:0:
96,240,20250,1,8,0:0:0:0:
112,240,20334,1,8,0:0:0:0:
176,240,20500,1,0,0:0:0:0:
224,240,20584,1,0,0:0:0:0:
256,240,20667,1,0,0:0:0:0:
384,240,20834,1,8,0:0:0:0:
432,240,20889,1,8,0:0:0:0:
408,240,20945,1,8,0:0:0:0:
456,240,21000,1,8,0:0:0:0:
320,240,21167,1,8,0:0:0:0:
8,248,21334,2,0,L|232:240,1,216,0|0,0:0|0:0,0:0:0:0:
312,264,22000,1,0,0:0:0:0:
368,48,22334,1,12,0:0:0:0:
56,80,22667,1,0,0:0:0:0:
152,80,22889,1,0,0:0:0:0:
192,88,23000,1,8,0:0:0:0:
288,80,23223,1,8,0:0:0:0:
336,80,23334,1,0,0:0:0:0:
408,80,23556,1,0,0:0:0:0:
56,128,23667,1,8,0:0:0:0:
112,128,23778,1,8,0:0:0:0:
152,128,23889,1,8,0:0:0:0:
192,120,24000,1,0,0:0:0:0:
312,128,24223,1,0,0:0:0:0:
392,128,24334,1,8,0:0:0:0:
40,176,24556,1,8,0:0:0:0:
80,168,24667,1,0,0:0:0:0:
152,176,24889,1,0,0:0:0:0:
216,176,25000,1,8,0:0:0:0:
280,176,25112,1,8,0:0:0:0:
336,168,25223,1,8,0:0:0:0:
448,176,25334,1,0,0:0:0:0:
96,240,25556,1,0,0:0:0:0:
176,240,25667,1,8,0:0:0:0:
288,232,25889,1,8,0:0:0:0:
384,232,26000,1,0,0:0:0:0:
24,304,26112,1,0,0:0:0:0:
104,280,26223,1,0,0:0:0:0:
160,288,26334,1,8,0:0:0:0:
32,56,26556,1,8,0:0:0:0:
112,48,26667,1,0,0:0:0:0:
216,48,26889,1,0,0:0:0:0:
264,48,27000,1,8,0:0:0:0:
352,48,27223,1,8,0:0:0:0:
24,120,27334,1,0,0:0:0:0:
96,120,27445,1,0,0:0:0:0:
216,128,27556,1,0,0:0:0:0:
144,128,27667,1,8,0:0:0:0:
280,128,27778,1,8,0:0:0:0:
320,120,27889,1,8,0:0:0:0:
376,128,28000,1,0,0:0:0:0:
56,48,28223,1,0,0:0:0:0:
112,48,28334,1,8,0:0:0:0:
160,48,28445,1,0,0:0:0:0:
200,56,28556,1,0,0:0:0:0:
240,48,28667,1,8,0:0:0:0:
48,152,28889,1,8,0:0:0:0:
96,152,29000,1,0,0:0:0:0:
128,144,29112,1,0,0:0:0:0:
160,144,29223,1,8,0:0:0:0:
184,144,29334,1,0,0:0:0:0:
280,152,29556,1,0,0:0:0:0:
320,144,29667,1,8,0:0:0:0:
24,208,29889,1,8,0:0:0:0:
56,208,30000,1,0,0:0:0:0:
104,208,30112,1,0,0:0:0:0:
144,208,30223,1,8,0:0:0:0:
208,208,30334,1,0,0:0:0:0:
264,208,30445,1,0,0:0:0:0:
296,192,30556,1,8,0:0:0:0:
400,208,30667,1,0,0:0:0:0:
16,272,30889,1,0,0:0:0:0:
72,272,31000,1,8,0:0:0:0:
112,264,31112,1,8,0:0:0:0:
152,272,31223,1,8,0:0:0:0:
192,272,31334,1,0,0:0:0:0:
336,272,31556,1,8,0:0:0:0:
432,272,31667,1,8,0:0:0:0:
24,336,31889,1,8,0:0:0:0:
136,344,32000,2,0,B|368:344|352:352|352:344,1,216,0|0,0:0|0:0,0:0:0:0:
440,344,32667,1,0,0:0:0:0:
416,64,33000,1,12,0:0:0:0:
24,56,33334,1,0,0:0:0:0:
64,56,33417,1,0,0:0:0:0:
96,56,33500,1,8,0:0:0:0:
168,56,33667,1,4,0:0:0:0:
264,56,33834,1,8,0:0:0:0:
24,56,34000,1,0,0:0:0:0:
64,56,34083,1,0,0:0:0:0:
96,56,34166,1,8,0:0:0:0:
168,56,34333,1,4,0:0:0:0:
264,56,34500,1,8,0:0:0:0:
24,56,34667,1,0,0:0:0:0:
64,56,34750,1,0,0:0:0:0:
96,56,34833,1,8,0:0:0:0:
168,56,35000,1,12,0:0:0:0:
264,56,35167,1,8,0:0:0:0:
24,56,35334,1,0,0:0:0:0:
64,56,35417,1,0,0:0:0:0:
96,56,35500,1,8,0:0:0:0:
168,56,35667,1,12,0:0:0:0:
264,56,35834,1,8,0:0:0:0:
24,56,36000,1,0,0:0:0:0:
64,56,36083,1,0,0:0:0:0:
96,56,36166,1,8,0:0:0:0:
168,56,36333,1,4,0:0:0:0:
264,56,36500,1,8,0:0:0:0:
24,56,36667,1,0,0:0:0:0:
64,56,36750,1,0,0:0:0:0:
96,56,36833,1,8,0:0:0:0:
168,56,37000,1,4,0:0:0:0:
264,56,37167,1,8,0:0:0:0:
24,56,37334,1,0,0:0:0:0:
64,56,37417,1,0,0:0:0:0:
96,56,37500,1,8,0:0:0:0:
168,56,37667,1,4,0:0:0:0:
264,56,37834,1,8,0:0:0:0:
24,56,38000,1,0,0:0:0:0:
64,56,38083,1,0,0:0:0:0:
96,56,38166,1,8,0:0:0:0:
168,56,38333,1,8,0:0:0:0:
360,72,38417,1,8,0:0:0:0:
264,56,38500,1,8,0:0:0:0:
416,64,38584,1,8,0:0:0:0:
8,112,38667,1,0,0:0:0:0:
88,112,38834,1,8,0:0:0:0:
160,120,39000,1,0,0:0:0:0:
208,128,39084,1,8,0:0:0:0:
232,120,39167,1,8,0:0:0:0:
264,120,39250,1,8,0:0:0:0:
8,112,39334,1,0,0:0:0:0:
88,112,39501,1,8,0:0:0:0:
160,120,39667,1,0,0:0:0:0:
208,128,39751,1,8,0:0:0:0:
232,120,39834,1,8,0:0:0:0:
264,120,39917,1,8,0:0:0:0:
8,112,40000,1,0,0:0:0:0:
88,112,40167,1,8,0:0:0:0:
160,120,40333,1,0,0:0:0:0:
208,128,40417,1,0,0:0:0:0:
232,120,40500,1,8,0:0:0:0:
264,120,40583,1,0,0:0:0:0:
304,120,40667,1,8,0:0:0:0:
128,200,40834,1,8,0:0:0:0:
200,208,40917,1,8,0:0:0:0:
328,216,41000,1,0,0:0:0:0:
240,208,41084,1,8,0:0:0:0:
384,208,41167,1,8,0:0:0:0:
440,128,41250,1,8,0:0:0:0:
432,208,41334,1,0,0:0:0:0:
48,40,41500,1,0,0:0:0:0:
96,40,41584,1,0,0:0:0:0:
160,40,41667,1,8,0:0:0:0:
240,24,41834,1,8,0:0:0:0:
320,40,41917,1,8,0:0:0:0:
304,80,42000,1,0,0:0:0:0:
160,96,42167,1,0,0:0:0:0:
216,104,42222,1,0,0:0:0:0:
264,96,42278,1,0,0:0:0:0:
304,104,42333,1,8,0:0:0:0:
72,144,42500,1,8,0:0:0:0:
152,192,42667,2,0,L|392:192,1,216
96,248,43334,1,0,0:0:0:0:
280,232,43667,1,12,0:0:0:0:
40,48,44000,1,8,0:0:0:0:
80,40,44112,1,8,0:0:0:0:
112,48,44223,1,0,0:0:0:0:
144,32,44334,1,8,0:0:0:0:
176,56,44445,1,8,0:0:0:0:
216,48,44556,1,0,0:0:0:0:
40,48,44667,1,8,0:0:0:0:
80,40,44779,1,8,0:0:0:0:
112,48,44890,1,0,0:0:0:0:
144,32,45000,1,8,0:0:0:0:
176,56,45112,1,8,0:0:0:0:
216,48,45223,1,0,0:0:0:0:
40,48,45334,1,8,0:0:0:0:
80,40,45446,1,8,0:0:0:0:
112,48,45556,1,8,0:0:0:0:
144,32,45668,1,0,0:0:0:0:
176,56,45779,1,0,0:0:0:0:
216,48,45890,1,0,0:0:0:0:
40,48,46000,1,8,0:0:0:0:
80,40,46112,1,8,0:0:0:0:
112,48,46223,1,8,0:0:0:0:
144,32,46334,1,0,0:0:0:0:
176,56,46445,1,0,0:0:0:0:
216,48,46556,1,0,0:0:0:0:
40,48,46667,1,8,0:0:0:0:
80,40,46779,1,0,0:0:0:0:
112,48,46890,1,0,0:0:0:0:
144,32,47000,1,8,0:0:0:0:
176,56,47112,1,0,0:0:0:0:
216,48,47223,1,0,0:0:0:0:
40,48,47334,1,8,0:0:0:0:
80,40,47446,1,0,0:0:0:0:
112,48,47557,1,0,0:0:0:0:
144,32,47668,1,8,0:0:0:0:
176,56,47779,1,0,0:0:0:0:
216,48,47890,1,0,0:0:0:0:
40,48,48000,1,8,0:0:0:0:
80,40,48112,1,8,0:0:0:0:
112,48,48223,1,8,0:0:0:0:
144,32,48334,1,0,0:0:0:0:
176,56,48445,1,0,0:0:0:0:
216,48,48556,1,0,0:0:0:0:
40,48,48667,1,8,0:0:0:0:
80,40,48778,1,8,0:0:0:0:
112,48,48890,1,8,0:0:0:0:
264,48,49000,1,0,0:0:0:0:
296,48,49056,1,0,0:0:0:0:
328,48,49111,1,0,0:0:0:0:
440,56,49223,1,0,0:0:0:0:
40,48,49334,1,8,0:0:0:0:
80,40,49446,1,0,0:0:0:0:
112,48,49557,1,8,0:0:0:0:
144,32,49668,1,0,0:0:0:0:
176,56,49779,1,8,0:0:0:0:
216,48,49890,1,0,0:0:0:0:
40,48,50001,1,8,0:0:0:0:
80,40,50113,1,0,0:0:0:0:
112,48,50224,1,8,0:0:0:0:
144,32,50335,1,0,0:0:0:0:
176,56,50446,1,8,0:0:0:0:
216,48,50557,1,0,0:0:0:0:
40,48,50668,1,8,0:0:0:0:
80,40,50778,1,8,0:0:0:0:
112,48,50889,1,0,0:0:0:0:
144,32,51002,1,8,0:0:0:0:
176,56,51113,1,8,0:0:0:0:
216,48,51224,1,0,0:0:0:0:
40,48,51334,1,8,0:0:0:0:
80,40,51446,1,8,0:0:0:0:
112,48,51557,1,0,0:0:0:0:
144,32,51668,1,8,0:0:0:0:
176,56,51779,1,8,0:0:0:0:
216,48,51890,1,0,0:0:0:0:
40,48,52001,1,8,0:0:0:0:
80,40,52113,1,0,0:0:0:0:
112,48,52224,1,0,0:0:0:0:
144,32,52335,1,8,0:0:0:0:
176,56,52446,1,0,0:0:0:0:
216,48,52557,1,0,0:0:0:0:
40,48,52668,1,8,0:0:0:0:
80,40,52780,1,8,0:0:0:0:
112,48,52891,1,8,0:0:0:0:
144,32,53002,1,0,0:0:0:0:
176,56,53113,1,0,0:0:0:0:
216,48,53224,1,0,0:0:0:0:
40,48,53334,1,8,0:0:0:0:
272,48,53389,1,8,0:0:0:0:
336,48,53445,1,8,0:0:0:0:
408,96,53556,1,0,0:0:0:0:
48,128,53667,1,8,0:0:0:0:
144,120,53723,1,8,0:0:0:0:
200,128,53778,1,8,0:0:0:0:
264,136,53889,1,0,0:0:0:0:
352,144,54000,1,0,0:0:0:0:
440,144,54334,1,12,0:0:0:0:
56,176,54667,1,8,0:0:0:0:
48,168,54750,1,8,0:0:0:0:
80,192,54834,1,0,0:0:0:0:
48,168,54917,1,0,0:0:0:0:
56,176,55000,1,8,0:0:0:0:
48,168,55083,1,8,0:0:0:0:
80,192,55167,1,0,0:0:0:0:
48,168,55250,1,0,0:0:0:0:
56,176,55334,1,8,0:0:0:0:
48,168,55417,1,8,0:0:0:0:
80,192,55501,1,0,0:0:0:0:
48,168,55584,1,0,0:0:0:0:
56,176,55667,1,8,0:0:0:0:
48,168,55750,1,8,0:0:0:0:
80,192,55834,1,0,0:0:0:0:
48,168,55917,1,0,0:0:0:0:
56,176,56000,1,8,0:0:0:0:
48,168,56083,1,8,0:0:0:0:
80,192,56167,1,8,0:0:0:0:
48,168,56250,1,0,0:0:0:0:
56,176,56333,1,8,0:0:0:0:
48,168,56416,1,8,0:0:0:0:
80,192,56500,1,8,0:0:0:0:
48,168,56583,1,0,0:0:0:0:
56,176,56667,1,8,0:0:0:0:
48,168,56750,1,8,0:0:0:0:
80,192,56834,1,8,0:0:0:0:
48,168,56917,1,0,0:0:0:0:
56,176,57000,1,8,0:0:0:0:
48,168,57083,1,8,0:0:0:0:
80,192,57167,1,0,0:0:0:0:
56,176,57334,1,8,0:0:0:0:
48,168,57417,1,0,0:0:0:0:
80,192,57501,1,0,0:0:0:0:
48,168,57584,1,0,0:0:0:0:
56,176,57667,1,8,0:0:0:0:
48,168,57750,1,0,0:0:0:0:
80,192,57834,1,0,0:0:0:0:
48,168,57917,1,0,0:0:0:0:
56,176,58001,1,8,0:0:0:0:
48,168,58084,1,0,0:0:0:0:
80,192,58168,1,0,0:0:0:0:
48,168,58251,1,0,0:0:0:0:
56,176,58334,1,8,0:0:0:0:
48,168,58417,1,0,0:0:0:0:
80,192,58501,1,0,0:0:0:0:
48,168,58584,1,0,0:0:0:0:
56,176,58667,1,8,0:0:0:0:
48,168,58750,1,8,0:0:0:0:
80,192,58834,1,0,0:0:0:0:
48,168,58917,1,0,0:0:0:0:
56,176,59000,1,8,0:0:0:0:
48,168,59083,1,8,0:0:0:0:
80,192,59167,1,0,0:0:0:0:
48,168,59250,1,0,0:0:0:0:
56,176,59334,1,8,0:0:0:0:
48,168,59417,1,8,0:0:0:0:
80,192,59501,1,0,0:0:0:0:
48,168,59584,1,0,0:0:0:0:
56,176,59667,1,8,0:0:0:0:
48,168,59750,1,8,0:0:0:0:
64,176,59834,1,0,0:0:0:0:
56,176,60000,1,0,0:0:0:0:
48,168,60083,1,8,0:0:0:0:
80,192,60167,1,8,0:0:0:0:
48,168,60250,1,8,0:0:0:0:
56,176,60333,1,0,0:0:0:0:
48,168,60416,1,8,0:0:0:0:
80,192,60500,1,8,0:0:0:0:
48,168,60583,1,8,0:0:0:0:
56,176,60667,1,0,0:0:0:0:
48,168,60750,1,8,0:0:0:0:
80,192,60834,1,8,0:0:0:0:
48,168,60917,1,8,0:0:0:0:
56,176,61000,1,0,0:0:0:0:
48,168,61083,1,8,0:0:0:0:
80,192,61167,1,8,0:0:0:0:
48,168,61250,1,8,0:0:0:0:
56,176,61334,1,0,0:0:0:0:
48,168,61417,1,0,0:0:0:0:
80,192,61501,1,0,0:0:0:0:
48,168,61584,1,8,0:0:0:0:
56,176,61667,1,0,0:0:0:0:
48,168,61750,1,0,0:0:0:0:
80,192,61834,1,0,0:0:0:0:
48,168,61917,1,8,0:0:0:0:
56,176,62001,1,0,0:0:0:0:
48,168,62084,1,0,0:0:0:0:
80,192,62168,1,0,0:0:0:0:
48,168,62251,1,8,0:0:0:0:
56,176,62334,1,0,0:0:0:0:
48,168,62417,1,0,0:0:0:0:
80,192,62501,1,0,0:0:0:0:
48,168,62584,1,8,0:0:0:0:
56,176,62667,1,0,0:0:0:0:
48,168,62750,1,0,0:0:0:0:
80,192,62834,1,8,0:0:0:0:
48,168,62917,1,8,0:0:0:0:
56,176,63000,1,8,0:0:0:0:
48,168,63083,1,8,0:0:0:0:
80,192,63167,1,0,0:0:0:0:
48,168,63250,1,0,0:0:0:0:
56,176,63334,1,0,0:0:0:0:
48,168,63417,1,0,0:0:0:0:
80,192,63500,1,8,0:0:0:0:
48,168,63584,1,8,0:0:0:0:
56,176,63667,1,8,0:0:0:0:
48,168,63750,1,8,0:0:0:0:
80,192,63834,1,0,0:0:0:0:
48,168,63917,1,0,0:0:0:0:
120,80,64000,1,8,0:0:0:0:
136,80,64112,1,8,0:0:0:0:
136,80,64223,1,8,0:0:0:0:
136,80,64334,1,0,0:0:0:0:
136,80,64445,1,0,0:0:0:0:
136,80,64556,1,0,0:0:0:0:
128,80,64667,1,8,0:0:0:0:
280,48,65000,1,12,0:0:0:0:
56,80,65334,1,0,0:0:0:0:
152,80,65556,1,0,0:0:0:0:
192,88,65667,1,8,0:0:0:0:
249,91,65778,1,0,0:0:0:0:
288,80,65890,1,0,0:0:0:0:
336,80,66001,1,8,0:0:0:0:
408,80,66223,1,0,0:0:0:0:
56,128,66334,1,8,0:0:0:0:
112,128,66445,1,8,0:0:0:0:
152,128,66556,1,8,0:0:0:0:
192,120,66667,1,0,0:0:0:0:
312,128,66890,1,0,0:0:0:0:
392,128,67001,1,8,0:0:0:0:
396,168,67112,1,0,0:0:0:0:
40,176,67223,1,0,0:0:0:0:
80,168,67334,1,8,0:0:0:0:
152,176,67556,1,8,0:0:0:0:
216,176,67667,1,8,0:0:0:0:
280,176,67779,1,8,0:0:0:0:
336,168,67890,1,8,0:0:0:0:
448,176,68001,1,0,0:0:0:0:
96,240,68223,1,0,0:0:0:0:
176,240,68334,1,8,0:0:0:0:
288,232,68556,1,8,0:0:0:0:
384,232,68667,1,0,0:0:0:0:
24,304,68779,1,0,0:0:0:0:
104,280,68890,1,0,0:0:0:0:
160,288,69001,1,8,0:0:0:0:
32,56,69223,1,8,0:0:0:0:
112,48,69334,1,0,0:0:0:0:
216,48,69556,1,0,0:0:0:0:
264,48,69667,1,8,0:0:0:0:
352,48,69890,1,8,0:0:0:0:
24,120,70001,1,0,0:0:0:0:
96,120,70112,1,0,0:0:0:0:
216,128,70223,1,0,0:0:0:0:
144,128,70334,1,8,0:0:0:0:
280,128,70445,1,8,0:0:0:0:
320,120,70556,1,8,0:0:0:0:
376,128,70667,1,0,0:0:0:0:
56,48,70890,1,0,0:0:0:0:
112,48,71001,1,8,0:0:0:0:
160,48,71112,1,0,0:0:0:0:
200,56,71223,1,0,0:0:0:0:
240,48,71334,1,8,0:0:0:0:
48,152,71556,1,8,0:0:0:0:
96,152,71667,1,0,0:0:0:0:
128,144,71779,1,0,0:0:0:0:
160,144,71890,1,8,0:0:0:0:
184,144,72001,1,0,0:0:0:0:
280,152,72223,1,0,0:0:0:0:
320,144,72334,1,8,0:0:0:0:
24,208,72556,1,8,0:0:0:0:
56,208,72667,1,0,0:0:0:0:
104,208,72779,1,0,0:0:0:0:
144,208,72890,1,8,0:0:0:0:
208,208,73001,1,0,0:0:0:0:
264,208,73112,1,0,0:0:0:0:
296,192,73223,1,8,0:0:0:0:
400,208,73334,1,0,0:0:0:0:
16,272,73556,1,0,0:0:0:0:
72,272,73667,1,8,0:0:0:0:
112,264,73779,1,8,0:0:0:0:
152,272,73890,1,8,0:0:0:0:
192,272,74001,1,0,0:0:0:0:
336,272,74223,1,8,0:0:0:0:
432,272,74334,1,8,0:0:0:0:
285,171,74445,1,8,0:0:0:0:
24,336,74556,1,8,0:0:0:0:
136,344,74667,2,0,B|368:344|352:352|352:344,1,216,0|0,0:0|0:0,0:0:0:0:
440,344,75334,1,0,0:0:0:0:
416,64,75667,1,12,0:0:0:0:
21,49,76000,1,8,0:0:0:0:
114,44,76056,1,8,0:0:0:0:
201,48,76112,1,8,0:0:0:0:
321,57,76223,1,8,0:0:0:0:
21,49,76334,1,0,0:0:0:0:
114,44,76390,1,0,0:0:0:0:
201,48,76446,1,0,0:0:0:0:
321,57,76557,1,0,0:0:0:0:
21,49,76667,1,8,0:0:0:0:
114,44,76723,1,8,0:0:0:0:
201,48,76779,1,8,0:0:0:0:
321,57,76890,1,8,0:0:0:0:
160,81,77000,1,0,0:0:0:0:
114,44,77056,1,0,0:0:0:0:
201,48,77112,1,0,0:0:0:0:
374,47,77223,1,0,0:0:0:0:
21,49,77334,1,8,0:0:0:0:
114,44,77390,1,8,0:0:0:0:
201,48,77446,1,8,0:0:0:0:
321,57,77557,1,0,0:0:0:0:
21,49,77668,1,8,0:0:0:0:
114,44,77724,1,8,0:0:0:0:
201,48,77780,1,8,0:0:0:0:
321,57,77891,1,0,0:0:0:0:
21,49,78001,1,8,0:0:0:0:
114,44,78057,1,8,0:0:0:0:
201,48,78113,1,8,0:0:0:0:
321,57,78224,1,0,0:0:0:0:
21,49,78334,1,8,0:0:0:0:
114,44,78390,1,8,0:0:0:0:
201,48,78446,1,8,0:0:0:0:
260,48,78501,1,0,0:0:0:0:
21,49,78667,1,8,0:0:0:0:
114,44,78723,1,0,0:0:0:0:
201,48,78779,1,0,0:0:0:0:
321,57,78890,1,0,0:0:0:0:
21,49,79001,1,8,0:0:0:0:
114,44,79057,1,0,0:0:0:0:
201,48,79113,1,0,0:0:0:0:
321,57,79224,1,0,0:0:0:0:
21,49,79334,1,8,0:0:0:0:
114,44,79390,1,0,0:0:0:0:
201,48,79446,1,0,0:0:0:0:
321,57,79557,1,0,0:0:0:0:
21,49,79667,1,8,0:0:0:0:
114,44,79723,1,0,0:0:0:0:
201,48,79779,1,0,0:0:0:0:
260,48,79889,1,0,0:0:0:0:
21,49,80000,1,8,0:0:0:0:
114,44,80056,1,8,0:0:0:0:
201,48,80112,1,8,0:0:0:0:
321,57,80223,1,8,0:0:0:0:
21,49,80334,1,0,0:0:0:0:
114,44,80390,1,0,0:0:0:0:
201,48,80446,1,0,0:0:0:0:
321,57,80557,1,0,0:0:0:0:
21,49,80667,1,8,0:0:0:0:
114,44,80723,1,8,0:0:0:0:
201,48,80779,1,8,0:0:0:0:
321,57,80890,1,8,0:0:0:0:
21,49,81000,1,0,0:0:0:0:
114,44,81056,1,0,0:0:0:0:
201,48,81112,1,0,0:0:0:0:
260,48,81167,1,0,0:0:0:0:
21,49,81334,1,0,0:0:0:0:
114,44,81390,1,8,0:0:0:0:
201,48,81446,1,8,0:0:0:0:
321,57,81557,1,8,0:0:0:0:
21,49,81668,1,0,0:0:0:0:
114,44,81724,1,8,0:0:0:0:
201,48,81780,1,8,0:0:0:0:
321,57,81891,1,8,0:0:0:0:
21,49,82001,1,0,0:0:0:0:
114,44,82057,1,8,0:0:0:0:
201,48,82113,1,8,0:0:0:0:
321,57,82224,1,8,0:0:0:0:
21,49,82334,1,0,0:0:0:0:
114,44,82390,1,8,0:0:0:0:
201,48,82446,1,8,0:0:0:0:
260,48,82556,1,8,0:0:0:0:
21,49,82667,1,0,0:0:0:0:
114,44,82723,1,0,0:0:0:0:
201,48,82779,1,0,0:0:0:0:
321,57,82890,1,8,0:0:0:0:
21,49,83001,1,0,0:0:0:0:
114,44,83057,1,0,0:0:0:0:
201,48,83113,1,0,0:0:0:0:
321,57,83224,1,8,0:0:0:0:
21,49,83334,1,0,0:0:0:0:
114,44,83390,1,0,0:0:0:0:
201,48,83446,1,0,0:0:0:0:
321,57,83557,1,8,0:0:0:0:
21,49,83667,1,0,0:0:0:0:
114,44,83723,1,0,0:0:0:0:
201,48,83779,1,0,0:0:0:0:
260,48,83834,1,8,0:0:0:0:
21,49,84000,1,8,0:0:0:0:
114,44,84056,1,8,0:0:0:0:
201,48,84112,1,8,0:0:0:0:
260,48,84167,1,8,0:0:0:0:
321,57,84223,1,8,0:0:0:0:
21,49,84334,1,0,0:0:0:0:
114,44,84445,1,0,0:0:0:0:
321,57,84557,1,0,0:0:0:0:
21,49,84667,1,8,0:0:0:0:
114,44,84723,1,8,0:0:0:0:
201,48,84779,1,8,0:0:0:0:
260,48,84834,1,8,0:0:0:0:
321,57,84890,1,8,0:0:0:0:
21,49,85000,1,0,0:0:0:0:
114,44,85112,1,0,0:0:0:0:
260,48,85223,1,0,0:0:0:0:
16,48,85334,1,8,0:0:0:0:
48,48,85417,1,8,0:0:0:0:
48,48,85500,1,8,0:0:0:0:
48,48,85584,1,8,0:0:0:0:
48,48,85667,1,8,0:0:0:0:
48,48,85750,1,8,0:0:0:0:
48,48,85834,1,8,0:0:0:0:
48,48,85917,1,8,0:0:0:0:
48,48,86000,1,0,0:0:0:0:
48,48,86084,1,0,0:0:0:0:
48,48,86167,1,0,0:0:0:0:
21,49,86334,1,12,0:0:0:0:
97,118,86667,1,8,0:0:0:0:
169,117,86750,1,8,0:0:0:0:
226,118,86834,1,0,0:0:0:0:
276,114,86917,1,0,0:0:0:0:
97,118,87000,1,8,0:0:0:0:
169,117,87083,1,8,0:0:0:0:
226,118,87167,1,0,0:0:0:0:
276,114,87250,1,0,0:0:0:0:
97,118,87334,1,8,0:0:0:0:
169,117,87417,1,8,0:0:0:0:
226,118,87501,1,0,0:0:0:0:
276,114,87584,1,0,0:0:0:0:
97,118,87667,1,8,0:0:0:0:
169,117,87750,1,8,0:0:0:0:
226,118,87834,1,0,0:0:0:0:
276,114,87917,1,0,0:0:0:0:
61,151,88000,1,0,0:0:0:0:
126,160,88112,1,8,0:0:0:0:
241,171,88223,1,8,0:0:0:0:
277,168,88334,1,0,0:0:0:0:
345,162,88445,1,8,0:0:0:0:
401,115,88556,1,8,0:0:0:0:
347,53,88667,1,0,0:0:0:0:
176,236,89000,1,12,0:0:0:0:
