osu file format v14

[General]
AudioFilename: (+1)BREAKIN' electronic.mp3
AudioLeadIn: 0
PreviewTime: 11889
Countdown: 0
SampleSet: Normal
StackLeniency: 0.7
Mode: 1
LetterboxInBreaks: 0
WidescreenStoryboard: 1

[Editor]
DistanceSpacing: 1
BeatDivisor: 4
GridSize: 8
TimelineZoom: 2.8

[Metadata]
Title:BREAKIN' Electronic
TitleUnicode:BREAKIN' Electronic
Artist:Rekii
ArtistUnicode:れきい
Creator:monkeydluffy3u4
Version:Futsuu
Source:
Tags:
BeatmapID:516678
BeatmapSetID:203793

[Difficulty]
HPDrainRate:5
CircleSize:4
OverallDifficulty:5
ApproachRate:5
SliderMultiplier:1.4
SliderTickRate:2

[Events]
//Background and Video events
0,0,"Breakinnn''.PNG",0,0
//Break Periods
//Storyboard Layer 0 (Background)
//Storyboard Layer 1 (Fail)
//Storyboard Layer 2 (Pass)
//Storyboard Layer 3 (Foreground)
//Storyboard Sound Samples

[TimingPoints]
1,333.333333333333,4,1,0,65,1,0
1,-100,4,1,0,40,0,0
1000,-100,4,1,0,65,0,0
1334,-100,4,1,0,65,0,0
12000,-100,4,1,0,65,0,0
22667,-100,4,1,0,65,0,0
33334,-100,4,1,0,65,0,0
44000,-100,4,1,0,65,0,0
54667,-100,4,1,0,65,0,0
65334,-100,4,1,0,65,0,0
76000,-100,4,1,0,72,0,1
89334,-100,4,1,0,72,0,0

[Colours]
Combo1 : 255,255,255
Combo2 : 255,255,255

[HitObjects]
56,96,1,6,0,L|360:96,1,280
64,96,1000,1,12,0:0:0:0:
56,88,1334,1,0,0:0:0:0:
56,88,1667,1,8,0:0:0:0:
56,88,2000,1,0,0:0:0:0:
56,88,2334,1,8,0:0:0:0:
56,88,2667,1,0,0:0:0:0:
56,88,2834,1,0,0:0:0:0:
56,88,3000,1,0,0:0:0:0:
56,88,3334,1,8,0:0:0:0:
56,88,3667,1,8,0:0:0:0:
56,88,4000,1,0,0:0:0:0:
56,88,4334,1,0,0:0:0:0:
56,88,4667,1,8,0:0:0:0:
56,88,4834,1,0,0:0:0:0:
56,88,5000,1,8,0:0:0:0:
56,88,5334,1,0,0:0:0:0:
56,88,5667,1,0,0:0:0:0:
56,88,6000,1,8,0:0:0:0:
56,88,6167,1,8,0:0:0:0:
56,88,6334,1,8,0:0:0:0:
56,88,6667,1,0,0:0:0:0:
56,88,7000,1,8,0:0:0:0:
56,88,7334,1,0,0:0:0:0:
56,88,7500,1,0,0:0:0:0:
56,88,7834,1,0,0:0:0:0:
56,88,8000,1,8,0:0:0:0:
56,88,8334,1,0,0:0:0:0:
56,88,8667,1,8,0:0:0:0:
56,88,8834,1,0,0:0:0:0:
56,88,9167,1,0,0:0:0:0:
56,88,9334,1,8,0:0:0:0:
56,88,9667,1,8,0:0:0:0:
56,88,10000,1,0,0:0:0:0:
56,88,10334,1,8,0:0:0:0:
64,88,10500,1,8,0:0:0:0:
56,88,10667,2,0,L|368:96,1,280
248,192,11667,5,12,0:0:0:0:
248,192,12000,1,0,0:0:0:0:
248,192,12334,1,8,0:0:0:0:
248,200,12667,1,0,0:0:0:0:
248,192,12834,1,0,0:0:0:0:
248,192,13000,1,8,0:0:0:0:
248,200,13334,1,0,0:0:0:0:
248,200,13667,1,8,0:0:0:0:
248,200,14000,1,0,0:0:0:0:
248,200,14167,1,8,0:0:0:0:
248,200,14334,1,8,0:0:0:0:
248,200,14667,1,0,0:0:0:0:
248,200,14834,1,0,0:0:0:0:
248,200,15000,1,8,0:0:0:0:
248,200,15334,1,0,0:0:0:0:
248,200,15667,1,8,0:0:0:0:
248,200,16000,1,0,0:0:0:0:
248,200,16167,1,0,0:0:0:0:
248,200,16334,1,8,0:0:0:0:
248,200,16667,1,0,0:0:0:0:
248,200,17000,1,8,0:0:0:0:
248,200,17334,1,0,0:0:0:0:
248,200,17667,1,8,0:0:0:0:
248,200,18000,1,0,0:0:0:0:
248,200,18167,1,0,0:0:0:0:
248,200,18334,1,8,0:0:0:0:
248,200,18667,1,0,0:0:0:0:
248,200,19000,1,8,0:0:0:0:
248,200,19334,1,8,0:0:0:0:
248,200,19500,1,0,0:0:0:0:
248,200,19667,1,8,0:0:0:0:
248,200,20000,1,0,0:0:0:0:
248,200,20334,1,8,0:0:0:0:
248,200,20500,1,0,0:0:0:0:
248,200,20834,1,0,0:0:0:0:
248,200,21000,1,8,0:0:0:0:
48,80,21334,2,0,L|328:88,1,280
248,200,22334,5,12,0:0:0:0:
248,200,22667,1,0,0:0:0:0:
248,200,23000,1,0,0:0:0:0:
248,200,23334,1,8,0:0:0:0:
248,200,23667,1,8,0:0:0:0:
248,200,24000,1,0,0:0:0:0:
248,200,24334,1,0,0:0:0:0:
248,200,24667,1,8,0:0:0:0:
248,200,25000,1,8,0:0:0:0:
248,192,25334,1,0,0:0:0:0:
248,192,25500,1,0,0:0:0:0:
248,192,25667,1,8,0:0:0:0:
248,192,26000,1,0,0:0:0:0:
248,192,26334,1,8,0:0:0:0:
248,192,26667,1,0,0:0:0:0:
248,192,26834,1,0,0:0:0:0:
248,192,27000,1,8,0:0:0:0:
248,192,27334,1,0,0:0:0:0:
248,192,27667,1,8,0:0:0:0:
248,192,28000,1,0,0:0:0:0:
248,192,28334,1,8,0:0:0:0:
248,192,28667,1,8,0:0:0:0:
248,192,29000,1,8,0:0:0:0:
248,192,29334,1,0,0:0:0:0:
248,192,29500,1,0,0:0:0:0:
248,192,29667,1,8,0:0:0:0:
248,192,30000,1,8,0:0:0:0:
248,192,30167,1,0,0:0:0:0:
248,192,30334,1,8,0:0:0:0:
248,192,30667,1,0,0:0:0:0:
248,192,31000,1,0,0:0:0:0:
248,192,31334,1,8,0:0:0:0:
248,192,31500,1,8,0:0:0:0:
248,192,31667,1,8,0:0:0:0:
248,192,31834,1,8,0:0:0:0:
88,104,32000,2,0,L|384:112,1,280
248,192,33000,5,12,0:0:0:0:
248,192,33334,1,0,0:0:0:0:
248,192,33667,1,12,0:0:0:0:
248,200,34000,1,0,0:0:0:0:
248,192,34334,1,12,0:0:0:0:
248,200,34667,1,0,0:0:0:0:
248,192,35000,1,12,0:0:0:0:
248,200,35334,1,0,0:0:0:0:
248,192,35500,1,0,0:0:0:0:
248,192,35667,1,12,0:0:0:0:
248,200,36000,1,0,0:0:0:0:
248,192,36334,1,12,0:0:0:0:
240,192,36667,1,0,0:0:0:0:
240,192,36834,1,0,0:0:0:0:
248,192,37000,1,12,0:0:0:0:
248,192,37500,1,0,0:0:0:0:
248,192,37667,1,12,0:0:0:0:
240,192,38000,1,8,0:0:0:0:
248,192,38167,1,0,0:0:0:0:
248,192,38334,1,12,0:0:0:0:
240,184,38667,1,0,0:0:0:0:
248,192,39000,1,8,0:0:0:0:
248,192,39500,1,0,0:0:0:0:
248,192,39667,1,8,0:0:0:0:
256,192,40000,1,0,0:0:0:0:
248,192,40334,1,8,0:0:0:0:
248,192,40834,1,0,0:0:0:0:
248,192,41000,1,8,0:0:0:0:
248,192,41334,1,0,0:0:0:0:
248,184,41500,1,0,0:0:0:0:
248,192,41667,1,8,0:0:0:0:
248,192,42000,1,8,0:0:0:0:
248,192,42334,1,8,0:0:0:0:
144,128,42667,2,0,L|464:128,1,280
248,192,43667,5,12,0:0:0:0:
248,192,44000,1,8,0:0:0:0:
248,192,44334,1,0,0:0:0:0:
248,192,44667,1,8,0:0:0:0:
248,192,45000,1,0,0:0:0:0:
248,192,45334,1,8,0:0:0:0:
240,208,45500,1,0,0:0:0:0:
256,192,45667,1,0,0:0:0:0:
248,192,46000,1,8,0:0:0:0:
248,192,46167,1,0,0:0:0:0:
248,192,46334,1,0,0:0:0:0:
248,192,46667,1,8,0:0:0:0:
248,192,47000,1,0,0:0:0:0:
248,192,47334,1,8,0:0:0:0:
248,192,47667,1,0,0:0:0:0:
248,192,48000,1,8,0:0:0:0:
248,192,48167,1,8,0:0:0:0:
248,192,48334,1,0,0:0:0:0:
248,192,48667,1,8,0:0:0:0:
248,192,48834,1,8,0:0:0:0:
248,192,49000,1,0,0:0:0:0:
248,192,49334,1,8,0:0:0:0:
248,200,49667,1,0,0:0:0:0:
248,200,50000,1,8,0:0:0:0:
248,200,50334,1,0,0:0:0:0:
248,200,50667,1,8,0:0:0:0:
248,200,51000,1,0,0:0:0:0:
248,200,51334,1,8,0:0:0:0:
248,200,51500,1,8,0:0:0:0:
248,200,51667,1,0,0:0:0:0:
248,200,52000,1,8,0:0:0:0:
248,200,52334,1,0,0:0:0:0:
248,200,52667,1,8,0:0:0:0:
248,200,53000,1,0,0:0:0:0:
248,200,53334,1,8,0:0:0:0:
248,200,53667,1,0,0:0:0:0:
248,200,54000,1,0,0:0:0:0:
248,200,54167,1,0,0:0:0:0:
248,200,54334,1,12,0:0:0:0:
248,200,54667,1,8,0:0:0:0:
248,200,54834,1,8,0:0:0:0:
248,200,55000,1,8,0:0:0:0:
248,200,55334,1,0,0:0:0:0:
248,200,55500,1,0,0:0:0:0:
248,200,55667,1,0,0:0:0:0:
248,200,56000,1,8,0:0:0:0:
248,200,56167,1,8,0:0:0:0:
248,200,56334,1,8,0:0:0:0:
248,200,56667,1,0,0:0:0:0:
248,200,57000,1,0,0:0:0:0:
248,200,57334,1,8,0:0:0:0:
248,200,57667,1,8,0:0:0:0:
248,200,58000,1,0,0:0:0:0:
248,200,58167,1,0,0:0:0:0:
248,200,58334,1,0,0:0:0:0:
248,200,58667,1,8,0:0:0:0:
248,200,58834,1,8,0:0:0:0:
248,200,59000,1,8,0:0:0:0:
248,200,59334,1,0,0:0:0:0:
248,200,59500,1,0,0:0:0:0:
248,200,59667,1,0,0:0:0:0:
248,200,60000,1,0,0:0:0:0:
248,200,60334,1,0,0:0:0:0:
248,200,60667,1,8,0:0:0:0:
248,200,61000,1,0,0:0:0:0:
248,208,61334,1,8,0:0:0:0:
248,208,61500,1,8,0:0:0:0:
248,208,61834,1,0,0:0:0:0:
248,208,62000,1,0,0:0:0:0:
248,208,62334,1,8,0:0:0:0:
248,208,62667,1,0,0:0:0:0:
248,208,63000,1,8,0:0:0:0:
248,208,63167,1,8,0:0:0:0:
248,208,63334,1,0,0:0:0:0:
248,208,63500,1,0,0:0:0:0:
248,208,63667,1,8,0:0:0:0:
72,96,64000,2,0,L|384:104,1,280
248,88,65000,1,12,0:0:0:0:
200,136,65334,1,0,0:0:0:0:
200,136,65667,1,8,0:0:0:0:
160,112,66000,1,0,0:0:0:0:
200,136,66334,1,8,0:0:0:0:
200,136,66667,1,0,0:0:0:0:
200,136,67000,1,8,0:0:0:0:
184,128,67334,1,0,0:0:0:0:
184,128,67500,1,0,0:0:0:0:
200,136,67667,1,8,0:0:0:0:
208,144,68000,1,0,0:0:0:0:
208,136,68334,1,8,0:0:0:0:
184,136,68667,1,0,0:0:0:0:
208,136,69000,1,8,0:0:0:0:
208,136,69334,1,0,0:0:0:0:
208,136,69500,1,0,0:0:0:0:
208,136,69667,1,8,0:0:0:0:
184,136,70000,1,0,0:0:0:0:
208,136,70167,1,8,0:0:0:0:
208,136,70334,1,8,0:0:0:0:
208,136,70667,1,0,0:0:0:0:
208,136,71000,1,8,0:0:0:0:
208,136,71334,1,0,0:0:0:0:
216,144,71500,1,0,0:0:0:0:
208,136,71667,1,8,0:0:0:0:
208,136,72000,1,0,0:0:0:0:
208,136,72334,1,8,0:0:0:0:
208,136,72500,1,0,0:0:0:0:
208,136,72834,1,0,0:0:0:0:
208,136,73000,1,8,0:0:0:0:
208,144,73334,1,0,0:0:0:0:
208,144,73667,1,0,0:0:0:0:
208,144,74000,1,8,0:0:0:0:
216,136,74167,1,0,0:0:0:0:
208,144,74334,1,8,0:0:0:0:
104,128,74667,2,0,L|424:128,1,280
272,200,75667,5,12,0:0:0:0:
280,200,76000,1,0,0:0:0:0:
280,200,76334,1,0,0:0:0:0:
272,200,76667,1,0,0:0:0:0:
272,200,76834,1,0,0:0:0:0:
272,200,77000,1,8,0:0:0:0:
280,200,77334,1,8,0:0:0:0:
280,200,77500,1,8,0:0:0:0:
280,200,77667,1,8,0:0:0:0:
280,200,78000,1,0,0:0:0:0:
272,200,78334,1,8,0:0:0:0:
280,200,78667,1,0,0:0:0:0:
280,200,78834,1,0,0:0:0:0:
280,200,79000,1,0,0:0:0:0:
280,200,79167,1,0,0:0:0:0:
280,200,79334,1,0,0:0:0:0:
280,200,79667,1,8,0:0:0:0:
280,200,80000,1,8,0:0:0:0:
280,200,80167,1,0,0:0:0:0:
280,200,80334,1,8,0:0:0:0:
280,200,80667,1,0,0:0:0:0:
296,200,80834,1,0,0:0:0:0:
280,200,81000,1,8,0:0:0:0:
286,199,81334,1,0,0:0:0:0:
280,200,81500,1,8,0:0:0:0:
286,199,81834,1,8,0:0:0:0:
280,200,82167,1,8,0:0:0:0:
280,200,82334,1,0,0:0:0:0:
280,200,82500,1,8,0:0:0:0:
280,200,82667,1,0,0:0:0:0:
280,200,82834,1,8,0:0:0:0:
280,200,83167,1,8,0:0:0:0:
280,200,83500,1,8,0:0:0:0:
280,200,83834,1,8,0:0:0:0:
280,200,84000,1,0,0:0:0:0:
280,200,84167,1,0,0:0:0:0:
280,200,84500,1,0,0:0:0:0:
280,200,84667,1,8,0:0:0:0:
280,200,84834,1,8,0:0:0:0:
280,200,85000,1,8,0:0:0:0:
280,200,85167,1,8,0:0:0:0:
280,200,85334,1,8,0:0:0:0:
280,200,85667,1,0,0:0:0:0:
280,200,86000,1,0,0:0:0:0:
280,200,86334,1,12,0:0:0:0:
280,200,86667,1,0,0:0:0:0:
280,200,86834,1,8,0:0:0:0:
280,200,87000,1,0,0:0:0:0:
280,200,87167,1,8,0:0:0:0:
280,200,87334,1,0,0:0:0:0:
280,200,87500,1,8,0:0:0:0:
280,200,87667,1,0,0:0:0:0:
280,200,87834,1,8,0:0:0:0:
280,200,88000,1,4,0:0:0:0:
280,200,88334,1,4,0:0:0:0:
280,200,88667,1,4,0:0:0:0:
280,200,89000,1,12,0:0:0:0:
