osu file format v9

[General]
AudioFilename: Reik- Invierno.mp3
AudioLeadIn: 0
PreviewTime: 47650
Countdown: 0
SampleSet: Soft
StackLeniency: 0.7
Mode: 0
LetterboxInBreaks: 1

[Editor]
DistanceSpacing: 1.7
BeatDivisor: 4
GridSize: 4

[Metadata]
Title:Invierno
Artist:Reik
Creator:Kenezz
Version:Hard
Source:
Tags:spanish kenezzedward erufenrito

[Difficulty]
HPDrainRate:6
CircleSize:4
OverallDifficulty:6
ApproachRate:6
SliderMultiplier:1.4
SliderTickRate:2

[Events]
//Background and Video events
0,0,"BGInvierno.jpg"
//Break Periods
2,71087,76968
2,141907,146558
//Storyboard Layer 0 (Background)
//Storyboard Layer 1 (Fail)
//Storyboard Layer 2 (Pass)
//Storyboard Layer 3 (Foreground)
//Storyboard Sound Samples
//Background Colour Transformations
3,100,163,162,255

[TimingPoints]
68,491.803278688525,4,2,0,60,1,0
46789,-100,4,2,1,70,0,0
47281,-100,4,2,1,80,0,1
63018,-100,4,2,1,80,0,0
68674,-100,4,2,1,70,0,0
68920,-133.333333333333,4,2,1,80,0,0
69904,-133.333333333333,4,2,1,40,0,0
70027,-133.333333333333,4,2,1,80,0,0
70887,-100,4,2,1,60,0,0
100887,-100,4,2,1,50,0,0
101379,-100,4,2,1,60,0,0
101871,-100,4,2,1,70,0,0
102363,-100,4,2,1,80,0,1
118100,-100,4,2,1,80,0,0
125969,-100,4,2,1,80,0,1
126092,-100,4,2,1,80,0,0
141707,-100,4,2,1,60,0,0
149576,-100,4,2,1,80,0,1
164822,-100,4,2,1,60,0,1
165313,-100,4,2,1,80,0,0
173182,-100,4,2,1,60,0,0

[Colours]
Combo1 : 0,64,128
Combo2 : 0,128,255
Combo3 : 0,0,80
Combo4 : 130,132,254
SliderTrackOverride : 255,255,255
SliderBorder : 255,255,255

[HitObjects]
144,144,16789,1,0
176,64,17035,1,0
256,36,17281,1,2
336,64,17527,1,0
368,144,17772,1,0
292,184,18018,2,0,B|256:192|220:184,2,70,0|2|0
336,308,18756,6,0,B|392:348,2,70,0|0|2
256,340,19494,1,0
176,308,19740,2,0,B|120:348,2,70,0|0|2
76,172,20723,5,0
72,88,20969,1,0
152,120,21215,1,2
152,204,21461,2,0,B|228:188|256:120,1,140
256,36,22199,1,2
255,119,22445,6,0,B|284:188|360:204,1,140
436,172,23182,1,2
440,88,23428,1,0
360,120,23674,1,0
256,252,24166,1,2
164,112,24658,6,0,B|188:85|188:85|218:64,1,70
352,112,25149,2,0,B|327:85|327:85|297:64,1,70,2|0
256,136,25641,2,0,B|256:204,2,70,0|0|2
308,272,26625,6,0,B|352:328,1,70
256,340,27117,1,2
204,272,27363,2,0,B|160:328,1,70
112,256,27854,1,0
100,172,28100,1,2
140,96,28346,1,0
188,28,28592,6,0,B|256:60|324:28,1,140,0|2
372,96,29330,1,0
412,172,29576,1,0
400,256,29822,1,0
324,292,30068,2,0,B|256:260|188:292,2,140,2|0|2
256,136,31543,5,0
256,136,31789,1,0
216,60,32035,1,2
300,60,32281,1,0
376,92,32527,2,0,B|388:124|420:144,1,70
352,192,33018,1,2
352,192,33264,1,0
340,312,33510,6,0,B|276:300|252:352|252:352|228:300|164:312,1,210,0|0
160,192,34494,1,0
160,192,34740,1,0
91,144,34986,2,0,B|124:124|136:92,1,70,2|0
204,40,35477,6,0,B|220:84|256:92|292:84|308:40,1,140,2|2
368,100,36215,1,0
360,184,36461,2,0,B|348:268,1,70
300,320,36953,1,2
216,320,37199,1,0
256,244,37445,5,0
256,156,37690,1,0
152,184,37936,2,0,B|164:268,2,70,2|0|0
148,100,38674,1,0
148,100,38920,1,2
216,52,39166,1,0
256,124,39412,6,0,B|228:164|256:192|288:220|256:256,1,140,2|2
296,332,40149,1,0
364,284,40395,1,0
364,284,40641,1,0
428,232,40887,2,0,B|404:188|404:188|360:192|332:144,1,140,2|0
256,108,41625,5,0
256,108,41871,1,2
256,192,42117,1,0
180,143,42363,2,0,B|152:192|108:188|108:188|84:232,2,140,0|2|0
256,192,43592,6,0,B|280:256|364:268,1,140,2|0
256,192,44330,2,0,B|232:256|148:268,1,140,2|0
184,104,45313,6,0,B|188:48|256:12|324:48|328:104,1,210,2|2
340,188,46297,1,0
256,200,46543,1,0
256,200,46666,1,0
256,200,46789,1,8
180,232,47035,1,0
216,312,47281,5,4
296,312,47527,1,0
332,236,47772,1,8
332,236,48018,1,0
356,156,48264,2,0,B|320:148|300:116,1,70,0|0
156,156,48756,2,0,B|192:148|212:116,1,70,8|0
188,36,49248,6,0,B|256:8|324:36,2,140,2|8|0
172,120,50477,1,0
212,192,50723,2,0,B|168:248,2,70,8|0|2
256,120,51461,5,0
300,192,51707,2,0,B|343:247,1,70,8|0
320,328,52199,2,0,B|296:352|256:348,1,70
256,264,52690,2,0,B|215:259|191:283,1,70,8|0
136,348,53182,6,0,B|64:320|52:244,2,140,2|8|0
216,320,54412,1,0
296,320,54658,1,8
256,248,54904,1,0
256,164,55149,1,2
256,80,55395,5,0
340,100,55641,2,0,B|396:60,2,70,8|0|0
336,184,56379,1,0
256,208,56625,1,8
176,184,56871,1,0
172,100,57117,6,0,B|116:60,2,70,2|0|8
256,80,57854,1,0
256,164,58100,2,0,B|316:192|316:192|328:264,1,140,2|8
256,304,58838,1,0
183,264,59084,6,0,B|196:192|196:192|256:164,1,140,2|8
184,116,59822,1,0
216,40,60067,1,0
216,40,60313,1,0
296,40,60559,1,8
328,116,60805,1,0
256,160,61051,6,0,B|232:192|196:192,1,70,2|0
256,252,61543,2,0,B|280:284|316:284,1,70,8|0
292,364,62035,2,0,B|256:372|220:364,2,70,0|0|8
256,288,62772,1,0
172,300,63018,1,4
48,184,63510,6,0,B|93:116|169:152,1,140,8|0
256,156,64248,1,0
256,240,64494,2,0,B|256:312,2,70,8|0|0
256,156,65231,5,0
342,152,65477,2,0,B|418:116|464:184,2,140,8|0|8
328,68,66707,1,0
256,28,66953,1,2
184,68,67199,1,0
192,152,67445,2,0,B|256:180|256:180|320:152,1,140,8|0
392,112,68182,5,0
256,28,68428,1,0
120,112,68674,1,0
188,248,68920,6,0,B|200:300|256:324|256:324|312:300|324:248,2,209.999993741512,2|0|4
112,276,78018,5,8
256,356,78264,1,8
400,276,78510,1,8
324,240,78756,6,0,B|256:272|188:240,2,140,4|8|0
396,200,79986,1,0
420,120,80231,1,8
348,76,80477,2,0,B|352:40|388:24,2,70,0|2|0
300,144,81215,1,8
212,144,81461,5,0
164,76,81707,2,0,B|160:40|124:24,1,70,2|0
80,96,82199,2,0,B|52:160,1,70,8|0
44,244,82690,2,0,B|56:320|136:336,1,140,2|8
220,340,83428,1,0
256,264,83674,6,0,B|200:224,1,70,2|0
256,264,84166,2,0,B|312:224,1,70,8|0
396,216,84658,2,0,B|421:184|401:142|359:122|328:148,1,140,2|8
256,104,85395,1,0
184,148,85641,6,0,B|152:122|110:142|90:184|116:216,2,140,2|8|0
256,196,86871,1,0
216,268,87117,1,8
296,268,87363,1,0
368,312,87608,6,0,B|432:344,1,70,2|0
456,264,88100,2,0,B|492:252|500:212,2,70,8|0|2
424,184,88838,2,0,B|436:148|472:136,1,70,0|8
476,52,89330,1,0
392,36,89576,2,0,B|316:40|288:116,1,140,2|8
256,192,90313,1,0
223,268,90559,6,0,B|196:344|120:348,1,140,2|8
36,332,91297,1,0
40,247,91543,2,0,B|76:236|88:200,1,70
12,170,92035,2,0,B|20:132|56:120,1,70,8|0
81,40,92527,2,0,B|144:72,1,70
196,140,93018,2,0,B|228:136|312:92|308:44|256:16|204:44|200:92|284:136|316:140,1,280,8|8
396,288,94494,6,0,B|440:236,2,70,2|0|8
312,296,95231,1,0
256,360,95477,1,0
200,296,95723,1,0
116,288,95969,2,0,B|72:236,1,70,8|0
92,152,96461,6,0,B|160:128|220:188,1,140,2|8
296,196,97199,2,0,B|355:255|423:231,1,140,2|0
436,148,97936,1,8
392,76,98182,1,0
312,44,98428,6,0,B|272:56|256:88|256:88|240:56|204:44,1,140,2|8
176,124,99166,2,0,B|212:140|216:180,1,70
296,176,99658,2,0,B|299:138|335:122,2,70,0|8|0
300,260,100395,2,0,B|288:300|256:312|256:312|224:300|212:260,1,140,2|8
124,192,101133,5,8
152,84,101379,1,8
256,44,101625,1,8
360,84,101871,1,8
388,192,102117,1,8
416,272,102363,6,0,B|454:268|478:296,1,70,4|0
416,352,102854,2,0,B|376:360|352:336,1,70,8|0
272,308,103346,2,0,B|196:296|176:216,1,140,2|8
256,192,104084,1,0
335,165,104330,6,0,B|316:88|240:76,1,140,2|8
160,48,105067,2,0,B|136:24|96:32,1,70
33,87,105559,2,0,B|57:115|96:112,1,70,0|8
92,196,106051,1,0
108,280,106297,6,0,B|152:336,1,70,2|0
220,288,106789,2,0,B|256:276|292:288,1,70,8|0
360,335,107281,2,0,B|404:280,1,70,0|0
468,228,107772,1,8
496,148,108018,1,0
464,72,108264,6,0,B|444:40|404:44,1,70,2|0
384,124,108756,2,0,B|348:116|332:80,1,70,8|0
256,48,109248,1,0
256,132,109494,1,0
179,80,109740,2,0,B|164:116|128:124,1,70,8|0
107,43,110231,6,0,B|68:40|48:72,1,70,4|0
48,156,110723,2,0,B|52:236|116:272,1,140,8|0
168,336,111461,2,0,B|212:284,1,70,0|8
256,208,111953,1,0
298,282,112199,6,0,B|344:336,2,70,2|0|8
340,208,112936,1,0
396,268,113182,2,0,B|459:232|463:152,1,140,0|8
456,68,113920,1,0
392,16,114166,6,0,B|352:12|332:44,1,70,2|0
256,76,114658,2,0,B|256:144,1,70,8|0
256,236,115149,2,0,B|256:306,1,70
179,340,115641,2,0,B|160:372|120:368,1,70,8|0
108,284,116133,6,0,B|79:306|28:295|17:244|40:216,1,140,2|8
40,132,116871,1,0
88,64,117117,2,0,B|117:60|164:97|141:153|115:164,2,140,2|8|4
256,92,118592,6,0,B|256:160,1,70,8|0
168,156,119084,1,0
212,228,119330,1,0
300,228,119576,1,8
344,156,119822,1,0
404,100,120067,6,0,B|432:77|483:88|494:139|471:167,1,140,2|8
472,252,120805,1,0
424,320,121051,2,0,B|394:323|347:286|370:230|396:219,2,140,0|8|0
256,348,122527,6,0,B|220:364|184:348,2,70,8|0|0
256,264,123264,1,0
256,264,123510,1,8
256,180,123756,2,0,B|292:164|328:180,1,70,0|2
256,180,124248,2,0,B|220:164|184:180,1,70,0|8
132,116,124740,1,0
188,52,124986,2,0,B|256:20|324:52,1,140,2|8
380,116,125723,1,0
436,180,125969,6,0,B|412:244,1,70,4|0
408,328,126461,2,0,B|344:304,1,70,8|0
340,220,126953,2,0,B|300:211|298:171,1,70
213,171,127445,6,0,B|212:211|172:220,1,70,8|0
169,303,127936,2,0,B|104:328,2,70,0|0|8
100,245,128674,2,0,B|76:180,2,70
164,192,129412,1,8
128,116,129658,1,0
60,68,129904,6,0,B|80:40|120:36,1,70
196,44,130395,2,0,B|220:68|256:80|256:80|292:68|316:44,1,140,8|0
392,36,131133,2,0,B|432:40|452:68,1,70,0|8
384,116,131625,1,0
348,192,131871,5,0
324,272,132117,2,0,B|300:336,1,70,0|8
212,337,132608,2,0,B|188:272,1,70,0|2
188,272,133346,2,0,B|107:260|96:181,1,140,8|4
40,120,134084,5,0
120,96,134330,2,0,B|113:63|80:39,1,70,8|0
160,8,134822,2,0,B|176:44|212:48,1,70
256,120,135313,1,8
256,120,135559,1,0
299,48,135805,6,0,B|336:44|352:8,1,70,2|0
430,39,136297,2,0,B|398:63|392:96,1,70,8|0
472,120,136789,1,0
472,204,137035,1,0
432,276,137281,2,0,B|356:268|324:348,1,140,8|2
256,384,138018,1,0
187,346,138264,6,0,B|156:268|80:276,2,140,8|0|8
256,296,139494,1,0
320,240,139740,2,0,B|256:192|192:240,1,140,2|8
84,192,140477,5,0
88,72,140723,1,8
196,120,140969,1,8
316,120,141215,1,0
424,72,141461,1,0
428,192,141707,1,4
256,192,147608,12,4,149576
120,200,150068,5,8
172,268,150313,1,0
212,192,150559,2,0,B|220:156|256:140|256:140|292:156|300:192,2,140,2|8|0
256,264,151789,6,0,B|256:332,2,70,0|8|0
340,268,152527,1,0
392,200,152772,1,0
420,120,153018,1,8
380,44,153264,1,0
308,88,153510,6,0,B|228:99|217:178,1,140,2|8
294,204,154248,2,0,B|283:284|204:296,1,140,2|0
132,340,154986,1,8
100,264,155231,6,0,B|64:276|52:312,2,70
52,196,155969,1,8
52,196,156215,1,0
99,119,156461,2,0,B|64:108|52:72,1,70
132,48,156953,1,8
132,48,157199,1,0
188,108,157445,6,0,B|256:88|256:88|324:108,1,140,4|8
380,168,158182,1,0
304,204,158428,2,0,B|287:249|255:252|219:254|207:300,1,140,2|8
256,368,159166,1,0
303,298,159412,6,0,B|292:254|256:252|224:249|208:204,1,140,2|8
220,120,160149,2,0,B|256:128|256:128|292:120,1,70
336,52,160641,1,0
420,52,160887,1,8
452,132,161133,1,0
404,200,161379,6,0,B|428:264,1,70,2|0
372,328,161871,1,8
292,304,162117,2,0,B|224:304,1,70,0|0
140,328,162608,1,0
83,265,162854,2,0,B|108:200,1,70,8|0
100,116,163346,6,0,B|152:121|152:121|185:167|185:167|213:154,1,140,2|8
298,155,164084,2,0,B|326:167|326:167|359:121|359:121|412:116,1,140,2|8
452,40,164822,1,8
416,20,164945,1,8
376,28,165068,1,8
300,60,165313,5,4
212,60,165559,1,0
172,132,165805,2,0,B|208:140|208:140|224:168,1,70,8|0
287,215,166297,2,0,B|304:244|304:244|340:252,1,70
300,324,166789,1,8
212,324,167035,1,0
136,284,167281,6,0,B|160:208|160:208|188:224|220:212,1,140,2|8
293,171,168018,2,0,B|324:160|352:176|352:176|376:100,1,140,2|0
440,152,168756,1,8
472,76,169002,1,0
408,24,169248,2,0,B|372:6|342:26,1,70,2|0
256,32,169740,5,8
170,27,169986,2,0,B|139:6|104:24,2,70
204,104,170723,2,0,B|216:144|256:156|296:144|308:104,2,140,8|2|8
100,144,171953,5,2
116,256,172199,1,2
200,328,172445,1,8
312,328,172690,1,8
396,256,172936,1,2
412,144,173182,1,4
