osu file format v13

[General]
AudioFilename: Reik- Inolvidable.mp3
AudioLeadIn: 0
PreviewTime: 46179
Countdown: 0
SampleSet: Soft
StackLeniency: 0.7
Mode: 0
LetterboxInBreaks: 0
EpilepsyWarning: 1
WidescreenStoryboard: 1

[Editor]
DistanceSpacing: 0.8
BeatDivisor: 4
GridSize: 4
TimelineZoom: 1

[Metadata]
Title:Inolvidable
TitleUnicode:Inolvidable
Artist:Reik
ArtistUnicode:Reik
Creator:XinCrin
Version:Normal
Source:
Tags:[Te][Amo] Larissa eLtigreXXx Gero Gonzvlo mancuso_JM_ mancusojuanmattos Xanandra ErufenRito MoodyRPG KokoroStudiox3 Collab Collaboration
BeatmapID:286068
BeatmapSetID:92838

[Difficulty]
HPDrainRate:3
CircleSize:3
OverallDifficulty:3
ApproachRate:4.5
SliderMultiplier:1.3
SliderTickRate:1

[Events]
//Background and Video events
0,0,"BG.jpg",0,0
//Break Periods
2,78413,83823
//Storyboard Layer 0 (Background)
//Storyboard Layer 1 (Fail)
//Storyboard Layer 2 (Pass)
//Storyboard Layer 3 (Foreground)
//Storyboard Sound Samples
//Background Colour Transformations
3,100,163,162,255

[TimingPoints]
165,487.80487804878,4,2,1,70,1,0
43213,-100,4,2,0,70,0,0
43457,-100,4,2,1,70,0,0
44921,-100,4,2,0,70,0,0
45164,-100,4,2,1,70,0,0
46994,-100,4,2,1,70,0,1
62360,-100,4,2,1,70,0,0
62604,-100,4,2,1,70,0,1
78213,-100,4,2,1,70,0,0
95774,-100,4,2,0,70,0,0
96140,-100,4,2,1,70,0,0
107604,-100,4,2,0,70,0,0
107847,-100,4,2,1,70,0,0
117238,-100,4,2,1,70,0,1
132604,-100,4,2,1,70,0,0
132847,-100,4,2,1,70,0,1
142725,-100,4,2,0,70,0,1
142969,-100,4,2,1,70,0,1
146750,-100,4,2,0,70,0,1
146872,-100,4,2,1,70,0,1
148457,-100,4,2,1,70,0,0
152482,-100,4,2,0,70,0,0
152725,-100,4,2,1,70,0,0
158335,-100,4,2,0,70,0,0
158579,-100,4,2,1,70,0,0
160286,-100,4,2,0,70,0,0
160530,-100,4,2,1,70,0,0
175896,-100,4,2,0,70,0,0
176140,-100,4,2,1,70,0,0
179677,-100,4,2,1,70,0,1
188579,-100,4,2,0,70,0,1
188823,-100,4,2,1,70,0,1
195043,-100,4,2,1,70,0,0
195286,-100,4,2,1,70,0,1
210896,-100,4,2,1,70,0,0
216628,-100,4,2,1,5,0,0

[Colours]
Combo1 : 255,216,98
Combo2 : 193,204,64
Combo3 : 194,179,150
Combo4 : 237,190,139

[HitObjects]
68,68,15774,6,0,B|52:112|64:144|64:144|100:184,1,130,4|4,0:0|3:0,0:0:0:0:
200,156,16750,2,0,B|216:112|204:80|204:80|169:41,2,130,0|4|0,0:0|3:0|0:0,0:0:0:0:
144,244,18213,1,4,3:0:0:0:
216,320,18701,2,0,B|268:336|308:304|308:304|352:304,1,130,0|4,0:0|3:0,0:0:0:0:
444,304,19677,6,0,P|472:244|448:188,1,130,0|4,0:0|3:0,0:0:0:0:
352,152,20652,1,0,0:0:0:0:
248,156,21140,2,0,P|224:97|252:40,2,130,4|0|4,3:0|0:0|3:0,0:0:0:0:
296,248,22604,2,0,L|152:268,1,130,0|4,0:0|3:0,0:0:0:0:
116,264,23335,6,0,B|84:228|88:192|88:192|96:140,1,130,2|2,0:0|0:0,0:0:0:0:
136,112,24067,1,4,3:0:0:0:
236,88,24556,2,0,L|364:70,1,130,2|4,0:0|3:0,0:0:0:0:
412,96,25286,1,2,0:0:0:0:
456,128,25530,2,0,L|460:264,1,130,0|4,0:0|3:0,0:0:0:0:
392,336,26506,2,0,B|332:340|304:300|304:300|272:300,1,130,0|4,0:0|3:0,0:0:0:0:
176,340,27482,6,0,P|112:352|60:320,1,130,0|4,0:0|3:0,0:0:0:0:
80,216,28457,2,0,P|142:203|196:236,1,130,0|4,0:0|3:0,0:0:0:0:
272,308,29433,1,2,0:0:0:0:
372,344,29921,2,0,B|404:300|404:300|384:268|392:224,1,130,4|0,3:0|0:0,0:0:0:0:
412,180,30652,2,0,P|440:164|460:132,1,65,2|8,0:0|0:0,0:0:0:0:
436,36,31384,6,0,B|380:48|364:100|364:100|328:108,1,130,4|8,1:0|0:0,0:0:0:0:
256,172,32360,1,2,0:0:0:0:
175,106,32847,2,0,B|148:100|148:100|132:48|76:36,1,130,0|8,1:0|0:0,0:0:0:0:
56,140,33823,2,0,L|60:280,2,130,8|2|8,0:0|0:0|0:0,0:0:0:0:
144,88,35286,5,2,0:0:0:0:
244,112,35774,2,0,P|307:120|360:86,1,130,8|0,0:0|0:0,0:0:0:0:
460,56,36750,2,0,B|484:100|432:140|452:184,1,130,8|0,0:0|0:0,0:0:0:0:
496,276,37725,1,8,0:0:0:0:
396,316,38213,2,0,B|352:348|304:292|272:320,1,130,2|8,0:0|0:0,0:0:0:0:
168,336,39189,6,0,B|120:344|72:288|72:288|108:268|132:208|104:156,1,260,0|0,0:0|0:0,0:0:0:0:
76,112,40408,1,0,0:0:0:0:
44,72,40652,1,8,0:0:0:0:
148,60,41140,2,0,L|284:72,1,130,0|8,0:0|0:0,0:0:0:0:
372,36,42116,2,0,P|380:92|336:152,1,130,2|8,0:0|0:0,0:0:0:0:
292,164,42847,6,0,B|240:200|240:200|264:268|208:320,1,195,0|8,0:0|0:0,0:0:0:0:
140,240,44067,1,2,0:0:0:0:
64,312,44555,2,0,P|32:248|152:132,1,260,8|8,0:0|0:0,0:0:0:0:
244,100,46018,2,0,P|228:72|200:40,2,65,8|8|8,0:0|0:0|0:0,0:0:0:0:
268,200,46994,5,4,1:0:0:0:
368,232,47482,2,0,B|384:276|372:308|372:308|337:346,1,130,8|2,0:0|0:0,0:0:0:0:
236,316,48457,2,0,B|220:272|232:240|232:240|267:201,2,130,8|2|8,0:0|0:0|0:0,0:0:0:0:
132,332,49921,2,0,L|124:196,1,130,2|8,0:0|0:0,0:0:0:0:
120,152,50652,1,0,0:0:0:0:
148,108,50896,6,0,P|196:68|264:80,1,130,2|8,0:0|0:0,0:0:0:0:
328,156,51872,2,0,P|390:164|439:124,2,130,2|8|2,0:0|0:0|0:0,0:0:0:0:
320,52,53335,1,8,0:0:0:0:
216,36,53823,2,0,L|84:36,1,130,2|8,0:0|0:0,0:0:0:0:
56,136,54799,6,0,P|100:180|100:244,1,130,4|8,0:0|0:0,0:0:0:0:
64,284,55530,2,0,L|216:292,1,130,2|2,0:0|0:0,0:0:0:0:
236,320,56262,2,0,P|316:348|372:316,1,130,8|2,0:0|0:0,0:0:0:0:
424,252,57238,2,0,P|367:223|305:239,1,130,8|2,0:0|0:0,0:0:0:0:
200,228,58213,6,0,L|68:228,1,130,8|2,0:0|0:0,0:0:0:0:
60,124,59189,2,0,L|190:124,1,130,8|2,0:0|0:0,0:0:0:0:
276,180,60164,1,8,0:0:0:0:
364,128,60652,2,0,L|372:56,2,65,8|0|8,0:0|0:0|0:0,0:0:0:0:
436,208,61628,2,0,L|504:192,2,65,8|8|8,0:0|0:0|0:0,0:0:0:0:
340,248,62604,6,0,B|280:264|264:324|264:324|220:340|160:336|144:272,1,260,4|2,1:0|0:0,0:0:0:0:
108,176,64067,1,8,0:0:0:0:
44,92,64555,2,0,P|104:68|168:88,1,130,2|8,0:0|0:0,0:0:0:0:
232,164,65530,2,0,P|293:181|352:157,1,130,2|8,0:0|0:0,0:0:0:0:
392,124,66262,1,2,0:0:0:0:
436,96,66506,6,0,L|436:228,1,130,2|8,0:0|0:0,0:0:0:0:
424,276,67238,2,0,B|368:304|324:276|324:276|296:292,1,130,2|0,0:0|0:0,0:0:0:0:
256,308,67969,2,0,P|192:340|132:320,1,130,8|2,0:0|0:0,0:0:0:0:
72,244,68945,1,8,0:0:0:0:
108,148,69433,2,0,P|163:116|225:131,1,130,2|8,0:0|0:0,0:0:0:0:
264,168,70164,6,0,P|325:182|381:151,1,130,2|0,0:0|0:0,0:0:0:0:
416,112,70896,2,0,L|432:260,2,130,8|2|8,0:0|0:0|0:0,0:0:0:0:
332,48,72360,1,2,0:0:0:0:
232,68,72847,1,8,0:0:0:0:
128,84,73335,2,0,B|136:140|180:160|180:160|184:196,1,130,2|8,0:0|0:0,0:0:0:0:
256,268,74311,5,2,0:0:0:0:
328,193,74799,2,0,B|332:160|332:160|376:140|384:84,2,130,8|2|8,0:0|0:0|0:0,0:0:0:0:
256,192,76262,12,4,78213,0:0:0:0:
460,348,86018,6,0,B|488:284|448:224|448:224|384:260|320:228,1,260,4|0,1:0|0:0,0:0:0:0:
256,148,87482,1,8,0:0:0:0:
172,88,87969,2,0,P|152:140|176:208,2,130,0|8|0,0:0|0:0|0:0,0:0:0:0:
272,52,89433,6,0,L|412:40,2,130,8|0|8,0:0|0:0|0:0,0:0:0:0:
168,32,90896,1,2,0:0:0:0:
72,76,91384,1,8,0:0:0:0:
120,168,91872,2,0,B|88:212|144:244|112:296,2,130,0|8|0,0:0|0:0|0:0,0:0:0:0:
216,128,93335,1,8,0:0:0:0:
312,92,93823,6,0,P|376:72|440:100,1,130,0|8,0:0|0:0,0:0:0:0:
460,192,94799,2,0,L|436:324,1,130,0|8,0:0|0:0,0:0:0:0:
392,344,95530,2,0,B|340:360|292:324|292:324|244:308|204:340,1,195,2|8,0:0|0:0,0:0:0:0:
104,352,96750,2,0,P|56:308|48:240,1,130,0|8,0:0|0:0,0:0:0:0:
48,196,97482,1,0,0:0:0:0:
88,164,97725,6,0,B|144:156|164:112|164:112|200:124,1,130,0|8,0:0|0:0,0:0:0:0:
256,208,98701,1,2,0:0:0:0:
316,122,99189,2,0,B|348:112|348:112|368:156|424:164,2,130,8|0|8,0:0|0:0|0:0,0:0:0:0:
256,208,100652,2,0,L|256:272,2,65,0|2|0,0:0|0:0|1:0,0:0:0:0:
188,128,101628,6,0,P|120:132|64:80,2,130,4|8|0,1:0|0:0|0:0,0:0:0:0:
256,48,103091,1,8,0:0:0:0:
324,128,103579,2,0,P|387:133|439:96,2,130,0|8|0,0:0|0:0|0:0,0:0:0:0:
256,208,105043,2,0,L|256:344,1,130,8|0,0:0|0:0,0:0:0:0:
156,312,106018,5,8,0:0:0:0:
52,328,106506,2,0,P|56:264|100:220,1,130,0|8,0:0|0:0,0:0:0:0:
152,208,107238,2,0,B|200:224|244:200|244:200|296:168|340:200,1,195,0|8,0:0|0:0,0:0:0:0:
360,300,108457,2,0,P|420:272|440:212,1,130,0|8,0:0|0:0,0:0:0:0:
392,124,109433,5,4,0:0:0:0:
312,56,109921,1,8,0:0:0:0:
212,88,110408,2,0,P|136:108|84:84,1,130,0|8,0:0|0:0,0:0:0:0:
56,128,111140,2,0,L|44:192,1,65
48,296,111872,2,0,P|104:316|168:292,1,130,8|0,0:0|0:0,0:0:0:0:
256,236,112847,2,0,P|315:212|375:232,1,130,8|0,0:0|0:0,0:0:0:0:
444,308,113823,6,0,L|504:184,1,130,8|0,0:0|0:0,0:0:0:0:
452,96,114799,1,8,0:0:0:0:
356,52,115286,2,0,B|288:88|212:32|212:32|176:68|112:76,1,260,0|8,0:0|0:0,0:0:0:0:
36,140,116750,1,8,0:0:0:0:
132,176,117238,5,4,1:0:0:0:
80,264,117725,2,0,P|124:304|196:284,1,130,8|2,0:0|0:0,0:0:0:0:
256,212,118701,1,8,0:0:0:0:
323,291,119189,2,0,P|384:304|432:264,2,130,2|8|2,0:0|0:0|0:0,0:0:0:0:
256,212,120652,1,8,0:0:0:0:
208,188,120896,1,2,0:0:0:0:
160,212,121140,6,0,B|116:236|92:209|76:184|28:208,1,130,2|8,0:0|0:0,0:0:0:0:
44,308,122116,1,2,0:0:0:0:
144,332,122604,2,0,B|187:355|210:328|227:303|266:323,1,130,8|2,0:0|0:0,0:0:0:0:
368,344,123579,2,0,P|416:296|408:232,1,130,8|2,0:0|0:0,0:0:0:0:
348,156,124555,1,8,0:0:0:0:
248,128,125043,6,0,L|116:128,1,130,4|8,1:0|0:0,0:0:0:0:
80,164,125774,2,0,P|56:224|80:284,1,130,2|2,0:0|0:0,0:0:0:0:
116,320,126506,2,0,L|246:320,1,130,8|2,0:0|0:0,0:0:0:0:
344,280,127482,1,8,0:0:0:0:
400,192,127969,1,2,0:0:0:0:
396,88,128457,6,0,P|456:96|496:152,2,130,8|2|8,0:0|0:0|0:0,0:0:0:0:
316,156,129921,2,0,B|280:156|255:141|255:141|228:156|188:156,1,130,2|8,0:0|0:0,0:0:0:0:
115,87,130896,2,0,P|53:97|16:149,1,130,2|8,0:0|0:0,0:0:0:0:
32,252,131872,2,0,L|20:316,2,65,8|8|8,0:0|0:0|0:0,0:0:0:0:
136,232,132847,6,0,B|220:276|276:188|276:188|304:236|356:248,1,260,4|2,1:0|0:0,0:0:0:0:
448,216,134311,2,0,P|452:272|408:336,2,130,8|2|8,0:0|0:0|0:0,0:0:0:0:
372,144,135774,2,0,P|420:112|492:120,2,130,2|8|2,0:0|0:0|0:0,0:0:0:0:
268,160,137238,5,8,0:0:0:0:
232,64,137725,1,2,0:0:0:0:
128,56,138213,1,8,0:0:0:0:
88,152,138701,2,0,P|104:220|72:268,2,130,2|8|2,0:0|0:0|0:0,0:0:0:0:
188,128,140164,1,8,0:0:0:0:
292,128,140652,6,0,L|488:144,1,195,4|0,1:0|0:0,0:0:0:0:
500,196,141628,2,0,P|456:240|452:304,1,130,2|8,0:0|0:0,0:0:0:0:
448,356,142360,2,0,L|253:340,1,195,2|8,0:0|0:0,0:0:0:0:
204,248,143579,1,2,0:0:0:0:
100,232,144067,1,8,0:0:0:0:
24,160,144555,6,0,B|72:116|144:132|144:132|116:92|124:52,1,195,2|0,0:0|0:0,0:0:0:0:
168,48,145530,2,0,P|232:56|292:28,1,130,2|8,0:0|0:0,0:0:0:0:
344,36,146262,2,0,L|320:236,1,195,2|8,0:0|0:0,0:0:0:0:
248,304,147482,2,0,P|272:324|308:336,2,65,8|8|8,0:0|0:0|0:0,0:0:0:0:
212,208,148457,6,0,B|172:212|156:240|156:240|128:224|96:228,1,130,4|8,0:0|0:0,0:0:0:0:
16,164,149433,1,0,0:0:0:0:
92,92,149921,2,0,B|132:88|148:60|148:60|176:76|208:72,1,130,8|2,0:0|0:0,0:0:0:0:
312,52,150896,1,8,0:0:0:0:
404,100,151384,2,0,L|388:232,1,130,0|8,0:0|0:0,0:0:0:0:
384,280,152116,6,0,B|304:300|256:248|256:248|232:276|192:276,1,195,2|8,0:0|0:0,0:0:0:0:
116,228,153335,2,0,P|104:280|132:352,2,130,0|8|0,0:0|0:0|0:0,0:0:0:0:
148,128,154799,1,8,0:0:0:0:
240,84,155286,2,0,P|300:112|356:80,1,130,0|8,0:0|0:0,0:0:0:0:
392,52,156018,1,0,0:0:0:0:
444,64,156262,6,0,L|440:200,1,130,4|8,0:0|0:0,0:0:0:0:
436,300,157238,2,0,B|392:304|360:268|360:268|352:292|316:300,1,130,0|8,0:0|0:0,0:0:0:0:
280,280,157969,2,0,P|196:240|108:280,1,195,2|8,0:0|0:0,0:0:0:0:
96,176,159189,2,0,P|148:156|228:156,1,130,0|8,0:0|0:0,0:0:0:0:
272,168,159921,6,0,B|328:188|352:232|352:232|392:224|448:240,1,195,0|8,0:0|0:0,0:0:0:0:
492,148,161140,2,0,L|500:16,1,130,0|8,0:0|0:0,0:0:0:0:
396,28,162116,2,0,P|328:48|268:28,1,130,0|8,0:0|0:0,0:0:0:0:
176,64,163091,2,0,L|144:128,1,65,8|0,0:0|0:0,0:0:0:0:
148,176,163579,2,0,L|184:240,1,65,8|8,0:0|0:0,0:0:0:0:
200,280,164067,6,0,P|248:304|324:292,1,130,4|8,0:0|0:0,0:0:0:0:
360,200,165043,1,2,0:0:0:0:
460,168,165530,1,8,0:0:0:0:
428,68,166018,2,0,B|388:80|376:40|332:64|332:64|312:32|276:72|244:32,1,195,2|2,0:0|0:0,0:0:0:0:
200,28,166994,2,0,P|132:36|96:84,1,130,2|8,0:0|0:0,0:0:0:0:
132,180,167969,6,0,B|160:216|196:220|196:220|188:240|208:272,1,130,2|8,0:0|0:0,0:0:0:0:
305,269,168945,2,0,B|324:240|316:220|316:220|352:216|380:180,1,130,2|8,0:0|0:0,0:0:0:0:
384,76,169921,2,0,P|444:92|484:144,2,130,2|8|2,0:0|0:0|0:0,0:0:0:0:
284,52,171384,1,8,0:0:0:0:
180,68,171872,6,0,B|128:84|92:68|92:68|88:100|68:116,1,130,4|8,1:0|0:0,0:0:0:0:
20,192,172847,1,2,0:0:0:0:
76,280,173335,2,0,B|85:285|89:317|89:317|125:301|177:317,1,130,8|2,0:0|0:0,0:0:0:0:
256,252,174311,1,8,0:0:0:0:
334,317,174799,2,0,B|386:301|422:317|422:317|426:285|436:280,1,130,2|8,0:0|0:0,0:0:0:0:
440,228,175530,6,0,B|392:160|392:160|452:144|460:80,1,195,2|8,0:0|0:0,0:0:0:0:
356,64,176750,2,0,L|224:80,1,130,2|8,0:0|0:0,0:0:0:0:
124,56,177725,2,0,B|100:80|100:80|92:120,1,65,0|8,0:0|0:0,0:0:0:0:
120,156,178213,2,0,B|112:188|112:188|89:209,1,65,8|8,0:0|0:0,0:0:0:0:
60,256,178701,2,0,B|66:286|66:286|90:310,1,65,8|8,0:0|0:0,0:0:0:0:
136,336,179189,1,8,0:0:0:0:
228,288,179677,6,0,P|288:264|348:292,1,130,4|8,1:0|0:0,0:0:0:0:
384,324,180408,2,0,L|428:200,1,130,2|0,0:0|0:0,0:0:0:0:
408,152,181140,2,0,P|349:176|291:151,1,130,8|2,0:0|0:0,0:0:0:0:
232,64,182116,2,0,P|173:39|115:63,1,130,8|2,0:0|0:0,0:0:0:0:
100,112,182847,2,0,L|76:184,1,65,0|8,0:0|0:0,0:0:0:0:
84,276,183579,6,0,B|136:296|168:248|168:248|184:276|204:276,1,130,2|8,0:0|0:0,0:0:0:0:
256,192,184555,1,2,0:0:0:0:
308,104,185043,1,8,0:0:0:0:
204,104,185530,1,2,0:0:0:0:
256,192,186018,1,8,0:0:0:0:
322,272,186506,2,0,B|328:276|344:248|344:248|376:296|428:276,1,130,2|8,0:0|0:0,0:0:0:0:
452,176,187482,6,0,P|476:116|448:56,1,130,4|8,0:0|0:0,0:0:0:0:
348,76,188457,1,0,0:0:0:0:
288,160,188945,1,8,0:0:0:0:
228,76,189433,2,0,P|184:56|104:56,1,130,0|8,0:0|0:0,0:0:0:0:
72,156,190408,2,0,B|104:212|64:260|64:260|88:284,1,130,2|8,0:0|0:0,0:0:0:0:
176,300,191384,6,0,B|228:276|228:276|252:300|304:292,1,130,4|8,0:0|0:0,0:0:0:0:
400,304,192360,2,0,P|464:276|476:220,1,130,0|8,0:0|0:0,0:0:0:0:
428,136,193335,2,0,L|444:72,2,65,8|8|8,0:0|0:0|0:0,0:0:0:0:
324,152,194311,2,0,L|340:88,2,65,8|8|8,0:0|0:0|0:0,0:0:0:0:
268,240,195286,6,0,P|172:296|52:224,1,260,4|0,1:0|0:0,0:0:0:0:
80,128,196750,2,0,P|72:64|16:64,2,130,8|0|8,0:0|0:0|0:0,0:0:0:0:
180,152,198213,2,0,L|312:128,1,130,0|8,0:0|0:0,0:0:0:0:
352,100,198945,1,0,0:0:0:0:
392,132,199189,6,0,P|368:208|436:296,1,195,4|0,0:0|0:0,0:0:0:0:
464,336,200164,2,0,L|332:336,1,130,0|8,0:0|0:0,0:0:0:0:
256,268,201140,1,0,0:0:0:0:
178,336,201628,2,0,L|48:336,1,130,8|0,0:0|0:0,0:0:0:0:
24,236,202604,1,8,0:0:0:0:
80,148,203091,6,0,B|136:168|160:80|160:80|192:112|244:72|304:96,1,260,4|0,0:0|0:0,0:0:0:0:
380,152,204555,2,0,P|448:196|496:176,2,130,8|0|8,0:0|0:0|0:0,0:0:0:0:
284,188,206018,2,0,L|292:324,1,130,0|8,0:0|0:0,0:0:0:0:
192,348,206994,6,0,B|92:368|72:324|72:324|116:260|68:200|52:200,1,260,4|0,0:0|0:0,0:0:0:0:
64,104,208457,1,8,0:0:0:0:
108,80,208701,1,0,0:0:0:0:
152,52,208945,1,0,0:0:0:0:
240,108,209433,2,0,P|312:152|408:96,1,195,8|8,0:0|0:0,0:0:0:0:
436,80,210408,2,0,L|456:212,1,130,8|4,0:0|1:0,0:0:0:0:
428,308,211384,5,8,0:0:0:0:
324,324,211872,2,0,L|192:308,1,130,2|8,0:0|0:0,0:0:0:0:
176,208,212847,2,0,L|44:192,2,130,2|8|2,0:0|0:0|0:0,0:0:0:0:
268,156,214311,2,0,P|324:116|388:120,2,130,8|2|8,0:0|0:0|0:0,0:0:0:0:
352,220,215774,1,2,0:0:0:0:
332,324,216262,1,8,0:0:0:0:
332,324,216506,1,4,0:0:0:0:
256,192,216750,12,0,220652,0:0:0:0:
