osu file format v5

[General]
AudioFilename: 428_the_sun_rises.mp3
AudioLeadIn: 0
PreviewTime: -1
Countdown: 1
SampleSet: Soft
StackLeniency: 0.7
Mode: 0
LetterboxInBreaks: 1
EditorBookmarks: 7648,17340,22302,37187,51956,66725,81494,96263,111033,111518,111980,112441,112879,127763,142417,157187,172071,186725,216263,218110,232994,240725,247763,262417,277187,291956,321494,323456

[Metadata]
Title:The Sun Rises
Artist:Rei Kondoh
Creator:An64fan
Version:Easy
Source:
Tags:Okami

[Difficulty]
HPDrainRate:3
CircleSize:3
OverallDifficulty:3
SliderMultiplier:1
SliderTickRate:1

[Events]
//Background and Video events
0,0,"okami-springairwallbbs.jpg"
//Break Periods
2,63694,65285
2,81694,82823
2,105693,109592
//Storyboard Layer 0 (Background)
//Storyboard Layer 1 (Failing)
//Storyboard Layer 2 (Passing)
//Storyboard Layer 3 (Foreground)
//Storyboard Sound Samples
//Background Colour Transformations
3,100,163,162,255

[TimingPoints]
7652,461.538461538462,4,2,0,100,1
81498,461.538461538462,4,2,0,75,0
112882,461.538461538462,4,2,0,100,0

[Colours]
Combo1 : 1,133,197
Combo2 : 1,220,176
Combo3 : 255,222,155
Combo4 : 0,164,4
Combo5 : 255,153,0

[HitObjects]
192,96,7651,2,0,B|312:96,2,100
192,192,9036,1,0
288,192,9498,1,0
448,320,10421,2,0,B|224:320,1,200
64,320,12267,5,0
128,192,13190,1,0
192,64,14113,1,0
352,64,15036,2,2,B|352:176,1,100,0|2
384,96,17344,5,0
288,96,17805,1,0
192,96,18267,1,0
192,192,18728,1,0
192,288,19190,5,2
96,288,19652,1,2
96,192,20113,1,2
96,96,20575,2,2,B|96:32,1,50,2|2
96,288,22421,6,0,B|160:320|256:320|288:256,1,200
320,128,24267,1,0
448,224,25190,2,2,B|448:288|384:288,2,100,2|2|2
368,176,26575,2,2,B|144:176,2,200,0|0|0
448,128,28882,2,2,B|504:155|499:201|480:224,2,100
384,64,30267,5,0
288,64,30728,1,0
96,64,31652,1,0
96,256,32575,1,0
224,128,33498,5,0
320,128,33959,1,0
416,128,34421,1,2
383,218,34882,1,2
287,218,35344,1,2
96,64,37190,6,0,B|320:64,1,200,0|0
384,160,38575,2,0,B|160:160,1,200,0|0
96,256,39959,2,0,B|320:256,1,200,0|0
384,352,41344,2,2,B|160:352,1,200,0|2
96,256,42728,2,2,B|320:256,1,200,0|2
352,96,44575,5,0
256,96,45036,1,0
160,96,45498,1,0
192,186,45959,1,0
288,186,46421,1,0
384,186,46882,5,2
432,272,47344,1,2
336,272,47805,1,2
240,272,48267,1,2
64,224,49652,6,2,B|61:175|93:139|128:128,1,100,0|2
160,96,51959,6,0,B|277:96,2,100
128,256,54728,2,0,B|251:256,2,100
32,128,56805,2,0,B|55:78|92:45|160:64,1,150
288,224,59575,6,0,B|352:224,1,50
448,96,60728,1,0
352,64,61190,2,0,B|294:65|262:97|256:128,1,100,0|2
231,256,62575,6,0,B|113:256,2,100
320,64,66728,6,0,B|256:64|224:96,1,100
160,160,67652,1,0
160,256,68113,2,0,B|192:320|256:288,1,100
336,288,69036,1,0
384,96,69959,5,0
288,96,70421,2,0,B|185:96,1,100
128,256,71805,2,2,B|244:256,2,100
320,320,74344,6,0,B|352:320|384:288,1,50
384,147,75498,1,0
384,64,75959,2,0,B|320:64,2,50
256,160,77344,5,0
192,96,77805,2,0,B|160:64|96:64|64:160|96:224,1,200
192,352,79652,2,2,B|273:354|336:326|384:271|415:189|404:70,1,400,2|0
96,96,84267,6,0,B|64:128|64:192,1,100,0|0
128,256,85190,2,0,B|178:319|284:317|317:234|288:128,1,300
160,96,88882,6,0,B|96:96|64:160|64:192|96:256,1,200
192,256,90267,2,0,B|302:256,1,100
384,256,92575,1,2
224,160,93498,1,2
64,64,94421,1,2
224,64,96267,6,0,B|337:87|376:187|288:288|192:288|160:192|192:128|256:160,1,400
64,256,99959,2,2,B|96:192|160:160|192:192|224:224|258:279|325:283|371:276|403:233|416:192,1,400,0|2
288,96,103651,5,0
160,192,105036,2,2,B|96:192,2,50,0|0|0
256,64,111036,6,2,B|192:160|192:160|288:192|288:192|224:256|224:256|288:352,1,400,0|2
368,320,113344,1,2
352,224,113805,1,2
259,278,114267,1,2
163,278,114728,1,2
160,128,115651,5,0
256,128,116113,1,0
352,128,116575,1,0
448,256,117498,5,0
320,352,118421,1,0
224,224,119344,1,0
96,192,120036,2,2,B|128:128,2,50
256,64,122575,5,0
160,128,123036,1,0
256,192,123498,1,0
352,256,123959,1,0
256,320,124421,5,2
176,256,124882,1,2
256,192,125344,1,2
256,80,125805,2,2,B|256:16,1,50,0|2
384,128,127651,5,0
288,288,128575,2,0,B|256:320|192:336|128:320|96:288,1,200
128,128,130421,2,2,B|240:128,2,100
128,224,131805,5,0
208,272,132267,1,0
288,224,132728,1,0
368,272,133190,1,0
448,144,134113,2,2,B|448:80,3,50,2|2|2|2
304,96,135498,5,0
208,96,135959,1,0
80,208,136882,1,0
208,288,137805,1,0
352,288,138728,5,0
352,192,139190,1,0
256,192,139651,1,2
160,192,140113,1,2
160,96,140575,1,2
184,169,142421,6,0,B|189:261|278:320|387:271|421:130|272:86|218:135|269:193,1,400
416,128,146113,2,2,B|352:96|288:128|309:216|339:241|320:288|256:320|192:320|128:256,1,400,0|2
244,96,150267,5,0
160,128,150728,1,0
224,192,151190,1,0
313,194,151651,1,0
384,256,152113,5,0
445,193,152575,1,0
448,108,153036,1,2
359,108,153498,1,2
224,224,154882,5,2
153,268,155344,1,2
320,96,157190,6,0,B|384:96|384:160,2,100
128,96,159959,2,0,B|112:193|140:257|224:224,1,200
320,160,162267,2,2,B|429:160,1,100,0|2
320,320,164805,6,0,B|256:320,1,50,0|0
96,224,165959,1,0
96,128,166421,2,0,B|160:128|192:192,1,100
320,256,167805,1,2
353,167,168267,2,2,B|385:135|353:103|321:71,1,100,2|2
128,96,170113,6,0,B|96:96|64:128|96:192,1,100,0|0
179,192,171036,2,0,B|222:237|181:278|147:288,1,100,0|0
256,320,171959,6,2,B|320:320|320:320|288:288|288:288|320:256|320:256|304:212,1,200,0|2
246,87,173575,2,2,B|192:64|192:64|160:96|160:96|192:160|192:160|104:205,1,250,0|2
96,288,175190,2,2,B|128:320|128:320|160:288|160:288|256:288|256:288|352:224,1,300,0|2
384,128,177036,2,2,B|416:64|416:64|384:32|384:32|352:64|352:64|192:96,1,300,0|2
64,192,179575,6,0,B|96:256,1,50
256,288,180728,1,0
352,288,181190,2,2,B|416:288,2,50,0|0|0
256,128,182575,1,2
176,176,183036,1,2
256,192,183498,12,0,186728
