osu file format v9

[General]
AudioFilename: 13. The Call.mp3
AudioLeadIn: 1004
PreviewTime: 64625
Countdown: 0
SampleSet: Soft
StackLeniency: 0.7
Mode: 0
LetterboxInBreaks: 0
SkinPreference:Default

[Editor]
Bookmarks: 131979
DistanceSpacing: 1.4
BeatDivisor: 4
GridSize: 4

[Metadata]
Title:The Call
Artist:Regina Spektor
Creator:Mok
Version:Normal
Source:The Chronicles of Narnia: Prince Caspian
Tags:Trilogy Soundtrack DiamondCrash

[Difficulty]
HPDrainRate:5
CircleSize:4
OverallDifficulty:4
ApproachRate:4
SliderMultiplier:1.2
SliderTickRate:1

[Events]
//Background and Video events
0,0,"The Call BG.jpg"
//Break Periods
//Storyboard Layer 0 (Background)
//Storyboard Layer 1 (Fail)
//Storyboard Layer 2 (Pass)
//Storyboard Layer 3 (Foreground)
//Storyboard Sound Samples
//Background Colour Transformations
3,100,163,162,255

[TimingPoints]
1430,659.340659340659,4,2,1,20,1,0
22528,-100,4,2,1,25,0,0
43627,-100,4,2,1,20,0,0
114836,-100,4,2,1,30,0,0
120111,-100,4,2,1,40,0,0
122748,-100,4,2,1,20,0,0
127368,-100,4,2,1,0,0,0
127697,-100,4,2,1,20,0,0
176805,769.230769230769,4,2,1,20,1,0

[Colours]
Combo1 : 0,45,89
Combo2 : 151,75,0
Combo3 : 255,117,117

[HitObjects]
256,192,1430,1,2
184,232,1759,2,0,B|248:288|200:360,2,120,0|2|0
252,80,3737,1,0
184,232,4397,5,2
264,252,4726,2,0,B|200:308|248:380,1,120
320,376,5715,2,0,B|384:320|336:248,1,120
488,192,7034,5,0
488,24,7693,1,2
488,104,8023,1,0
488,104,8353,2,0,B|408:88|320:184|408:288|496:280,1,300,2|0
336,344,10660,1,0
168,344,11320,1,0
24,280,11979,2,0,B|104:296|192:200|104:96|16:104,1,300,2|0
256,16,14616,6,0,B|256:144,1,120
320,192,15605,1,2
256,344,16265,1,0
192,192,16924,1,2
96,344,17584,6,0,B|160:296,2,60
256,296,18902,1,2
416,344,19562,2,0,B|352:296,2,60
416,344,20551,1,2
352,192,21210,1,0
184,192,21869,1,2
96,40,22529,5,4
40,104,22858,2,0,B|120:176|224:88|176:0,1,240,0|2
256,160,24836,2,0,B|256:344,2,180,0|2|0
364,32,27473,5,0
364,32,27803,2,0,B|320:109|424:197|504:125,2,240,4|0|0
440,64,30770,1,0
440,64,31100,1,0
408,336,31759,5,0
320,336,32089,1,2
160,336,32748,1,2
72,336,33078,1,0
112,176,33737,5,0
168,240,34067,1,0
336,240,34726,1,0
392,176,35056,1,2
256,72,35715,1,0
136,192,36375,1,0
256,312,37034,1,2
376,192,37693,1,0
208,192,38353,6,0,B|144:192,1,60,0|2
256,64,39342,2,0,B|256:128,2,60,0|2|0
304,192,40660,2,0,B|368:192,1,60,0|2
424,352,41649,1,0
256,320,42309,1,2
88,352,42968,1,0
128,192,43627,6,0,B|256:192,1,120,4|0
392,104,44946,2,0,B|472:104,2,60
392,104,45935,1,0
224,104,46594,1,0
192,272,47254,5,0
256,216,47583,1,0
320,272,47913,1,0
464,192,48572,5,0
320,272,49232,1,0
168,192,49891,1,2
136,272,50221,2,0,B|24:244|40:112|152:108,2,240,0|2|0
136,272,53188,1,0
256,152,53847,1,2
256,152,54177,5,0
376,272,54836,1,0
376,272,55166,2,0,B|479:242|459:107|359:101,2,240
256,320,58462,1,0
256,152,59122,6,0,B|256:72,2,60
180,300,60440,2,0,B|236:364|308:260|372:332,2,180
176,296,62748,1,4
256,152,63408,1,0
256,152,63737,1,2
336,296,64397,1,2
336,296,64726,1,4
256,152,65386,5,0
184,104,65715,1,0
208,24,66045,1,0
296,24,66375,1,0
328,104,66704,1,2
192,192,67364,6,0,B|248:248|248:336|176:384|112:360,1,240
144,280,69012,1,0
144,280,69342,1,0
368,280,70001,5,0
368,280,70331,1,0
320,192,70660,1,0
320,192,70990,2,0,B|264:248|264:336|336:384|400:360,2,240,2|0|0
256,136,73957,6,0,B|256:8,2,120,2|2|2
192,288,75935,1,0
168,208,76265,1,2
336,208,76924,1,0
312,288,77254,1,2
168,128,77913,2,0,B|96:88,2,60
344,128,79232,2,0,B|416:88,2,60
256,272,80550,5,0
256,272,80880,1,2
256,104,81539,1,2
256,104,81868,1,0
416,144,82528,2,0,B|472:200|424:248,1,120,0|4
256,344,84506,6,0,B|256:216,2,120
312,184,86484,1,2
336,104,86814,1,0
168,104,87473,1,0
192,184,87803,1,2
344,256,88462,2,0,B|416:296,2,60,0|2|0
168,256,89781,2,0,B|96:296,2,60,0|0|2
256,112,91099,5,2
256,112,91429,1,0
256,280,92088,1,2
256,280,92419,1,0
256,112,93078,1,0
256,192,93408,12,4,96375
256,192,98023,6,0,B|256:264,2,60
168,192,99012,1,2
256,192,99342,1,0
336,192,99671,1,2
256,192,100001,1,0
204,128,100331,6,0,B|148:72,2,60,2|2|0
312,256,101649,2,0,B|368:312,2,60,2|0|0
468,192,102968,1,0
320,112,103627,2,0,B|376:56,2,60,0|2|0
184,208,104946,6,0,B|128:256|64:200,1,120
128,144,105935,1,2
72,80,106265,2,0,B|128:32|192:88,1,120
296,200,107583,6,0,B|352:152|416:208,2,120,2|0|2
352,264,109232,1,0
408,328,109562,2,0,B|352:376|288:320,2,120,0|2|0
256,264,111539,6,0,B|256:344,2,60
144,136,112858,2,0,B|216:64|288:192|376:120,1,240,2|0
368,264,114836,2,0,B|424:320,2,60,0|2|0
368,136,116155,2,0,B|296:64|224:192|136:120,2,240,0|2|0
320,200,119122,5,0
256,248,119451,1,0
184,200,119781,1,2
112,248,120111,2,0,B|69:290,2,60
256,332,121429,2,0,B|328:404|400:276|488:348,1,240,0|2
400,196,123408,6,0,B|400:132,2,60,0|2|0
256,108,124726,2,0,B|208:60,2,60,2|0|2
256,272,126045,1,2
256,272,126704,1,2
256,272,127364,1,2
128,160,128023,6,0,B|80:112,2,60
76,228,129012,2,0,B|156:284|260:204|196:100,1,240
204,116,130660,1,0
256,48,130990,1,2
308,116,131320,1,0
436,228,131979,6,0,B|356:284|252:204|316:100,1,240,2|0
220,148,133627,1,0
232,232,133957,1,2
288,296,134287,1,0
120,296,134946,5,2
120,296,135276,1,0
256,192,135935,1,2
392,296,136594,1,0
488,152,137254,1,0
488,152,137583,1,0
408,304,138243,6,0,B|208:304,1,180,0|2
104,192,139891,2,0,B|176:192,2,60
16,192,140880,1,0
144,296,141539,2,0,B|200:216|296:352|368:264,1,240
296,216,143188,5,0
296,216,143517,1,2
464,192,144177,2,0,B|392:192,2,60,0|2|0
296,192,145495,1,2
360,136,145825,2,0,B|304:56|208:192|136:104,1,240
256,232,147803,2,0,B|256:368,1,120
256,352,148792,1,0
336,320,149122,6,0,B|416:336|464:264|432:192,1,180,4|0
328,88,150770,1,0
256,40,151100,1,0
160,176,151759,1,4
224,232,152089,1,0
288,176,152419,1,0
344,232,152748,1,0
176,320,153408,2,0,B|96:336|48:264|80:192,1,180,0|2
176,88,155056,6,0,B|176:160,2,60,0|2|0
176,88,156045,1,0
336,152,156704,2,0,B|336:80,2,60,2|0|2
336,152,157693,1,0
256,296,158353,5,0
256,296,158682,1,0
184,144,159342,1,0
232,216,159671,1,0
144,216,160001,1,0
384,128,160990,6,0,B|472:40,2,120
256,240,162968,1,0
256,240,163627,1,2
128,128,164287,2,0,B|40:40,2,120
256,16,166265,1,0
256,184,166924,1,0
256,272,167254,1,0
176,296,167583,6,0,B|208:368|288:360,2,120
256,272,169232,1,0
256,104,169891,1,0
336,88,170221,2,0,B|304:16|224:24,2,120
472,192,172199,1,0
428,264,172528,1,0
384,192,172858,5,0
256,304,173517,1,0
256,216,173847,1,2
256,128,174177,1,2
40,192,174836,1,0
84,264,175165,1,0
128,192,175495,5,0
256,84,176155,2,0,B|256:20,1,60
256,84,176805,1,2
256,244,177574,1,0
256,244,178343,1,0
