osu file format v6

[General]
AudioFilename: Regi Ft. Scala - I Fail.mp3
AudioLeadIn: 0
PreviewTime: 64768
Countdown: 1
SampleSet: Normal
StackLeniency: 0.7
Mode: 0
LetterboxInBreaks: 1

[Editor]
Bookmarks: 93029,126942,188246,234333
DistanceSpacing: 1
BeatDivisor: 4
GridSize: 8

[Metadata]
Title:I Fail
Artist:Regi Ft. Scala
Creator:osuplayer111
Version:Insane
Source:
Tags:

[Difficulty]
HPDrainRate:6
CircleSize:5
OverallDifficulty:7
SliderMultiplier:1.6
SliderTickRate:2

[Events]
//Background and Video events
0,0,"Regi Ft. Scala.jpg"
Video,0,"Regi ft Scala I Fail.flv"
//Break Periods
2,121055,126912
2,185185,187999
//Storyboard Layer 0 (Background)
//Storyboard Layer 1 (Fail)
//Storyboard Layer 2 (Pass)
//Storyboard Layer 3 (Foreground)
//Storyboard Sound Samples
//Background Colour Transformations
3,100,163,162,255

[TimingPoints]
-14,434.782608695652,4,1,0,100,1,0
4551,-100,4,2,0,0,0,0
6290,-100,4,2,0,100,0,0
7594,-100,4,2,0,0,0,0
8138,-100,4,2,0,100,0,0
13246,-100,4,2,0,0,0,0
13790,-100,4,2,0,100,0,0
18899,-100,4,2,0,0,0,0
20203,-100,4,2,0,100,0,0
22377,-100,4,2,0,0,0,0
24333,-100,4,2,0,100,0,0
25746,-100,4,2,0,0,0,0
27159,-100,4,2,0,100,0,0
29333,-100,4,2,0,0,0,0
30420,-100,4,1,0,60,0,0
32159,-100,4,1,1,100,0,0
52594,-100,4,2,0,80,0,0
56507,-100,4,1,0,45,0,0
58029,-100,4,1,0,66,0,0
59768,-100,4,1,0,86,0,0
61507,-100,4,1,0,100,0,0
62159,-100,4,1,0,80,0,0
62594,-100,4,1,0,60,0,0
63029,-100,4,1,0,40,0,0
63464,-100,4,2,0,20,0,0
64333,-100,4,1,0,60,0,0
64986,-100,4,1,0,100,0,0
65638,-100,4,2,0,60,0,0
68899,-100,4,1,0,60,0,0
71290,-100,4,2,0,60,0,0
75638,-100,4,1,0,60,0,0
78681,-100,4,2,0,60,0,0
79116,-100,4,1,0,80,0,0
81507,-100,4,2,0,80,0,0
82268,-100,4,1,0,80,0,0
82485,-100,4,2,0,80,0,0
82812,-100,4,1,0,80,0,0
85203,-100,4,2,0,80,0,0
86072,-100,4,1,0,80,0,0
86181,-100,4,2,0,80,0,0
89333,-100,4,1,0,80,0,0
93029,-100,4,1,0,100,0,1
106399,-100,4,1,0,100,0,0
106507,-100,4,2,0,100,0,0
106616,-100,4,1,0,100,0,0
109333,-100,4,2,0,100,0,0
110638,-100,4,1,0,100,0,0
112812,-100,4,2,0,100,0,0
117377,-100,4,1,1,100,0,0
148464,-100,4,2,0,80,0,0
151942,-100,4,1,0,45,0,0
153681,-100,4,1,0,65,0,0
155420,-100,4,1,0,85,0,0
157159,-100,4,1,0,100,0,0
157812,-100,4,1,0,80,0,0
158246,-100,4,1,0,60,0,0
158681,-100,4,1,0,40,0,0
159116,-100,4,2,0,20,0,0
159551,-100,4,1,0,70,0,0
160638,-100,4,1,0,100,0,0
161290,-100,4,2,0,100,0,0
171725,-100,4,2,0,0,0,0
172594,-100,4,2,0,60,0,0
174768,-100,4,1,0,80,0,0
177159,-100,4,2,0,80,0,0
178029,-100,4,1,0,80,0,0
178246,-100,4,2,0,80,0,0
178464,-100,4,1,0,80,0,0
180855,-100,4,2,0,80,0,0
181725,-100,4,1,0,80,0,0
181942,-100,4,2,0,80,0,0
184985,-100,4,1,0,80,0,0
188899,-100,4,1,0,100,0,1
202159,-100,4,2,0,100,0,0
202377,-100,4,1,0,100,0,0
202812,-100,4,2,0,100,0,0
206290,-100,4,1,0,100,0,0
208464,-100,4,2,0,100,0,0
213029,-100,4,1,0,100,0,0
216072,-100,4,2,0,100,0,0
216507,-100,4,1,0,100,0,0
218899,-100,4,2,0,100,0,0
220203,-100,4,1,0,100,0,0
222594,-100,4,2,0,100,0,0
226942,-100,4,1,0,100,0,0
230529,-100,4,2,0,0,0,1

[Colours]
Combo1 : 255,255,255
Combo2 : 0,128,255
Combo3 : 128,0,128
Combo4 : 255,0,0

[HitObjects]
256,192,4333,2,0,B|232:248|304:288|432:288|544:224|520:104|344:80|240:80|168:80|136:160|136:256,1,640,4|0
432,344,6942,1,2
272,344,7377,2,0,B|256:304|192:272|96:344|40:328|32:216|40:160,1,320,0|2
472,48,10420,6,0,B|304:48,1,160,2|0
152,48,11290,1,2
96,104,11507,1,0
40,48,11725,1,2
496,192,13029,2,0,B|416:160|392:296|368:200|376:152|240:160|256:288,1,320,2|0
112,352,14333,2,0,B|128:240|80:240|40:240|0:240,1,160,0|2
40,160,14985,1,0
96,104,15203,1,2
464,312,17377,6,0,B|464:224|384:224|392:176,2,160,2|0|2
384,320,18464,1,0
304,320,18681,2,0,B|40:328|88:240|-16:280|176:88|240:256|0:240|16:104|224:112,1,480,2|0
480,240,20855,1,2
344,328,21290,2,0,B|320:224|464:224|416:72|328:32,1,320,0|2
256,192,22377,12,0,23899
176,48,25203,5,2
176,128,25420,1,0
256,128,25638,2,0,B|392:128|400:208|384:264|328:320|248:328|88:320,1,480,2|0
424,328,27812,1,2
272,272,28246,2,0,B|272:104|336:88|432:88|472:88,1,320,0|2
256,192,29333,12,0,30203
320,56,30420,5,0
280,56,30529,1,0
240,56,30638,1,0
200,56,30746,1,0
160,56,30855,1,8
96,104,31072,1,0
96,104,31181,1,0
96,104,31290,1,8
56,176,31507,1,0
56,256,31725,1,8
96,328,31942,2,0,B|200:328,1,80
336,328,32594,5,8
440,264,32920,1,0
336,200,33246,1,0
336,200,33464,1,8
256,56,33899,2,0,B|232:96|192:104|152:104|120:56,1,160,0|8
32,144,34659,1,0
32,264,34985,1,0
32,264,35203,1,8
184,320,35638,5,0
344,320,36072,2,0,B|344:232|400:216,2,120,8|0|0
264,320,36942,1,8
424,320,37377,1,0
392,160,37812,1,8
392,40,38138,1,0
288,96,38464,2,0,B|240:96|224:56,1,80,0|8
64,64,39116,5,0
64,224,39551,1,8
120,328,39877,1,0
64,224,40203,1,0
136,256,40420,2,0,B|312:256,1,160,8|0
440,192,41290,1,8
256,40,41725,1,0
256,120,41942,1,0
216,192,42159,2,0,B|120:184|144:112|64:112,1,160,8|0
48,272,43029,1,8
144,336,43355,5,0
264,336,43681,1,0
296,312,43790,1,0
328,336,43899,1,8
256,192,44333,1,0
256,32,44768,1,8
256,112,44985,2,0,B|344:112,1,80
496,112,45638,2,0,B|496:280,1,160,8|4
344,319,46507,5,8
224,320,46833,1,0
128,248,47159,1,0
48,248,47377,1,8
88,88,47812,1,0
232,152,48246,2,0,B|232:104|264:88|224:80|232:48|248:48|248:32,2,120,8|0|0
312,152,49116,1,8
432,40,49551,1,0
480,192,49985,1,8
440,304,50312,2,0,B|440:216|368:224,1,120
328,288,50855,1,8
176,232,51290,5,0
16,192,51725,1,8
88,96,52051,1,0
192,32,52377,1,0
464,80,52812,5,2
424,152,53029,2,0,B|336:152|336:224|272:184,1,160,0|8
264,264,53681,1,0
208,320,53899,1,0
128,320,54116,1,0
128,320,54225,1,0
128,320,54333,1,8
48,272,54551,1,0
64,192,54768,6,0,B|160:192,1,80,0|0
448,192,55203,2,0,B|352:192,1,80,8|0
256,192,55638,1,0
256,192,55855,1,0
256,152,55964,1,0
256,112,56072,1,8
256,32,56290,1,0
176,32,56507,5,4
136,48,56616,1,0
104,72,56725,1,0
80,104,56833,1,0
56,136,56942,1,8
48,176,57051,1,0
64,208,57159,1,0
88,240,57268,1,0
112,272,57377,1,0
144,296,57485,1,0
176,320,57594,1,0
216,320,57703,1,0
256,320,57812,1,8
456,192,58246,6,0,B|408:192,12,40,4|0|0|0|8|0|0|0|0|0|0|0|8
256,48,59985,6,0,B|256:88,18,26.6666666666667
72,192,61725,6,0,B|40:192,32,20
256,344,64768,5,0
256,40,65203,1,4
40,192,67594,5,0
40,192,67703,1,0
40,192,67812,2,0,B|96:192|112:232|160:200,2,120,2|0|0
40,112,68681,1,2
112,80,68899,5,0
144,64,69007,1,0
176,48,69116,1,0
256,48,69333,1,0
256,48,69442,1,0
336,48,69659,1,0
416,64,69877,1,0
448,88,69985,1,0
448,168,70203,1,0
448,248,70420,1,0
440,288,70529,1,0
424,320,70638,1,0
344,328,70855,1,0
264,328,71072,1,0
224,328,71181,1,0
184,328,71290,6,0,B|184:232|256:240,2,120,2|0|0
112,288,72159,1,2
32,192,72485,1,0
112,104,72812,1,2
304,48,73355,1,0
304,48,73464,1,2
304,48,73681,1,0
320,128,73899,2,0,B|232:136|224:72,2,120,2|0|0
464,352,74985,1,2
40,352,75420,1,2
256,192,75855,5,0
256,272,76072,1,0
336,272,76290,1,0
336,272,76399,1,0
256,272,76616,1,0
176,272,76833,1,0
176,272,76942,1,0
96,272,77159,1,0
56,200,77377,2,0,B|88:120,1,80
144,72,77812,1,0
208,32,78029,1,0
248,32,78138,1,0
320,64,78355,1,0
336,144,78572,5,0
336,144,78681,2,0,B|432:144|432:208|496:184,1,160,2|4
472,264,79333,1,0
416,320,79551,1,0
336,320,79768,1,0
336,320,79877,1,0
256,344,80094,1,0
176,320,80312,1,0
176,320,80420,1,0
96,320,80638,1,0
256,272,81072,1,0
256,192,81290,1,0
256,112,81507,6,2,B|256:16,1,80
256,192,82051,1,2
360,128,82377,1,4
440,128,82594,1,2
432,208,82812,6,0,B|488:208,2,40
432,288,83246,1,0
408,320,83355,1,0
328,320,83572,1,0
256,352,83790,1,0
224,328,83899,1,0
144,328,84116,1,0
88,272,84333,1,0
40,208,84551,1,0
88,144,84768,1,0
136,80,84985,1,0
136,80,85094,1,0
136,80,85203,5,2
152,208,85529,2,0,B|176:168|264:160,1,120,0|2
256,160,86072,1,4
363,212,86399,2,2,B|315:212|251:156,1,120
32,192,87812,1,2
152,192,88138,1,0
96,296,88464,1,2
256,304,88899,2,0,B|280:232|200:224|256:152|280:152|280:144,1,160,2|4
376,32,89768,5,0
448,56,89985,1,0
480,128,90203,1,0
480,128,90312,1,0
488,208,90529,1,0
472,288,90746,1,0
472,288,90855,1,0
408,336,91072,1,0
88,344,91507,1,0
40,280,91725,1,0
24,200,91942,1,0
24,200,92051,1,0
40,120,92268,1,0
80,48,92485,1,0
80,48,92594,1,0
160,48,92812,1,0
160,48,93029,6,0,B|208:48|208:104,1,80,4|0
256,160,93464,1,0
256,240,93681,1,0
256,280,93790,1,0
328,320,94007,1,0
408,336,94225,1,0
448,336,94333,1,0
448,256,94551,1,0
488,192,94768,6,0,B|432:192|408:144,1,80
472,104,95203,1,0
400,64,95420,1,0
360,48,95529,1,0
280,56,95746,1,0
200,48,95964,1,0
160,64,96072,1,0
80,64,96290,1,0
32,128,96507,5,0
104,168,96725,2,0,B|104:216,2,40
184,168,97159,1,0
184,168,97268,1,0
256,200,97485,1,0
184,240,97703,1,0
184,240,97812,1,0
184,320,98029,1,0
256,360,98246,1,0
328,320,98464,5,0
328,320,98572,1,0
328,320,98681,1,0
328,240,98899,1,0
328,240,99007,1,0
256,200,99225,1,0
256,120,99442,1,0
256,80,99551,1,0
328,40,99768,1,0
328,40,99985,6,0,B|368:16|408:40,1,80
456,96,100420,1,0
408,160,100638,1,0
432,192,100746,1,0
472,256,100964,1,0
448,336,101181,1,0
408,336,101290,1,0
328,352,101507,2,0,B|240:352,1,80
176,320,101942,5,0
176,320,102051,1,0
176,320,102159,1,0
104,352,102377,1,0
104,352,102485,1,0
32,320,102703,1,0
32,240,102920,1,0
32,200,103029,1,0
32,120,103246,1,0
96,72,103464,5,0
168,40,103681,2,0,B|256:40,1,80
320,64,104116,1,0
320,64,104225,1,0
392,32,104442,1,0
392,32,104551,1,0
392,112,104768,2,0,B|472:184,1,80
376,200,105203,2,0,B|320:264,1,80
256,296,105638,1,0
176,296,105855,1,0
144,320,105964,1,0
64,320,106181,1,0
32,248,106399,1,0
32,208,106507,6,0,B|32:144|32:112|80:56,1,160,2|4
144,112,107159,5,0
200,56,107377,1,0
256,112,107594,1,0
256,112,107703,1,0
312,56,107920,1,0
368,112,108138,1,0
368,112,108246,1,0
424,168,108464,1,0
424,248,108681,2,0,B|424:304|312:280|312:360,1,160
232,352,109333,5,2
152,352,109551,1,0
40,304,109877,1,2
40,184,110203,1,0
112,144,110420,1,2
40,112,110638,5,0
64,80,110746,1,0
96,56,110855,1,0
176,56,111072,1,0
216,56,111181,1,0
288,24,111399,1,0
360,56,111616,1,0
400,56,111725,1,0
464,104,111942,1,0
464,184,112159,2,0,B|376:240,1,80
400,304,112594,1,0
256,184,113029,6,0,B|352:184|368:152,2,120,2|0|2
256,104,113899,2,0,B|160:104|144:136,2,120,0|2|0
32,352,115638,1,2
128,280,115964,1,0
32,200,116290,2,0,B|72:128|128:216|184:160,1,160,2|0
256,32,117159,1,2
480,192,117594,5,0
448,264,117812,1,0
400,328,118029,1,0
400,328,118138,1,0
400,328,118355,1,0
320,328,118572,1,0
320,328,118681,1,0
320,328,118899,1,0
264,264,119116,1,0
216,328,119333,1,0
264,264,119551,1,0
200,216,119768,2,0,B|160:168,1,40
168,104,120094,1,0
184,64,120203,1,0
256,88,120420,2,0,B|256:176,1,80,0|0
256,169,120855,1,4
40,48,127812,5,0
40,344,128246,1,8
472,344,128681,1,0
472,48,129116,1,8
256,192,129551,1,0
40,192,129985,1,8
472,192,130420,1,0
256,48,130855,1,8
256,344,131290,1,0
200,184,131725,2,0,B|256:232|320:192|312:160,2,120,8|0|0
199,184,132594,5,8
56,112,133029,1,0
64,272,133464,1,8
160,192,133790,1,0
216,80,134116,2,0,B|256:48|296:88,1,80,0|8
448,88,134768,2,0,B|472:184|376:224,1,160,0|8
392,344,135529,1,0
272,344,135855,1,0
192,344,136072,1,8
472,344,136507,5,0
40,344,136942,1,8
256,40,137377,5,0
256,344,137812,1,8
40,192,138246,2,0,B|128:200|104:120|208:128,1,160,0|8
280,192,139007,1,0
400,192,139333,1,0
480,192,139551,1,8
440,40,139985,1,0
400,192,140420,1,8
256,264,140855,6,0,B|160:264|168:152,2,160,0|8|4
392,336,142159,1,8
464,240,142485,1,0
352,192,142812,1,0
352,112,143029,1,8
208,40,143464,1,0
48,40,143899,1,8
48,160,144225,1,0
48,280,144551,5,0
112,328,144768,2,0,B|280:328,2,160,8|0|8
200,240,145964,1,0
272,144,146290,1,0
272,64,146507,1,8
408,144,146942,1,0
472,288,147377,1,8
376,360,147703,1,0
256,360,148029,1,0
176,360,148246,1,8
64,248,148681,6,0,B|64:152|128:160|104:88,1,160,2|8
216,48,149442,1,0
336,48,149768,2,0,B|416:96,1,80,0|8
472,232,150420,2,0,B|400:296,1,80
328,280,150855,2,0,B|240:280,1,80,8|0
224,200,151290,2,0,B|272:128|304:240|360:128,1,160,0|8
240,32,152159,5,4
200,32,152268,1,0
168,56,152377,1,0
136,32,152485,1,0
104,56,152594,1,8
104,96,152703,1,0
72,120,152812,1,0
40,144,152920,1,0
40,184,153029,1,0
64,208,153138,1,0
104,208,153246,1,0
104,248,153356,1,0
136,232,153464,1,8
432,192,153899,6,0,B|480:192,12,40,4|0|0|0|8|0|0|0|0|0|0|0|8
256,320,155638,6,0,B|256:368,18,26.6666666666667
56,192,157377,6,0,B|32:192,32,20
472,192,160420,5,0
40,192,160855,1,4
256,32,163246,5,0
296,32,163355,1,0
328,56,163464,1,2
256,152,163790,2,0,B|200:152|192:208|136:184,1,120,2|0
145,187,164333,1,2
360,296,166942,6,0,B|448:296|464:344,2,120,2|0|2
280,296,167812,1,0
160,296,168138,1,2
280,296,168464,1,0
56,72,169551,2,0,B|56:160|120:168,1,120,2|0
224,120,170203,2,0,B|272:120|256:48|368:40,1,160,2|0
480,136,171072,2,0,B|384:136|448:264|296:272,1,240,2|0
48,48,174333,6,0,B|144:48|136:168,1,160,2|4
72,208,174985,1,0
136,256,175202,1,0
200,304,175420,1,0
232,328,175529,1,0
312,328,175746,1,0
392,328,175964,1,0
416,296,176072,1,0
464,232,176290,1,0
392,192,176507,2,0,B|392:136|440:128,1,80
432,48,176942,1,0
352,32,177159,5,0
312,48,177268,1,0
272,32,177377,1,2
192,48,177594,1,0
128,104,177812,2,0,B|128:152|200:152,1,80,2|4
136,216,178246,1,2
64,256,178464,5,0
64,336,178681,1,0
144,344,178899,1,0
144,344,179007,1,0
224,336,179225,1,0
304,352,179442,1,0
304,352,179551,1,0
384,336,179768,1,0
464,360,179985,1,0
464,360,180094,1,0
488,280,180312,1,0
488,280,180420,1,0
448,208,180638,1,0
448,128,180855,6,0,B|312:80,2,120,2|0|2
448,128,181725,1,4
336,88,182051,1,2
448,128,182377,1,0
56,192,183464,1,2
128,96,183790,1,0
56,192,184116,1,2
216,192,184551,2,0,B|216:288|128:256|136:328,1,160,0|4
32,192,188899,5,0
88,248,189116,1,0
144,304,189333,1,0
184,304,189442,1,0
256,344,189659,1,0
320,304,189877,1,0
360,304,189986,1,0
336,224,190203,1,0
408,80,190638,5,0
376,56,190746,1,0
336,56,190855,1,0
256,56,191072,1,0
256,56,191181,1,0
176,72,191399,1,0
176,72,191507,1,0
176,72,191616,1,0
176,72,191725,1,0
176,72,191942,1,0
80,200,192377,6,0,B|40:216|40:272,1,80
96,320,192812,1,0
128,344,192920,1,0
208,320,193138,1,0
288,320,193355,1,0
320,296,193464,1,0
368,232,193681,2,0,B|368:136|440:144|488:144,1,160
448,64,194333,5,0
368,40,194551,1,0
368,40,194659,1,0
288,64,194877,1,0
248,64,194986,1,0
168,40,195203,1,0
88,64,195420,2,0,B|32:144,1,80
32,208,195855,5,0
56,280,196072,1,0
112,336,196290,1,0
112,336,196399,1,0
192,336,196616,1,0
192,256,196833,1,0
192,256,196942,1,0
192,336,197159,1,0
256,192,197594,5,0
264,112,197812,1,0
336,72,198029,1,0
376,72,198138,1,0
456,72,198355,1,0
376,72,198572,1,0
336,72,198681,1,0
256,40,198899,1,0
96,72,199333,5,0
64,96,199442,1,0
32,120,199551,1,0
24,200,199768,1,0
24,240,199877,1,0
56,312,200094,2,0,B|104:352|184:312,1,120
170,318,200638,1,0
256,184,201072,1,0
336,184,201290,1,0
296,248,201507,1,0
296,248,201616,1,0
296,248,201725,1,0
376,248,201942,1,0
424,184,202159,5,2
344,48,202594,1,4
160,328,203029,1,2
160,48,203464,1,0
352,328,203899,1,2
256,192,204333,1,0
40,192,204986,5,2
120,192,205203,2,0,B|56:248|136:288,2,120,0|2|0
40,192,206072,1,2
40,112,206290,5,0
72,88,206399,1,0
104,64,206507,1,0
176,32,206725,1,0
176,32,206833,1,0
256,40,207051,1,0
256,40,207159,1,0
256,40,207268,1,0
256,40,207377,1,0
256,40,207594,1,0
408,96,208029,1,0
488,96,208246,1,0
448,248,208681,6,0,B|448:344|400:352,1,120,2|0
280,352,209333,1,2
200,352,209551,2,0,B|200:256|152:248,1,120,0|2
32,248,210203,1,0
256,24,211290,1,2
256,144,211616,1,0
256,24,211942,1,2
184,168,212377,2,0,B|120:184|96:104|32:136,1,160,0|2
40,296,213246,5,0
112,336,213464,1,0
192,344,213681,1,0
232,344,213790,1,0
312,336,214007,1,0
392,344,214225,1,0
432,344,214333,1,0
472,272,214551,1,0
472,112,214986,1,0
400,64,215203,1,0
320,48,215420,1,0
280,32,215529,1,0
256,104,215746,1,0
216,32,215964,1,0
176,48,216072,5,2
104,80,216290,2,0,B|32:128,1,80,2|4
96,176,216725,2,0,B|96:272,1,80
136,320,217159,1,0
136,320,217268,1,0
216,328,217486,1,0
216,328,217703,1,0
216,328,217812,1,0
296,320,218029,1,0
368,280,218246,1,0
440,320,218464,1,0
472,248,218681,1,0
480,168,218899,5,0
480,128,219007,1,2
440,56,219225,1,0
360,40,219442,1,2
320,40,219551,1,0
256,96,219768,1,0
192,40,219985,2,0,B|120:80,1,80,2|0
48,104,220420,5,0
32,184,220638,1,0
72,184,220746,1,0
32,256,220964,1,0
112,256,221181,1,0
72,256,221290,1,0
32,328,221507,1,0
112,328,221725,2,0,B|160:312|200:368,1,80
264,352,222159,1,0
264,272,222377,1,0
264,232,222486,1,0
264,192,222594,6,0,B|352:192|368:256,2,120,2|0|2
264,112,223464,1,0
264,272,223790,1,2
264,112,224116,1,0
40,40,225203,1,2
40,160,225529,1,0
40,40,225855,1,2
184,104,226290,1,0
344,104,226725,1,2
472,192,227159,6,0,B|472:248|408:256,1,80
376,312,227594,1,0
376,312,227703,1,0
296,336,227920,1,0
216,312,228138,1,0
216,312,228246,1,0
144,264,228464,1,0
104,192,228681,2,0,B|152:192|168:144,1,80
208,80,229116,1,0
256,16,229333,1,0
256,16,229442,1,0
304,80,229659,1,0
368,128,229877,2,0,B|416:128,1,40
392,208,230203,1,0
312,208,230420,1,4
256,192,230529,12,0,233899
