osu file format v6

[General]
AudioFilename: Regi Ft. Scala - I Fail.mp3
AudioLeadIn: 0
PreviewTime: 64768
Countdown: 1
SampleSet: Normal
StackLeniency: 0.7
Mode: 0
LetterboxInBreaks: 1

[Editor]
Bookmarks: 93029,121290
DistanceSpacing: 0.800000011920929
BeatDivisor: 4
GridSize: 8

[Metadata]
Title:I Fail
Artist:Regi Ft. Scala
Creator:osuplayer111
Version:Normal
Source:
Tags:

[Difficulty]
HPDrainRate:2
CircleSize:4
OverallDifficulty:3
SliderMultiplier:1.6
SliderTickRate:1

[Events]
//Background and Video events
0,0,"Regi Ft. Scala.jpg"
Video,0,"Regi ft Scala I Fail.flv"
//Break Periods
//Storyboard Layer 0 (Background)
//Storyboard Layer 1 (Fail)
//Storyboard Layer 2 (Pass)
//Storyboard Layer 3 (Foreground)
//Storyboard Sound Samples
//Background Colour Transformations
3,100,163,162,255

[TimingPoints]
-14,434.782608695652,4,1,0,100,1,0
4551,-100,4,2,0,0,0,0
6290,-100,4,2,0,100,0,0
7594,-100,4,2,0,0,0,0
8138,-100,4,2,0,100,0,0
13246,-100,4,2,0,0,0,0
13790,-100,4,2,0,100,0,0
18899,-100,4,2,0,0,0,0
20203,-100,4,2,0,100,0,0
22377,-100,4,2,0,0,0,0
24333,-100,4,2,0,100,0,0
25746,-100,4,2,0,0,0,0
27159,-100,4,2,0,100,0,0
29333,-100,4,2,0,0,0,0
30420,-100,4,1,0,60,0,0
32159,-100,4,1,1,100,0,0
52594,-100,4,2,0,80,0,0
56507,-100,4,1,0,45,0,0
58029,-100,4,1,0,66,0,0
59768,-100,4,1,0,86,0,0
61507,-100,4,1,0,100,0,0
62159,-100,4,1,0,80,0,0
62594,-100,4,1,0,60,0,0
63029,-100,4,1,0,40,0,0
63464,-100,4,2,0,20,0,0
64333,-100,4,1,0,60,0,0
64986,-100,4,1,0,100,0,0
65638,-100,4,2,0,60,0,0
68899,-100,4,1,0,0,0,0
71290,-100,4,2,0,60,0,0
75638,-100,4,1,0,60,0,0
78681,-100,4,2,0,60,0,0
79116,-100,4,1,0,80,0,0
81507,-100,4,2,0,80,0,0
82268,-100,4,1,0,80,0,0
82485,-100,4,2,0,80,0,0
82812,-100,4,1,0,80,0,0
85203,-100,4,2,0,80,0,0
86072,-100,4,1,0,80,0,0
86181,-100,4,2,0,80,0,0
89333,-100,4,1,0,80,0,0
93029,-100,4,1,0,100,0,1
106399,-100,4,1,0,100,0,0
106507,-100,4,2,0,100,0,0
106616,-100,4,1,0,100,0,0
109333,-100,4,2,0,100,0,0
110638,-100,4,1,0,100,0,0
112812,-100,4,2,0,100,0,0
117377,-100,4,1,1,100,0,0
120855,-100,4,1,1,100,0,1
121290,-100,4,1,1,100,0,0

[Colours]
Combo1 : 255,255,255
Combo2 : 0,128,255
Combo3 : 128,0,128
Combo4 : 255,0,0

[HitObjects]
304,280,4333,2,0,B|280:336|352:376|480:376|592:312|568:192|392:168|288:168|216:168|184:248|184:344,1,640,4|0
48,88,6942,1,2
176,80,7377,2,0,B|136:96|104:160|176:256|160:312|48:320|-8:312,1,320,0|2
472,64,10420,6,0,B|304:64,1,160,2|0
320,192,11290,1,2
320,320,11725,1,2
48,48,13029,2,0,B|32:112|32:136|40:152|136:184|168:72|272:184,1,320,2|0
368,256,14333,2,0,B|256:240|256:288|256:328|256:368,1,160,0|2
128,328,15203,1,2
184,176,17377,6,0,B|184:88|104:88|112:40,2,160,2|0|2
256,72,18681,2,0,B|520:64|480:120|552:64|384:304|512:184|560:152|488:288|336:280,1,480,2|0
120,312,20855,1,2
56,200,21290,2,0,B|160:176|160:320|312:272|352:184,1,320,0|2
256,192,22377,12,0,23899
352,40,25203,5,2
256,128,25638,2,0,B|392:128|400:208|384:264|328:320|248:328|88:320,1,480,2|0
360,336,27812,1,2
256,264,28246,2,0,B|88:264|72:200|72:104|72:64,1,320,0|2
456,56,30420,5,0
456,184,30855,1,8
328,184,31290,1,8
200,184,31725,1,8
136,184,31942,2,0,B|48:184,1,80
88,304,32594,5,8
176,344,32920,1,0
256,296,33246,1,0
440,248,33899,2,0,B|400:224|392:184|392:144|440:112,1,160,0|8
352,64,34659,1,0
256,64,34985,1,0
80,120,35638,5,0
184,192,36072,2,0,B|184:280|128:296,2,120,8|0|0
376,320,37812,1,8
456,264,38138,1,0
448,168,38464,2,0,B|400:168|384:128,1,80,0|8
136,48,39551,5,8
56,104,39877,1,0
56,200,40203,1,0
56,264,40420,2,0,B|208:344,1,160,8|0
408,192,41725,5,0
304,112,42159,2,0,B|208:104|232:32|152:32,2,160,8|0|8
256,192,43355,1,0
160,216,43681,1,0
368,336,44985,6,0,B|368:240,1,80
480,192,45638,2,0,B|328:88,1,160,8|4
232,48,46507,5,8
136,48,46833,1,0
56,104,47159,1,0
80,296,47812,1,0
208,296,48246,6,0,B|256:296|272:296|288:296|312:296|320:296|336:288,2,120,8|0|0
208,232,49116,1,8
336,104,49985,1,8
432,104,50312,2,0,B|432:16|360:24,1,120
304,24,50855,1,8
72,96,51725,5,8
72,192,52051,1,0
72,288,52377,1,0
184,344,52812,5,2
248,344,53029,2,0,B|248:256|176:256|216:192,1,160,0|8
344,192,53899,1,0
472,192,54333,1,8
456,64,54768,6,0,B|360:40,1,80,0|0
328,88,55203,2,0,B|232:96,1,80,8|0
120,104,55855,1,0
56,120,56072,1,8
56,248,56507,5,4
160,320,56942,1,8
288,320,57377,1,0
384,240,57812,1,8
256,192,58246,12,8,59551
256,192,59985,12,8,61290
256,192,61725,12,0,63464
192,192,64768,5,0
320,192,65203,1,4
48,80,67594,5,0
112,80,67812,2,0,B|168:80|184:120|232:88,2,120,2|0|0
48,80,68681,1,2
256,192,68899,12,0,70420
400,192,71290,6,0,B|400:96|472:104,2,120,2|0|0
344,224,72159,1,2
248,224,72485,1,0
152,192,72812,1,2
256,32,73899,2,0,B|264:120|200:128,2,120,2|0|0
384,32,74985,1,2
472,128,75420,1,2
256,192,75638,12,0,78246
256,56,78681,6,0,B|352:56|352:120|416:96,1,160,2|4
456,216,79551,1,0
376,312,79985,1,0
248,312,80420,1,0
184,312,80638,1,0
80,232,81072,1,0
80,168,81290,1,0
80,104,81507,6,2,B|152:56,1,80
240,56,82051,1,2
336,56,82377,1,4
392,72,82594,1,2
448,96,82812,5,0
448,160,83029,1,0
440,288,83464,2,0,B|354:291|389:170|253:141,1,240
136,144,84551,1,0
72,144,84768,1,0
96,272,85203,5,2
176,320,85529,2,0,B|200:280|288:272,1,120,0|2
288,208,86072,1,4
384,208,86399,2,2,B|384:256|440:320,1,120
176,128,87812,1,2
256,72,88138,1,0
336,128,88464,1,2
304,248,88899,2,0,B|376:272|384:192|456:248|456:272|464:272,1,160,2|4
256,192,89985,12,0,92594
256,32,93029,6,0,B|304:32|304:88,1,80,4|0
368,88,93464,1,0
464,176,93899,1,0
424,296,94333,1,0
360,296,94551,1,0
296,272,94768,6,0,B|296:328|248:352,1,80
200,344,95203,1,0
88,272,95638,1,0
48,152,96072,1,0
80,96,96290,1,0
192,56,96725,5,0
256,56,96942,1,0
384,56,97377,1,0
480,144,97812,1,0
440,192,98029,1,0
440,296,98464,5,0
480,344,98681,1,0
352,344,99116,1,0
224,344,99551,1,0
160,344,99768,1,0
128,288,99985,6,0,B|104:248|128:208,1,80
128,144,100420,1,0
256,152,100855,1,0
256,24,101290,1,0
312,48,101507,2,0,B|400:48,1,80
448,24,101942,5,0
488,72,102159,1,0
488,200,102594,1,0
488,328,103029,1,0
432,352,103246,1,0
304,336,103681,6,0,B|216:336,1,80
96,304,104333,1,0
40,192,104768,2,0,B|40:104,1,80
96,80,105203,2,0,B|200:80,1,80
184,144,105638,1,0
184,208,105855,2,0,B|336:208,1,120
312,112,106507,6,0,B|376:112|408:112|464:160,1,160,2|4
464,224,107159,5,0
464,288,107377,1,0
344,336,107812,1,0
216,336,108246,1,0
160,304,108464,1,0
128,248,108681,2,0,B|128:192|240:216|240:136,1,160
240,80,109333,5,2
256,16,109551,1,0
352,16,109877,1,2
448,16,110203,1,0
472,72,110420,1,2
472,136,110638,5,0
408,136,110855,1,0
440,256,111290,1,0
352,352,111725,1,0
296,320,111942,1,0
240,352,112159,2,0,B|144:352,1,80
96,352,112594,1,0
128,224,113029,6,0,B|224:224|240:192,2,120,2|0|2
88,176,113899,2,0,B|88:72|56:56,2,120,0|2|0
376,48,115638,1,2
472,48,115964,1,0
424,128,116290,2,0,B|384:200|328:112|272:168,1,160,2|0
152,160,117159,1,2
88,272,117594,5,0
88,272,117812,1,0
192,344,118246,1,0
296,264,118681,1,0
296,264,118899,1,0
424,264,119333,1,0
488,264,119551,1,0
456,208,119768,2,0,B|456:82,1,120
360,56,120420,2,0,B|272:56,1,80,0|0
216,56,120855,1,4
