osu file format v6

[General]
AudioFilename: Regi Ft. Scala - I Fail.mp3
AudioLeadIn: 0
PreviewTime: 64768
Countdown: 1
SampleSet: Normal
StackLeniency: 0.7
Mode: 0
LetterboxInBreaks: 1

[Editor]
Bookmarks: 93029,126942,189116
DistanceSpacing: 1
BeatDivisor: 4
GridSize: 8

[Metadata]
Title:I Fail
Artist:Regi Ft. Scala
Creator:osuplayer111
Version:Hard
Source:
Tags:

[Difficulty]
HPDrainRate:3
CircleSize:4
OverallDifficulty:5
SliderMultiplier:1.6
SliderTickRate:2

[Events]
//Background and Video events
0,0,"Regi Ft. Scala.jpg"
Video,0,"Regi ft Scala I Fail.flv"
//Break Periods
2,121055,126612
//Storyboard Layer 0 (Background)
//Storyboard Layer 1 (Fail)
//Storyboard Layer 2 (Pass)
//Storyboard Layer 3 (Foreground)
//Storyboard Sound Samples
//Background Colour Transformations
3,100,163,162,255

[TimingPoints]
-14,434.782608695652,4,1,0,100,1,0
4551,-100,4,2,0,0,0,0
6290,-100,4,2,0,100,0,0
7594,-100,4,2,0,0,0,0
8138,-100,4,2,0,100,0,0
13246,-100,4,2,0,0,0,0
13790,-100,4,2,0,100,0,0
18899,-100,4,2,0,0,0,0
20203,-100,4,2,0,100,0,0
22377,-100,4,2,0,0,0,0
24333,-100,4,2,0,100,0,0
25746,-100,4,2,0,0,0,0
27159,-100,4,2,0,100,0,0
29333,-100,4,2,0,0,0,0
30420,-100,4,1,0,60,0,0
32159,-100,4,1,1,100,0,0
52594,-100,4,2,0,80,0,0
56507,-100,4,1,0,45,0,0
58029,-100,4,1,0,66,0,0
59768,-100,4,1,0,86,0,0
61507,-100,4,1,0,100,0,0
62159,-100,4,1,0,80,0,0
62594,-100,4,1,0,60,0,0
63029,-100,4,1,0,40,0,0
63464,-100,4,2,0,20,0,0
64333,-100,4,1,0,60,0,0
64986,-100,4,1,0,100,0,0
65638,-100,4,2,0,60,0,0
68899,-100,4,1,0,60,0,0
71290,-100,4,2,0,60,0,0
75638,-100,4,1,0,60,0,0
78681,-100,4,2,0,60,0,0
79116,-100,4,1,0,80,0,0
81507,-100,4,2,0,80,0,0
82268,-100,4,1,0,80,0,0
82485,-100,4,2,0,80,0,0
82812,-100,4,1,0,80,0,0
85203,-100,4,2,0,80,0,0
86072,-100,4,1,0,80,0,0
86181,-100,4,2,0,80,0,0
89333,-100,4,1,0,80,0,0
93029,-100,4,1,0,100,0,1
106399,-100,4,1,0,100,0,0
106507,-100,4,2,0,100,0,0
106616,-100,4,1,0,100,0,0
109333,-100,4,2,0,100,0,0
110638,-100,4,1,0,100,0,0
112812,-100,4,2,0,100,0,0
117377,-100,4,1,1,100,0,0
148464,-100,4,2,0,80,0,0
151942,-100,4,1,0,45,0,0
153681,-100,4,1,0,65,0,0
155420,-100,4,1,0,85,0,0
157159,-100,4,1,0,100,0,0
157812,-100,4,1,0,80,0,0
158246,-100,4,1,0,60,0,0
158681,-100,4,1,0,40,0,0
159116,-100,4,2,0,20,0,0
159551,-100,4,1,0,70,0,0
160638,-100,4,1,0,100,0,0
161290,-100,4,2,0,100,0,0
171725,-100,4,2,0,0,0,0
172594,-100,4,2,0,60,0,0
174768,-100,4,1,0,80,0,0
177159,-100,4,2,0,80,0,0
178029,-100,4,1,0,80,0,0
178246,-100,4,2,0,80,0,0
178464,-100,4,1,0,80,0,0
180855,-100,4,2,0,80,0,0
181725,-100,4,1,0,80,0,0
181942,-100,4,2,0,80,0,0
184985,-100,4,1,0,80,0,1
188899,-100,4,1,0,100,0,0

[Colours]
Combo1 : 255,255,255
Combo2 : 0,128,255
Combo3 : 128,0,128
Combo4 : 255,0,0

[HitObjects]
144,120,4333,2,0,B|120:176|192:216|320:216|432:152|408:32|232:8|128:8|56:8|24:88|24:184,1,640,4|0
288,336,6942,1,2
192,200,7377,2,0,B|208:240|272:272|368:200|424:216|432:328|424:384,1,320,0|2
336,32,10420,6,0,B|168:32,1,160,2|0
80,160,11290,1,2
80,240,11507,1,0
80,320,11725,1,2
256,32,13029,2,0,B|240:96|240:120|248:136|256:152|336:168|480:168,1,320,2|0
336,264,14333,2,0,B|224:248|224:296|224:336|224:376,1,160,0|2
152,296,14985,1,0
88,336,15203,1,2
112,168,17377,6,0,B|112:80|32:80|40:32,2,160,2|0|2
192,168,18464,1,0
224,96,18681,2,0,B|488:88|448:144|520:88|352:328|432:208|528:176|472:304|304:304,1,480,2|0
32,344,20855,1,2
32,184,21290,2,0,B|136:160|136:304|288:256|328:168,1,320,0|2
256,192,22377,12,0,23899
256,32,25203,5,2
256,112,25420,1,0
336,112,25638,2,0,B|472:112|480:192|464:248|408:304|328:312|168:304,1,480,2|0
456,344,27812,1,2
320,256,28246,2,0,B|152:256|136:192|136:96|136:56,1,320,0|2
440,56,30420,5,0
440,136,30638,1,0
360,136,30855,1,8
280,136,31072,1,0
280,56,31290,1,8
208,96,31507,1,0
136,128,31725,1,8
88,192,31942,2,0,B|176:232,1,80
256,352,32594,5,8
376,352,32920,1,0
472,280,33246,1,0
472,280,33464,1,8
336,200,33899,2,0,B|296:176|288:136|288:96|336:64,1,160,0|8
208,64,34659,1,0
96,112,34985,1,0
96,112,35203,1,8
48,264,35638,5,0
200,224,36072,2,0,B|200:312|144:328,2,120,8|0|0
280,224,36942,1,8
424,288,37377,1,0
424,128,37812,1,8
336,40,38138,1,0
256,128,38464,2,0,B|208:128|192:88,1,80,0|8
32,48,39116,5,0
32,208,39551,1,8
80,320,39877,1,0
192,352,40203,1,0
192,352,40420,2,0,B|368:352,1,160,8|0
464,240,41290,1,8
464,80,41725,1,0
328,160,42159,2,0,B|232:152|256:80|176:80,1,160,8|0
72,192,43029,5,8
72,312,43355,1,0
192,312,43681,1,0
256,360,43899,1,8
256,200,44333,1,0
416,200,44768,1,8
400,120,44985,2,0,B|480:56,1,80
304,48,45638,2,0,B|136:48,1,160,8|4
72,192,46507,5,8
72,312,46833,1,0
176,248,47159,1,0
176,248,47377,1,8
256,104,47812,1,0
384,192,48246,2,0,B|432:192|448:192|464:192|488:192|496:192|512:184,2,120,8|0|0
304,192,49116,1,8
144,192,49551,1,0
304,192,49985,1,8
400,112,50312,2,0,B|400:24|328:32,1,120
335,32,50855,1,8
176,32,51290,5,0
24,80,51725,1,8
24,200,52051,1,0
96,296,52377,1,0
256,296,52812,5,2
336,296,53029,2,0,B|336:208|264:208|304:144,1,160,0|8
376,112,53681,1,0
440,72,53899,1,0
376,24,54116,1,0
296,24,54333,1,8
224,64,54551,1,0
144,64,54768,6,0,B|128:152,1,80,0|0
128,224,55203,2,0,B|32:224,1,80,8|0
24,304,55638,1,0
88,352,55855,1,0
168,352,56072,1,8
240,320,56290,1,0
312,352,56507,5,4
392,352,56725,1,0
448,296,56942,1,8
472,216,57159,1,0
472,136,57377,1,0
472,136,57594,1,0
472,136,57812,1,8
344,40,58246,6,0,B|296:40,12,40,4|0|0|0|8|0|0|0|0|0|0|0|8
256,176,59985,6,0,B|256:216,18,26.6666666666667
112,104,61725,6,0,B|80:104,32,20
256,272,64768,5,0
256,112,65203,1,4
40,320,67594,5,0
40,240,67812,2,0,B|96:240|112:280|160:248,2,120,2|0|0
40,160,68681,1,2
120,160,68899,5,0
160,88,69116,1,0
224,40,69333,2,0,B|272:40,1,40
328,88,69659,1,0
392,40,69877,2,0,B|440:40,1,40
488,88,70203,1,0
496,168,70420,1,0
488,248,70638,1,0
504,328,70855,1,0
424,336,71072,1,0
344,336,71290,6,0,B|344:240|416:248,2,120,2|0|0
272,288,72159,1,2
192,200,72485,1,0
272,112,72812,1,2
40,40,73464,1,2
40,120,73681,1,0
120,120,73899,2,0,B|128:208|64:216,2,120,2|0|0
256,40,74985,1,2
256,200,75420,1,2
416,200,75855,5,0
464,264,76072,1,0
384,288,76290,2,0,B|352:336,1,40
288,344,76616,1,0
208,344,76833,2,0,B|160:344,1,40
96,312,77159,1,0
56,240,77377,2,0,B|88:160,1,80
64,88,77812,1,0
128,40,78029,2,0,B|176:40,1,40
248,48,78355,1,0
320,144,78681,6,0,B|416:144|416:208|480:184,1,160,2|4
464,264,79333,1,0
408,320,79551,1,0
328,336,79768,2,0,B|280:296,1,40
216,304,80094,1,0
136,280,80312,2,0,B|152:240,1,40
120,168,80638,1,0
232,56,81072,1,0
312,56,81290,1,0
392,56,81507,6,2,B|480:96,1,80
464,208,82051,1,2
400,312,82377,1,4
400,312,82594,1,2
320,312,82812,6,0,B|320:256,2,40
240,312,83246,2,0,B|200:336,1,40
128,320,83572,1,0
72,264,83790,2,0,B|112:232,1,40
112,160,84116,1,0
80,88,84333,1,0
112,16,84551,1,0
152,88,84768,1,0
216,40,84985,1,0
296,40,85203,5,2
344,152,85529,2,0,B|368:112|456:104,1,120,0|2
456,184,86072,1,4
456,304,86399,2,2,B|408:304|344:248,1,120
40,336,87812,1,2
40,216,88138,1,0
40,96,88464,1,2
168,192,88899,2,0,B|192:120|112:112|168:40|192:40|192:32,1,160,2|4
344,40,89768,5,0
416,64,89985,1,0
456,136,90203,2,0,B|472:192,1,40
464,256,90529,1,0
392,288,90746,2,0,B|328:288,1,40
296,344,91072,1,0
136,344,91507,1,0
64,304,91725,1,0
136,264,91942,2,0,B|168:232,1,40
96,184,92268,1,0
64,112,92485,2,0,B|112:104,1,40
160,48,92812,1,0
240,48,93029,6,0,B|288:48|288:104,1,80,4|0
360,64,93464,1,0
424,112,93681,2,0,B|400:152,1,40
448,216,94007,1,0
400,280,94225,2,0,B|336:280,1,40
288,320,94551,1,0
208,344,94768,6,0,B|152:344|128:296,1,80
56,312,95203,1,0
40,232,95420,2,0,B|88:232,1,40
56,152,95746,1,0
24,80,95964,2,0,B|24:16,1,40
104,40,96290,1,0
176,64,96507,5,0
240,112,96725,2,0,B|240:160,2,40
320,96,97159,2,0,B|352:48,1,40
424,64,97485,1,0
472,128,97703,2,0,B|432:152,1,40
432,224,98029,1,0
432,304,98246,1,0
352,304,98464,5,0
280,336,98681,1,0
200,336,98899,2,0,B|168:296,1,40
96,304,99225,1,0
112,224,99442,2,0,B|64:184,1,40
96,120,99768,1,0
168,80,99985,6,0,B|208:56|248:80,1,80
320,80,100420,1,0
392,56,100638,2,0,B|456:56,1,40
472,128,100964,1,0
432,192,101181,2,0,B|400:232,1,40
368,296,101507,2,0,B|280:296,1,80
208,296,101942,5,0
208,296,102159,1,0
160,232,102377,2,0,B|192:192,1,40
104,184,102703,1,0
48,128,102920,2,0,B|48:56,1,40
120,48,103246,1,0
200,48,103464,5,0
256,104,103681,2,0,B|344:104,1,80
400,152,104116,2,0,B|400:200,1,40
480,192,104442,2,0,B|480:136,1,40
480,72,104768,2,0,B|384:72,1,80
328,40,105203,2,0,B|272:104,1,80
272,176,105638,1,0
192,176,105855,2,0,B|128:176,1,40
120,248,106181,1,0
240,248,106507,6,0,B|304:248|336:248|392:296,1,160,2|4
328,344,107159,5,0
248,352,107377,1,0
168,344,107594,2,0,B|96:344,1,40
56,296,107920,1,0
64,216,108138,2,0,B|64:160,1,40
104,104,108464,1,0
160,48,108681,2,0,B|216:48|192:160|272:160,1,160
328,120,109333,5,2
328,120,109551,1,0
448,120,109877,1,2
392,224,110203,1,0
392,224,110420,1,2
392,304,110638,5,0
320,336,110855,1,0
248,304,111072,2,0,B|192:304,1,40
128,280,111399,1,0
72,224,111616,2,0,B|72:176,1,40
120,120,111942,1,0
176,64,112159,2,0,B|272:64,1,80
328,40,112594,1,0
368,192,113029,6,0,B|464:192|480:160,2,120,2|0|2
304,240,113899,2,0,B|208:240|192:272,2,120,0|2|0
40,48,115638,1,2
40,168,115964,1,0
40,48,116290,2,0,B|80:-24|136:64|192:8,1,160,2|0
336,64,117159,1,2
456,168,117594,5,0
456,248,117812,1,0
376,248,118029,2,0,B|344:208,1,40
288,160,118355,1,0
224,112,118572,2,0,B|168:152,1,40
168,208,118899,1,0
112,264,119116,1,0
176,312,119333,1,0
256,312,119551,1,0
336,304,119768,2,0,B|336:248,1,40
368,192,120094,2,0,B|400:152,1,40
376,80,120420,2,0,B|288:80,1,80,0|0
216,80,120855,1,4
40,48,127812,5,0
40,208,128246,1,8
200,208,128681,1,0
200,48,129116,1,8
360,48,129551,1,0
360,208,129985,1,8
200,208,130420,1,0
40,208,130855,1,8
200,208,131290,1,0
360,208,131725,2,0,B|416:256|480:216|472:184,2,120,8|0|0
360,128,132594,5,8
224,40,133029,1,0
96,136,133464,1,8
48,248,133790,1,0
152,312,134116,2,0,B|192:280|232:320,1,80,0|8
256,152,134768,2,0,B|352:128|392:224,1,160,0|8
400,336,135529,1,0
280,336,135855,1,0
280,336,136072,1,8
120,336,136507,1,0
48,192,136942,1,8
128,48,137377,5,0
288,48,137812,1,8
256,200,138246,2,0,B|344:208|320:128|424:136,1,160,0|8
504,184,139007,1,0
448,288,139333,1,0
448,288,139551,1,8
296,344,139985,1,0
136,344,140420,1,8
104,184,140855,6,0,B|8:184|16:72,2,160,0|8|4
192,48,142159,1,8
312,48,142485,1,0
432,48,142812,1,0
432,128,143029,1,8
440,288,143464,1,0
280,288,143899,1,8
160,288,144225,1,0
40,288,144551,5,0
40,208,144768,2,0,B|136:72,2,160,8|0|8
160,208,145964,1,0
256,144,146290,1,0
256,64,146507,1,8
408,96,146942,1,0
472,240,147377,1,8
400,336,147703,1,0
288,288,148029,1,0
224,336,148246,1,8
64,336,148681,6,0,B|64:240|128:248|104:176,1,160,2|8
56,80,149442,1,0
168,32,149768,2,0,B|248:80,1,80,0|8
392,104,150420,2,0,B|456:168,1,80
416,232,150855,2,0,B|328:232,1,80,8|0
280,288,151290,2,0,B|208:240|320:208|208:152,1,160,0|8
104,48,152159,5,4
72,120,152377,1,0
72,200,152594,1,8
112,272,152812,1,0
168,328,153029,1,0
248,336,153246,1,0
248,336,153464,1,8
392,264,153899,6,0,B|440:264,12,40,4|0|0|0|8|0|0|0|0|0|0|0|8
256,168,155638,6,0,B|256:216,18,26.6666666666667
168,32,157377,6,0,B|144:32,32,20
336,192,160420,5,0
176,192,160855,1,4
256,32,163246,5,0
256,32,163464,1,2
368,80,163790,2,0,B|312:80|304:136|248:112,1,120,2|0
256,192,164333,1,2
48,296,166942,6,0,B|136:296|152:344,2,120,2|0|2
40,216,167812,1,0
144,152,168138,1,2
40,216,168464,1,0
400,40,169551,2,0,B|400:128|464:136,1,120,2|0
376,224,170203,2,0,B|328:224|344:296|232:304,1,160,2|0
232,144,171072,2,0,B|136:144|200:272|48:280,1,240,2|0
256,32,174333,6,0,B|352:32|344:152,1,160,2|4
424,160,174985,1,0
464,224,175202,1,0
392,256,175420,2,0,B|392:328,1,40
320,328,175746,1,0
240,328,175964,2,0,B|240:280,1,40
160,304,176290,1,0
104,240,176507,2,0,B|80:184|128:160,1,80
152,96,176942,1,0
208,40,177159,5,0
288,40,177377,1,2
368,56,177594,1,0
400,128,177812,2,0,B|400:176|472:176,1,80,2|4
456,256,178246,1,2
456,256,178464,5,0
400,320,178681,1,0
320,296,178899,2,0,B|264:296,1,40
208,328,179225,1,0
144,280,179442,2,0,B|168:224,1,40
80,216,179768,1,0
80,136,179985,2,0,B|80:48,1,80
160,40,180420,2,0,B|208:72,1,40
256,160,180855,6,0,B|376:88,2,120,2|0|2
176,160,181725,1,4
256,248,182051,1,2
176,160,182377,1,0
456,336,183464,1,2
448,216,183790,1,0
360,136,184116,1,2
200,136,184551,2,0,B|200:232|112:200|120:272,1,160,0|4
256,192,185203,12,0,188681
