osu file format v5

[General]
AudioFilename: 10 Apocolypse WOW!.mp3
AudioLeadIn: 1732
PreviewTime: -1
Countdown: 0
SampleSet: Normal
StackLeniency: 0.7
Mode: 0
LetterboxInBreaks: 1
EditorBookmarks: 193144

[Metadata]
Title:Apocolypse WOW!
Artist:Reggie and the Full Effect
Creator:Seibei4211
Version:Easy
Source:
Tags:

[Difficulty]
HPDrainRate:4
CircleSize:4
OverallDifficulty:4
SliderMultiplier:0.8
SliderTickRate:1

[Events]
//Background and Video events
0,0,"Nuclear Cloud.jpg"
//Break Periods
2,5777,6827
2,54881,64210
2,101417,107589
2,110409,116455
2,119545,120737
2,138245,142134
2,155659,164830
2,174216,177978
//Storyboard Layer 0 (Background)
//Storyboard Layer 1 (Failing)
//Storyboard Layer 2 (Passing)
//Storyboard Layer 3 (Foreground)
//Storyboard Sound Samples
//Background Colour Transformations
3,100,163,162,255

[TimingPoints]
986,285.714285714286,4,1,0,60

[HitObjects]
256,192,986,12,0,5557
160,128,8128,6,0,B|338:128,3,160
320,192,10128,6,0,B|152:191,1,160
160,256,10985,1,0
224,256,11271,2,0,B|393:256,1,160
440,225,12128,1,2
384,192,12414,6,0,B|208:192,1,160
160,192,13271,1,0
96,192,13557,2,0,B|96:160|128:128|160:96|192:96|224:96,1,160
256,96,14414,2,0,B|352:96,2,80
192,96,15271,6,0,B|192:192,1,80
192,224,15843,2,0,B|256:224|288:256|320:288|320:320,1,160
256,320,16700,1,2
192,320,16985,6,0,B|192:224,3,80
192,192,18128,6,0,B|192:96,4,80
315,157,19843,6,0,B|395:124|475:157,2,160
186,156,21557,2,0,B|122:156|58:124|26:92,1,160
84,58,22414,1,0
148,56,22700,2,0,B|329:56,1,160
320,224,24414,6,0,B|224:224,1,80
192,224,24986,2,0,B|192:128,1,80
248,146,25557,2,0,B|329:146,1,80
382,146,26128,2,0,B|382:230,1,80
384,288,26700,2,0,B|288:288,5,80
64,256,28986,6,0,B|49:218|45:178|47:140|64:96,2,160
191,257,30700,2,0,B|191:81,1,160
255,98,31557,1,4
318,97,31843,2,0,B|318:270,1,160
128,320,33557,6,0,B|128:152,1,160
192,96,34700,2,0,B|363:96,1,160
416,160,35843,2,0,B|416:332,1,160
96,192,37271,5,0
96,192,37557,1,4
256,192,38414,5,0
256,192,38700,1,4
416,192,39557,5,0
416,192,39843,1,4
416,288,40700,6,2,B|320:288,1,80
128,288,41843,6,2,B|32:288,1,80
64,128,42986,6,2,B|64:32,1,80
256,64,44128,6,2,B|352:64,1,80
448,192,45271,6,2,B|448:288,1,80
256,288,46414,5,0
192,288,46700,2,0,B|181:249|171:222|168:180|162:134|263:75,1,240
320,64,47843,2,0,B|384:128|384:192|384:224,1,160
320,256,48700,5,0
256,256,48986,2,0,B|92:256,1,160
96,192,49843,2,0,B|96:96,1,80
288,96,50986,5,0
352,96,51271,2,0,B|352:192,4,80
159,96,53271,5,0
162,159,53557,2,4,B|338:159,2,160
160,128,65557,6,0,B|328:128,2,160
160,256,67271,6,0,B|333:256,1,160
375,223,68128,1,0
320,192,68414,2,0,B|141:192,1,160
211,125,70128,6,0,B|209:86|241:54|273:54|305:86|305:130,2,160
212,255,71843,6,2,B|210:294|242:326|274:326|306:294|306:250,2,160
128,96,74700,5,0
255,95,75271,1,0
384,96,75843,1,0
384,224,76414,6,0,B|128:224,1,240
96,224,77557,1,4
192,96,79271,6,0,B|160:160|192:256,2,160
320,96,80985,6,0,B|353:169|320:256,2,160
384,128,83271,5,0
256,128,83843,1,0
128,128,84414,1,0
128,128,84700,1,0
128,128,84985,1,4
128,256,85557,5,0
256,256,86128,1,0
384,256,86700,1,0
384,256,86985,1,0
384,256,87271,1,4
256,256,87843,5,0
256,128,88414,1,0
128,128,88985,1,0
128,128,89271,1,0
128,128,89557,1,4
256,128,90128,5,0
256,256,90700,1,0
384,256,91271,1,0
384,256,91557,1,0
384,256,91843,1,4
128,96,92414,5,0
256,96,92985,1,0
384,96,93557,1,0
384,224,94128,1,0
256,224,94700,1,0
128,224,95271,1,0
128,352,95843,5,0
256,352,96414,1,0
256,224,96985,1,0
128,224,97557,1,0
128,96,98128,1,0
256,96,98700,1,0
256,224,99271,5,4
256,224,99557,1,4
128,224,100128,5,4
128,224,100414,1,4
128,96,100985,5,4
128,96,101271,1,4
256,192,108700,12,0,110271
256,192,117843,12,0,119414
224,224,122128,2,0,B|224:128,3,80
224,96,123271,2,0,B|320:96,3,80
352,96,124414,6,0,B|352:192,3,80
352,224,125557,6,0,B|256:224,3,80
144,225,126985,5,2
144,97,127557,1,2
252,164,128128,1,2
360,96,128700,1,4
360,161,128985,6,0,B|360:257,3,80
357,304,130128,6,0,B|191:304,1,160
132,304,130985,1,4
132,240,131271,6,0,B|132:144,3,80
132,96,132414,2,0,B|301:95,1,160
355,96,133271,1,4
356,160,133557,6,0,B|260:160,3,80
212,160,134700,2,0,B|212:340,1,160
275,320,135557,1,4
371,234,136128,5,2
259,170,136700,1,2
371,109,137271,1,2
253,57,137843,1,4
192,96,143271,6,0,B|191:272,2,160
320,96,144985,2,0,B|319:270,2,160
96,64,147843,6,0,B|95:243,2,160
224,64,149557,6,0,B|288:64|320:96|352:128|384:192|384:224,1,240
320,256,150700,6,0,B|256:256|224:224|192:192|160:128|160:96,1,240
160,288,152414,6,2,B|324:286,2,160
160,160,154128,6,4,B|329:160,2,160
96,192,165271,5,4
128,160,165557,2,4,B|96:128|89:94|96:64|128:32|160:32|191:41|209:72|224:96,1,240
288,96,166700,2,0,B|320:64|354:57|384:64|416:96|416:128|407:159|376:177|352:192,1,240
352,256,167843,6,4,B|384:288|391:322|384:352|352:384|320:384|289:375|271:344|256:320,1,240
192,288,168985,2,0,B|160:320|126:327|96:320|64:288|64:256|73:225|104:207|128:192,1,240
192,192,170128,6,4,B|224:224|258:231|288:224|320:192|320:160|311:129|280:111|256:96,1,240
192,64,171271,2,0,B|160:32|126:25|96:32|64:64|64:96|73:127|104:145|128:160,1,240
192,160,172414,6,2,B|356:160,3,160
192,192,179271,6,0,B|192:96,2,80
192,256,180128,1,0
256,256,180414,2,0,B|352:256,3,80
384,256,181557,6,0,B|384:160,2,80
448,256,182414,1,0
448,192,182700,2,0,B|352:192,3,80
304,195,183843,6,0,B|208:195,3,80
224,131,184986,2,0,B|319:131,3,80
367,131,186128,6,0,B|367:227,3,80
303,211,187271,2,0,B|303:307,3,80
239,292,188414,6,0,B|239:196,1,80
174,212,188986,2,0,B|174:308,1,80
109,291,189557,2,0,B|109:195,1,80
108,146,190128,2,4,B|204:146,1,80
252,147,190700,6,0,B|348:147,1,80
335,210,191271,2,0,B|335:306,1,80
270,290,191843,2,0,B|270:194,1,80
205,208,192414,2,4,B|205:304,1,80
