osu file format v5

[General]
AudioFilename: Party Down.mp3
AudioLeadIn: 0
PreviewTime: -1
Countdown: 1
SampleSet: Normal

[Metadata]
Title:Party Down
Artist:Reel Big Fish
Creator:huskyhawkcougar
Version:Hard

[Difficulty]
HPDrainRate:6
CircleSize:6
OverallDifficulty:6
SliderMultiplier:1.4
SliderTickRate:1

[Events]
//Background and Video events
0,0,"RBF.jpg"
//Break Periods
2,58087,64430
2,79184,84559
2,121378,130236
2,197249,208430
//Storyboard Layer 0 (Background)
//Storyboard Layer 1 (Failing)
//Storyboard Layer 2 (Passing)
//Storyboard Layer 3 (Foreground)
//Storyboard Sound Samples
//Background Colour Transformations
3,100,163,162,255

[TimingPoints]
12985,387.096774193548,4,1,0,100

[HitObjects]
128,256,12985,2,0,B|384:96,8,280
256,96,20533,2,0,B|256:192,9,70
256,192,23823,1,0
256,192,24210,1,0
256,192,24597,1,0
256,192,24984,1,0
256,64,25372,5,0
160,128,26920,1,0
320,192,28468,1,0
192,288,30017,2,0,B|227:344|366:306|320:192,2,210
128,192,31565,1,0
256,192,33114,5,0
384,96,34662,1,0
96,96,36210,2,0,B|96:224|67:358|159:352|236:75|385:47|352:288,1,560
288,160,39307,5,0
224,128,40662,1,0
192,128,41049,1,0
160,128,41436,1,0
160,192,42210,2,0,B|224:192|288:192|352:192|384:128|352:64|288:64|224:64|128:64,1,420
64,64,43952,1,0
128,192,45307,5,0
128,192,45694,1,0
128,192,46081,1,0
160,192,46468,1,0
160,192,46855,2,0,B|224:96|352:128|384:224|320:320,1,350
192,320,48210,5,0
192,320,48404,1,0
256,192,50146,12,0,54791
192,192,56339,2,0,B|288:192,7,70
262,192,57888,1,0
96,192,65630,6,0,B|360:87|59:320|76:340|247:355|253:326|260:238|482:313|256:160,1,560
256,128,67759,5,0
192,128,68146,1,0
128,128,68533,1,0
96,192,70275,5,2
192,192,70662,1,2
192,128,71823,1,0
256,128,72404,1,0
320,128,72984,1,0
224,192,74146,1,0
160,192,74339,1,0
160,128,74726,1,0
160,64,75307,1,0
224,64,75501,2,2,B|384:64,9,140
256,160,85759,5,0
256,192,85952,1,0
416,96,87307,1,0
416,128,87501,1,0
192,64,88855,1,0
192,96,89049,1,0
128,224,90404,1,0
128,256,90597,1,0
128,288,90791,1,0
128,320,90984,2,0,B|288:160,1,210
160,64,93307,6,0,B|256:64,9,70
160,224,98533,5,0
160,192,98726,1,0
160,160,98920,1,0
160,128,99114,1,0
160,96,99307,2,0,B|320:96,1,140
320,160,100081,1,0
320,192,100275,1,0
320,224,100468,1,0
320,256,100662,1,0
320,288,100855,2,0,B|148:288,1,140
224,288,102791,6,0,B|111:193|256:128|288:128,2,210
128,256,104339,5,0
128,256,104533,1,0
160,320,105888,2,0,B|288:320|416:224|416:96|416:32,1,420
415,43,107436,1,0
415,43,107630,1,0
416,128,108984,1,0
384,128,109178,1,0
416,192,109565,1,0
416,256,109952,1,0
384,256,110146,1,0
320,224,110920,5,0
320,192,111114,1,0
320,160,111307,1,0
320,128,111501,1,0
320,96,111694,2,0,B|160:96,1,140
96,224,112468,1,0
96,256,112662,1,0
96,288,112855,1,0
96,320,113049,1,0
96,352,113243,2,0,B|256:352,1,140
224,320,114210,1,0
224,256,114597,1,0
256,256,114791,1,0
288,256,114984,1,0
352,256,115372,1,0
416,256,115759,1,0
480,256,116146,1,0
480,320,116726,1,0
480,288,118081,2,0,B|384:320|288:320|192:320|64:288|64:224|-8:170|9:58|96:25|227:19|379:27|480:192,1,980
448,224,121178,1,0
128,192,131436,5,0
160,160,131630,1,0
192,96,132017,1,0
256,160,132597,1,0
288,192,132791,1,0
352,160,133178,1,0
416,192,133565,2,0,B|401:292|352:320|200:315|192:320|62:323|32:224|32:192,1,490
256,192,135307,12,0,138404
256,192,139952,5,0
192,192,140533,2,0,B|192:288|320:288|320:192|320:96,1,280
96,288,143049,6,0,B|411:373|508:242|352:32,2,560
384,192,146920,5,0
352,192,147114,1,0
288,192,147501,1,0
224,192,148081,1,0
192,192,148275,1,0
128,192,148662,1,0
64,192,149049,1,0
64,192,149436,1,0
64,192,149823,1,0
64,192,150210,1,0
64,192,150597,1,0
64,192,150984,1,0
64,192,151372,1,0
64,192,151759,1,0
64,128,152339,2,0,B|64:64|128:32|435:28|459:77|400:204|320:288,2,560
32,128,158533,6,0,B|327:291|303:22|128:64|24:82|271:288|64:320,2,560
288,128,164726,6,0,B|49:294|502:314|457:251|-17:78|362:117|101:287|169:297|31:281|32:141|242:296|128:96,2,560
384,320,170920,6,0,B|478:360|330:138|63:59|256:128|256:256|288:320|480:192,2,560
96,64,177114,6,0,B|384:64,1,280
384,128,178275,1,0
384,192,178662,2,0,B|96:192,1,280
96,256,179823,1,0
96,320,180210,2,0,B|384:320,1,280
448,320,181372,1,0
384,128,181759,2,0,B|380:341|-43:313|400:305|24:127|306:-20|420:-23|260:29|401:351|287:313|190:257|158:289|62:289|551:342|390:293|136:-24|269:-48|32:352,1,1120
192,160,186017,6,0,B|192:96,2,35
288,224,187565,6,0,B|352:224,2,35
384,128,189114,6,0,B|384:64,2,35
192,64,190662,6,0,B|96:64,1,70
320,224,192210,6,0,B|320:160,2,35
160,288,193759,6,0,B|96:288,2,35
160,128,195307,6,0,B|128:160,2,35
224,192,196855,6,4,B|320:192,1,70
256,192,209630,12,0,215823
256,192,216597,5,4
64,128,218146,6,0,B|160:128,1,70
192,128,218726,1,0
256,128,219307,1,0
288,128,219501,1,0
352,128,219888,1,0
384,192,220275,2,0,B|384:288|288:320|26:318|109:329|288:128,1,490
384,96,222017,5,0
96,320,224533,1,0
160,192,227823,5,0
160,128,228017,1,0
160,64,228404,2,0,B|320:64,4,140
160,256,231694,6,0,B|183:356|275:100|288:160,8,210
160,192,237114,5,0
160,128,237307,1,0
256,128,237694,1,0
352,128,238275,1,0
352,128,238468,2,0,B|406:175|377:243|288:192,4,140
288,128,240404,1,0
224,64,240791,2,0,B|160:64|128:128|160:192,2,140
256,160,241952,1,0
352,224,242339,2,0,B|288:224|256:256|256:320,3,140
256,192,245630,1,4
256,192,245823,1,4
