osu file format v5

[General]
AudioFilename: 03 Ban The Tube Top.mp3
AudioLeadIn: 0
PreviewTime: -1
Countdown: 1
SampleSet: Normal
EditorBookmarks: 19490,32659,60993,74162,89726,115266,143600

[Metadata]
Title:Ban The Tube Top
Artist:Reel Big Fish
Creator:Mogsworth
Version:Normal

[Difficulty]
HPDrainRate:5
CircleSize:5
OverallDifficulty:5
SliderMultiplier:1.3
SliderTickRate:1

[Events]
//Background and Video events
0,0,"lolrbf.jpg"
//Break Periods
2,48223,59793
2,109081,114066
2,128236,142400
//Storyboard Layer 0 (Background)
//Storyboard Layer 1 (Failing)
//Storyboard Layer 2 (Passing)
//Storyboard Layer 3 (Foreground)
//Storyboard Sound Samples
//Background Colour Transformations
3,100,163,162,255

[TimingPoints]
19490,399.068839374792,4,1,0,100
139520,800,4,1,0,100
143600,399.068839374792,4,1,0,100

[Colours]
Combo1 : 255,255,255
Combo2 : 0,0,0

[HitObjects]
136,72,19489,1,0
264,72,19889,1,0
392,72,20288,1,0
392,296,21086,5,0
264,296,21485,1,0
136,296,21884,1,0
312,184,22682,6,0,C|363:121|456:128|504:216,2,260
344,288,24677,1,0
248,344,25076,1,0
136,168,25675,5,0
136,168,25875,1,0
224,104,26274,1,0
304,40,26673,1,0
432,200,27271,5,0
432,200,27471,1,0
352,272,27870,1,0
272,336,28269,1,0
80,248,29067,6,0,C|136:208|72:176|144:144|96:120,2,260
168,304,31062,1,0
264,336,31462,1,0
488,120,32659,6,0,C|432:120|408:168|368:152,1,130
390,164,33457,1,0
216,48,34255,2,0,C|168:64|200:104|168:128,1,130
181,120,35053,1,0
96,312,35851,6,0,B|71:219|181:391|392:264,1,325
424,176,37248,1,0
344,112,37647,1,0
264,176,38046,1,0
344,240,38445,1,0
184,224,39044,6,0,B|136:192|234:173|69:196|192:112,1,130
178,121,39842,1,0
384,88,40640,2,0,B|360:144|424:160|328:216,1,130
348,203,41438,1,0
152,280,42236,6,0,B|152:224|80:208|281:226|112:120|306:66|376:88,1,325
440,144,43633,1,0
376,224,44032,1,0
304,144,44431,1,0
376,64,44830,1,0
256,192,45828,12,0,48023
136,72,60993,5,0
136,200,61392,1,0
136,328,61791,1,0
360,328,62589,5,0
360,200,62988,1,0
360,72,63387,1,0
216,224,64185,6,0,C|267:287|360:280|408:192,2,260
176,320,66181,1,0
104,240,66580,1,0
240,80,67178,5,0
240,80,67378,1,0
168,160,67777,1,0
104,240,68176,1,0
264,368,68775,5,0
264,368,68974,1,0
336,288,69373,1,0
400,208,69772,1,0
288,32,70570,6,0,C|253:140|184:19|166:137|24:192,1,520
48,288,72566,2,0,B|88:328|240:336,1,195
176,80,74162,6,0,B|136:40|232:16|256:72,1,130
253,67,74960,1,0
344,248,75758,2,0,B|280:296|224:240,1,130
226,242,76556,1,0
224,32,77354,6,0,B|160:-8|64:96|88:280,1,325
176,320,78751,1,0
256,248,79150,1,0
168,176,79549,1,0
96,248,79948,1,0
328,224,80547,6,0,B|278:173|443:196|320:112,1,130
334,121,81345,1,0
128,88,82143,2,0,B|152:144|88:160|184:216,1,130
164,203,82941,1,0
360,280,83740,6,0,B|432:208|231:226|400:120|206:66|136:88,1,325
72,144,85136,1,0
136,224,85535,1,0
208,144,85934,1,0
136,64,86334,1,0
136,64,86733,1,0
256,192,87331,12,0,89127
48,192,89726,5,0
152,192,90125,1,0
256,192,90524,1,0
360,192,90923,1,0
360,88,91322,1,0
256,88,91721,1,0
152,88,92120,1,0
48,88,92519,1,0
48,192,92918,2,0,B|80:256|296:280,3,260
456,160,96111,5,0
352,160,96510,1,0
248,160,96909,1,0
144,160,97308,1,0
144,264,97707,1,0
248,264,98106,1,0
352,264,98505,1,0
456,264,98904,1,0
256,192,99303,12,0,102296
424,48,103094,6,0,B|-81:172|-30:322|616:34|64:360,1,780
75,352,105688,1,0
75,352,106087,1,0
256,48,107285,5,0
256,48,107684,1,0
456,336,108881,5,0
256,32,115266,5,0
168,104,115665,1,0
256,184,116064,1,0
344,104,116463,1,0
256,32,116862,1,0
168,112,117261,2,0,B|120:192,1,65
440,192,118459,5,0
344,128,118858,1,0
256,200,119257,1,0
344,272,119656,1,0
432,200,120055,2,0,B|432:112,4,65
200,192,121651,5,0
256,88,122050,1,0
312,192,122449,1,0
256,296,122848,1,0
192,200,123247,2,0,B|120:200|112:200,1,65
64,200,123646,2,0,B|64:280,1,65
64,320,124046,2,0,B|136:320,3,65
184,320,124844,5,0
296,320,125243,1,0
304,200,125642,1,0
184,200,126041,1,0
184,312,126440,2,0,B|232:296|280:88|320:32|424:72|456:264|376:336,1,520
80,144,143600,6,0,B|128:96|184:176|224:128,1,130
203,142,144398,1,0
448,56,145196,2,0,B|432:128|416:192,1,130
418,182,145994,1,0
208,96,146792,6,0,B|128:72|88:320|224:376,1,325
296,304,148189,1,0
384,232,148588,1,0
296,152,148987,1,0
208,232,149386,1,0
48,160,149985,6,0,B|0:128|98:109|-67:132|56:48,1,130
42,57,150783,1,0
248,24,151581,2,0,B|224:80|288:96|192:152,1,130
212,139,152379,1,0
16,216,153177,6,0,B|16:160|-56:144|145:162|-24:56|170:2|240:24,1,325
304,80,154574,1,0
240,160,154973,1,0
152,232,155372,1,0
72,312,155771,1,0
248,320,156370,6,2,B|216:272|296:240|216:200,1,130
225,205,156968,2,2,B|224:128,1,65
400,120,157766,2,2,B|440:152|400:200,5,65
336,336,159363,6,2,B|272:344|256:304,1,65
176,264,159961,2,2,B|128:232|112:296,1,65
32,120,160560,2,2,B|168:120,4,130
184,200,162755,6,2,B|226:106|280:232|304:192,1,130
286,199,163353,1,2
286,199,163553,1,2
448,128,164152,2,2,B|392:72,5,65
336,240,165748,6,2,B|344:208|272:176,5,65
272,152,166945,2,2,B|192:176|208:280,5,130
264,64,169539,5,0
352,136,169938,1,0
440,208,170337,2,0,B|144:242|288:328,1,260
48,344,172732,5,2
128,264,173131,1,2
216,184,173530,2,2,B|272:264|456:160,1,260
256,192,175924,12,2,178318
256,192,178718,5,6
472,32,179915,5,6
472,32,180314,1,6
120,32,181511,5,6
120,32,181910,1,6
256,328,183107,5,4
