osu file format v5

[General]
AudioFilename: 03 Ban The Tube Top.mp3
AudioLeadIn: 0
PreviewTime: -1
Countdown: 1
SampleSet: Normal
EditorBookmarks: 19489,32649,60962,74121,89673,115195,143600

[Metadata]
Title:Ban The Tube Top
Artist:Reel Big Fish
Creator:Mogsworth
Version:Hard

[Difficulty]
HPDrainRate:6
CircleSize:6
OverallDifficulty:6
SliderMultiplier:1.6
SliderTickRate:1

[Events]
//Background and Video events
0,0,"lolrbf.jpg"
//Break Periods
2,48202,59762
2,109014,113995
2,128156,142400
//Storyboard Layer 0 (Background)
//Storyboard Layer 1 (Failing)
//Storyboard Layer 2 (Passing)
//Storyboard Layer 3 (Foreground)
//Storyboard Sound Samples
//Background Colour Transformations
3,100,192,192,192

[TimingPoints]
19490,399.068839374792,4,1,0,100
139520,800,4,1,0,100
143600,399.068839374792,4,1,0,100

[Colours]
Combo1 : 255,255,255
Combo2 : 0,0,0

[HitObjects]
80,96,19489,2,0,B|264:96,1,160
240,96,20088,1,0
240,96,20288,1,0
416,280,21086,2,0,B|368:280|344:240,2,80
288,280,21884,1,0
96,64,22682,6,0,B|256:152,1,160
236,141,23281,1,0
236,141,23480,2,0,B|216:208|384:160,1,160
448,72,24278,2,0,B|488:120|416:256,2,160
288,176,25675,5,0
288,176,25875,2,0,B|216:252|128:152,2,160
440,56,27271,1,0
440,56,27471,2,0,B|392:160,1,80
406,128,27870,2,0,B|416:192|368:192|424:296,1,160
160,288,29067,6,0,B|96:264|160:224|203:190|104:136,1,160
134,155,29666,1,0
134,155,29865,2,0,B|192:136|264:200|296:136,1,160
328,24,30663,2,0,B|416:48|440:176,2,160
416,48,32659,6,0,B|424:128|328:96|328:216,1,160
332,175,33257,1,0
332,175,33457,1,0
168,72,34056,2,0,B|152:120|176:168|176:176,5,80
80,320,35652,5,0
80,320,35851,2,0,B|184:320|256:272,1,160
234,284,36450,2,0,B|320:288|144:176,1,160
272,120,37248,1,0
368,32,37647,1,0
456,120,38046,1,0
360,208,38445,1,0
176,272,39044,6,0,B|248:272|96:240|288:168,1,160
266,176,39642,1,0
266,176,39842,1,0
432,80,40441,2,0,B|464:136|408:176,5,80
248,208,42037,6,0,B|224:248|280:256|200:272,4,80
248,208,43035,1,0
248,208,43234,2,0,B|337:137|432:248,4,160
256,192,45828,12,0,48023
72,128,60993,6,0,B|128:88|122:233|224:88,1,160
204,113,61591,1,0
204,113,61791,1,0
480,280,62589,2,0,B|400:333|357:166|320:256,1,160
342,229,63188,1,0
342,229,63387,1,0
96,48,64185,6,0,B|56:96|72:128|96:144|32:200,1,160
41,191,64784,1,0
41,191,64983,2,0,B|104:251|148:116|192:224|208:176,1,160
312,144,65781,2,0,B|336:208|280:200,1,80
287,200,66181,1,0
280,328,66580,1,0
112,224,67178,5,0
112,224,67378,2,0,B|184:224|232:120,2,160
280,320,68775,1,0
280,320,68974,2,0,B|344:320|280:256|376:200,2,160
64,176,70570,6,0,B|24:136|232:184,1,160
200,176,71169,1,0
200,176,71368,1,0
184,336,71768,1,0
336,296,72167,1,0
448,344,72566,2,0,B|448:264|416:136|328:176,1,240
96,336,74162,6,0,B|88:256|184:288|184:168,1,160
180,209,74761,1,0
180,209,74960,1,0
344,312,75559,2,0,B|360:264|336:216|336:208,5,80
432,64,77155,5,0
432,64,77354,2,0,B|328:64|256:112,1,160
278,100,77953,2,0,B|192:96|368:208,1,160
240,264,78751,1,0
144,352,79150,1,0
56,264,79549,1,0
152,176,79948,1,0
336,112,80547,6,0,B|264:112|416:144|224:216,1,160
246,208,81146,1,0
246,208,81345,1,0
80,304,81944,2,0,B|48:248|104:208,5,80
264,176,83540,6,0,B|288:136|232:128|312:112,4,80
264,176,84538,1,0
264,176,84737,2,0,B|175:247|80:136,4,160
256,192,87331,12,0,89327
64,320,90524,2,0,B|160:320,1,80
256,320,91122,1,0
256,192,91521,1,0
352,128,91920,1,0
416,224,92320,1,0
448,32,92918,2,0,B|416:0|256:64,2,160
448,32,93916,1,0
448,160,94315,2,0,B|384:192|256:160,1,160
224,128,94914,2,0,B|160:160|192:192,2,80
416,320,96709,6,0,B|448:288|384:256,1,80
390,259,97108,1,0
256,224,97507,1,0
128,160,97907,1,0
32,256,98306,1,0
128,320,98705,1,0
256,192,99503,12,0,102296
416,64,103094,5,0
416,64,103294,2,0,B|320:64,1,80
192,64,103893,1,0
128,160,104292,1,0
192,256,104691,1,0
320,256,105090,1,0
256,128,105489,2,0,B|256:224,1,80
256,208,106087,1,0
200,264,107085,6,0,B|264:200,1,80
256,207,107684,1,0
256,207,108881,1,0
256,40,115266,5,0
128,40,115665,2,0,B|200:128,1,80
216,152,116064,2,0,B|256:184|296:144,3,80
288,150,116862,1,0
416,152,117261,1,0
416,152,117461,2,0,B|512:393|144:328,1,400
88,240,118858,6,0,B|48:208|112:176,1,80
160,152,119257,2,0,B|256:152,3,80
288,160,120055,2,0,B|352:96,1,80
384,64,120454,2,0,B|448:96|416:128,2,80
128,64,121651,5,0
128,64,122050,2,0,B|96:96|128:160,1,80
160,192,122449,2,0,B|192:224|224:160,3,80
256,128,123247,2,0,B|320:192,1,80
384,192,123646,2,0,B|480:192,1,80
480,256,124046,2,0,B|384:320,1,80
352,320,124445,2,0,B|256:320,1,80
272,320,124844,5,0
272,320,125243,2,0,B|200:320|176:264,1,80
168,240,125642,2,0,B|152:200|224:192,3,80
280,192,126440,2,0,B|218:0|464:248,1,320
460,244,127438,1,0
424,296,127637,1,0
360,336,127837,1,0
288,360,128036,1,0
96,48,143600,6,0,B|88:128|184:96|184:216,1,160
180,175,144198,1,0
180,175,144398,1,0
344,72,144996,2,0,B|360:120|336:168|336:176,5,80
432,320,146593,5,0
432,320,146792,2,0,B|328:320|256:272,1,160
278,284,147391,2,0,B|192:288|368:176,1,160
240,120,148189,1,0
144,32,148588,1,0
56,120,148987,1,0
152,208,149386,1,0
336,272,149985,6,0,B|264:272|416:240|224:168,1,160
246,176,150583,1,0
246,176,150783,1,0
80,80,151381,2,0,B|48:136|104:176,5,80
264,208,152978,6,0,B|288:248|232:256|312:272,4,80
264,208,153975,1,0
264,208,154175,2,4,B|175:137|80:248,4,160
456,192,156370,6,2,B|408:160|472:128|384:64|328:72,1,160
296,72,156968,1,2
232,72,157168,1,2
96,208,157766,1,2
144,248,157966,1,2
208,248,158166,1,2
256,208,158365,1,2
304,168,158565,1,2
352,128,158764,1,2
424,304,159363,5,2
424,304,159562,1,2
296,304,159961,1,2
296,304,160161,1,2
168,296,160560,2,2,B|81:220|192:144,4,160
360,264,162755,6,2,B|320:224|400:192|232:208,1,160
176,208,163353,1,2
112,208,163553,1,2
112,144,163752,2,4,B|112:56,1,80
176,64,164152,1,2
216,112,164351,1,2
280,112,164551,1,2
344,112,164750,1,2
384,64,164950,1,2
432,24,165149,1,2
488,56,165349,2,4,B|440:136,1,80
432,184,165748,5,2
432,184,165947,1,2
392,232,166147,1,2
336,264,166346,1,2
336,264,166546,1,2
280,288,166745,1,2
216,288,166945,2,4,B|152:256|160:144,4,160
216,288,168741,1,4
216,288,168940,1,4
408,272,169539,6,0,B|408:104,1,160
280,104,170337,2,0,B|178:326|64:96,2,320
416,88,172732,6,2,B|416:264,1,160
296,296,173530,2,2,B|160:85|48:272,2,320
256,192,175924,12,6,178318
256,192,178718,1,6
176,64,179715,6,6,B|264:64,1,80
256,64,180314,1,6
256,384,181312,6,6,B|222:359|262:311,1,80
259,314,181910,1,6
256,192,183107,5,4
