osu file format v5

[General]
AudioFilename: 03 Ban The Tube Top.mp3
AudioLeadIn: 0
PreviewTime: -1
Countdown: 1
SampleSet: Normal
StackLeniency: 0.7
Mode: 0
EditorBookmarks: 19490,32659,60993,74162,89726,115266,143600

[Metadata]
Title:Ban The Tube Top
Artist:Reel Big Fish
Creator:Mogsworth
Version:Easy

[Difficulty]
HPDrainRate:4
CircleSize:4
OverallDifficulty:4
SliderMultiplier:1.1
SliderTickRate:1

[Events]
//Background and Video events
0,0,"lolrbf.jpg"
//Break Periods
2,48223,59673
2,109081,113946
2,128236,142280
//Storyboard Layer 0 (Background)
//Storyboard Layer 1 (Failing)
//Storyboard Layer 2 (Passing)
//Storyboard Layer 3 (Foreground)
//Storyboard Sound Samples
//Background Colour Transformations
3,100,163,162,255

[TimingPoints]
19490,399.068839374792,4,1,0,100
139520,800,4,1,0,100
143600,399.068839374792,4,1,0,100

[Colours]
Combo1 : 255,255,255
Combo2 : 0,0,0

[HitObjects]
72,144,19489,2,0,C|112:96|168:152|216:96,1,220
392,80,21086,2,0,C|344:136|392:152|320:208,1,220
160,272,22682,1,0
336,272,23480,1,0
464,88,24278,1,0
368,136,24677,1,0
272,192,25076,1,0
88,72,25875,6,0,C|88:304,1,220
240,280,27471,2,0,C|240:48,1,220
416,72,29067,1,0
416,248,29865,1,0
192,256,30663,1,0
80,256,31062,1,0
136,352,31462,1,0
56,120,32659,6,0,L|96:64|144:128|208:88,1,220
376,80,34255,2,0,B|448:112|344:304,1,220
200,208,35851,5,0
144,280,36250,1,0
256,344,36849,2,0,B|336:240,4,110
400,304,39044,6,0,L|456:264|392:216|432:152,1,220
256,256,40640,2,0,B|184:224|80:88,1,220
280,40,42236,5,0
336,112,42635,1,0
224,176,43234,2,0,B|144:72,4,110
256,192,45828,12,0,48023
400,40,60993,6,0,C|448:80|392:136|448:184,1,220
336,344,62589,2,0,C|280:296|264:344|208:272,1,220
176,96,64185,1,0
176,272,64983,1,0
384,328,65781,1,0
384,216,66181,1,0
472,152,66580,1,0
248,152,67378,6,0,C|16:152,1,220
192,296,68974,2,0,C|424:296,1,220
224,176,70570,1,0
432,232,71368,1,0
216,288,72167,2,0,L|119:244|136:72,1,275
408,56,74162,6,0,L|464:96|400:144|440:208,1,220
256,328,75758,2,0,B|224:400|32:296,1,220
216,160,77354,5,0
144,72,77754,1,0
120,232,78352,2,0,B|208:304,4,110
136,48,80547,6,0,L|176:104|224:40|288:80,1,220
480,56,82143,2,0,B|552:88|448:280,1,220
264,296,83740,5,0
208,224,84139,1,0
312,120,84737,2,0,B|232:16,5,110
256,192,87331,12,0,88927
80,96,89726,2,0,B|200:96,3,110
272,72,91322,2,0,B|392:72,3,110
464,48,92918,2,0,B|464:144|411:337|172:486|32:232,1,660
176,64,96111,2,0,B|296:64,3,110
392,72,97707,2,0,B|512:72,3,110
424,152,99303,2,0,B|161:53|320:232|200:208|104:184|211:404|230:306|444:250|504:64|504:368|360:344|128:328,1,825
80,152,103094,6,0,C|88:32|208:24|456:32|488:248,1,715
384,240,106087,1,0
136,72,107285,6,0,B|26:72,1,110
256,256,108881,5,0
256,40,115266,5,0
256,216,116064,1,0
120,328,116862,2,0,B|248:360|344:304,1,220
464,184,118459,5,0
288,184,119257,1,0
136,88,120055,2,0,B|80:136|96:192,2,110
304,48,121651,5,0
408,192,122449,1,0
272,304,123247,2,0,B|224:312|240:376|312:376,3,110
344,288,124844,5,0
416,144,125642,1,0
264,56,126440,2,0,B|72:60|374:326|56:240|432:264|48:336,1,440
56,264,143600,6,0,L|96:320|144:256|184:328,1,220
376,304,145196,2,0,B|285:244|344:80,1,220
200,176,146792,5,0
144,104,147191,1,0
256,40,147790,2,0,B|336:144,4,110
256,184,149985,6,0,L|216:240|168:176|104:216,1,220
272,104,151581,2,0,B|356:66|424:232,1,220
240,312,153177,5,0
184,240,153576,1,0
312,200,154175,2,0,B|376:192|384:280,4,110
416,72,156370,6,0,C|369:107|360:160,1,110
360,156,157168,1,0
136,152,157966,1,2
136,152,158365,1,2
136,152,158764,1,2
296,160,159363,6,2,B|232:120,1,55
176,48,159961,2,2,B|240:24,1,55
336,32,160560,2,2,B|407:37|432:88,4,110
240,168,162755,5,2
328,168,163154,1,2
416,168,163553,1,2
416,344,164351,5,2
328,344,164750,1,2
240,344,165149,1,2
112,240,165748,6,2,B|48:240,4,55
56,144,166945,2,2,B|192:144,5,110
320,64,169539,6,0,B|533:56|416:344|208:304,1,440
320,64,172732,6,2,B|168:64|104:280|424:288,1,440
256,192,175924,12,6,178318
256,192,178718,5,6
48,32,179915,5,6
48,32,180314,1,6
56,296,181511,5,6
56,296,181910,1,6
256,128,183107,5,4
