osu file format v10

[General]
AudioFilename: 01-18 ReeceA - Jesus Is Not Your Child.mp3
AudioLeadIn: 0
PreviewTime: 60623
Countdown: 0
SampleSet: Normal
StackLeniency: 0.3
Mode: 0
LetterboxInBreaks: 0

[Editor]
DistanceSpacing: 1.3
BeatDivisor: 4
GridSize: 4

[Metadata]
Title:Jesus Is Not Your Child
TitleUnicode:Jesus Is Not Your Child
Artist:ReeceA
ArtistUnicode:ReeceA
Creator:Static Noise Bird
Version:Slaughter II
Source:
Tags:breakbit rofltrax
BeatmapID:181339
BeatmapSetID:60681

[Difficulty]
HPDrainRate:7
CircleSize:4
OverallDifficulty:7
ApproachRate:7
SliderMultiplier:2.3
SliderTickRate:2

[Events]
//Background and Video events
0,0,"JINYC-bg.jpg"
//Break Periods
//Storyboard Layer 0 (Background)
//Storyboard Layer 1 (Fail)
//Storyboard Layer 2 (Pass)
//Storyboard Layer 3 (Foreground)
//Storyboard Sound Samples
//Background Colour Transformations
3,100,255,255,255

[TimingPoints]
40,631.578947368421,4,1,0,50,1,0
20250,-100,4,1,0,50,0,1
20408,-100,4,1,0,50,0,0
60671,-100,4,2,0,35,0,0
80882,-100,4,1,0,35,0,0
101092,-100,4,1,0,50,0,0
141513,-100,4,2,0,35,0,0
161724,-100,4,1,0,35,0,0

[Colours]
Combo1 : 255,255,0
Combo2 : 255,128,0
Combo3 : 255,0,0
Combo4 : 255,0,128

[HitObjects]
256,192,15197,12,0,17092,0:0:0
60,136,17724,6,0,P|176:144,1,115
396,208,18355,2,0,P|280:216,1,115
60,280,18987,2,0,P|176:288,1,115
396,352,19618,1,8,0:0:0
212,216,20250,6,0,P|156:200,1,57.5
280,180,20566,2,0,P|321:139,1,57.5,0|0,0:0|0:0,0:0:0
276,256,20882,2,0,P|288:312|324:356,1,115,8|0,0:0|0:0,0:0:0
420,292,21513,1,0,0:0:0
392,180,21829,2,2,P|400:124|436:80,1,115,2|8,0:0|0:0,0:0:0
324,104,22461,1,0,0:0:0
216,148,22776,5,0,0:0:0
101,111,22934,1,0,0:0:0
172,208,23092,1,0,0:0:0
172,88,23250,1,0,0:0:0
101,185,23408,1,8,0:0:0
284,328,23724,2,0,P|224:324|176:300,1,115
396,220,24355,2,2,P|456:216|504:192,1,115,2|8,0:0|0:0,0:0:0
268,192,24987,1,0,0:0:0
144,220,25303,6,0,P|84:200,1,57.5
196,276,25618,2,0,P|136:292,1,57.5
264,304,25934,1,8,0:0:0
144,220,26250,1,0,0:0:0
276,152,26566,1,0,0:0:0
400,236,26882,2,2,P|464:188|444:132,1,115,2|8,0:0|0:0,0:0:0
360,52,27513,1,0,0:0:0
212,52,27829,5,0,0:0:0
212,52,27987,1,0,0:0:0
92,80,28145,1,0,0:0:0
92,80,28303,1,0,0:0:0
176,168,28461,1,8,0:0:0
400,216,28776,2,0,P|428:264|400:312,1,115
110,311,29408,2,2,P|84:264|112:216,1,115,2|8,0:0|0:0,0:0:0
256,108,30040,1,0,0:0:0
400,140,30355,6,0,P|456:128,1,57.5
308,180,30671,2,0,P|252:192,1,57.5
388,236,30987,1,8,0:0:0
256,304,31303,1,0,0:0:0
156,192,31618,1,0,0:0:0
288,120,31934,2,2,P|304:64|304:64|336:60|356:32,1,115,2|8,0:0|0:0,0:0:0
204,36,32566,1,0,0:0:0
68,100,32882,5,0,0:0:0
36,132,33040,1,0,0:0:0
112,168,33197,1,0,0:0:0
140,204,33355,1,0,0:0:0
44,244,33513,1,8,0:0:0
268,288,33829,2,0,P|324:296|380:284,1,115
244,96,34461,2,2,P|188:88|132:100,1,115,2|8,0:0|0:0,0:0:0
192,236,35092,2,0,P|192:296,1,57.5
264,208,35408,6,0,P|280:264,1,57.5
320,160,35724,2,0,P|356:208,1,57.5
248,136,36040,1,8,0:0:0
76,112,36355,1,0,0:0:0
68,284,36671,2,0,P|120:248|172:248,1,115,0|2,0:0|0:0,0:0:0
444,100,37303,2,0,P|392:136|340:136,1,115,8|0,0:0|0:0,0:0:0
204,192,37934,6,0,P|136:176|156:84,1,172.5
256,140,38566,2,0,P|272:72|364:92,1,172.5
308,192,39197,2,0,P|376:208|356:300,1,172.5
256,244,39829,2,0,P|240:312|148:292,1,172.5
8,256,40461,6,0,P|68:244,1,57.5,4|0,0:0|0:0,0:0:0
156,176,40776,2,0,P|204:144,1,57.5
288,56,41092,1,8,0:0:0
