osu file format v4

[General]
AudioFilename: Rednex - Cotton Eye Joe.mp3
AudioLeadIn: 1000
AudioHash: 65314b0ed144abbd545d3cf73d4ea797
PreviewTime: -1
SampleSet: Normal

[Metadata]
Title:Cotton Eye Joe
Artist:Rednex
Creator:Loginer
Version:BEYOND IMPOSSIBLE

[Difficulty]
HPDrainRate:5
CircleSize:5
OverallDifficulty:7
SliderMultiplier: 1.4
SliderTickRate: 1

[Events]
//Background and Video events
//Break Periods
//Storyboard Layer 0 (Background)
//Storyboard Layer 1 (Failing)
//Storyboard Layer 2 (Passing)
//Storyboard Layer 3 (Foreground)
//Storyboard Sound Samples
//Background Colour Transformations
3,0,163,162,255

[TimingPoints]
256,227.272727272727,4,1,0,100

[HitObjects]
192,192,199,1,0
224,192,255,1,0
288,192,539,1,0
336,192,653,1,0
336,128,880,1,0
288,128,994,1,0
224,128,1221,1,0
176,128,1335,1,0
256,64,1562,1,0
320,64,2017,5,0
320,128,2244,1,0
320,192,2471,2,0,B|320:192|176:192,1,140
176,240,2812,1,0
224,240,2926,1,0
288,256,3153,1,0
336,272,3267,1,0
384,256,3380,2,0,B|384:256|384:96,1,140
336,96,3721,1,0
288,96,3835,5,0
240,112,3948,2,0,B|240:112|80:160,1,140
128,192,4289,1,0
192,208,4517,1,0
256,208,4744,2,0,B|256:208|272:208,1,35
336,192,4858,1,0
400,160,4971,1,0
384,112,5085,1,0
320,112,5198,2,0,B|320:112|160:112,1,140
128,112,5653,6,0,B|128:112|128:192,2,70
128,64,5994,1,0
160,80,6051,1,0
192,80,6108,1,0
224,64,6164,1,0
256,80,6221,1,0
288,64,6278,1,0
320,80,6335,1,0
352,64,6392,1,0
384,80,6448,1,0
416,64,6505,1,0
448,80,6562,1,0
448,80,6619,2,0,B|448:80|448:144|400:192,1,105
352,176,7017,2,0,B|352:176|304:192|272:288,1,140
256,128,7471,5,0
256,160,7527,1,0
256,224,7811,1,0
256,272,7925,1,0
320,272,8152,1,0
320,224,8266,1,0
320,160,8493,1,0
320,112,8607,1,0
384,192,8834,1,0
384,256,9289,5,0
320,256,9516,1,0
256,256,9743,2,0,B|256:256|256:112,1,140
208,112,10084,1,0
208,160,10198,1,0
192,224,10425,1,0
176,272,10539,1,0
192,320,10652,2,0,B|192:320|352:320,1,140
352,272,10993,1,0
352,224,11107,5,0
336,176,11220,2,0,B|336:176|288:16,1,140
256,64,11561,1,0
240,128,11789,1,0
240,192,12016,2,0,B|240:192|240:208,1,35
256,272,12130,1,0
288,336,12243,1,0
336,320,12357,1,0
336,256,12470,2,0,B|336:256|336:96,1,140
336,64,12925,6,0,B|336:64|256:64,2,70
384,64,13266,1,0
368,96,13323,1,0
368,128,13380,1,0
384,160,13436,1,0
368,192,13493,1,0
384,224,13550,1,0
368,256,13607,1,0
384,288,13664,1,0
368,320,13720,1,0
384,352,13777,1,0
368,384,13834,1,0
368,384,13891,2,0,B|368:384|304:384|256:336,1,105
272,288,14289,2,0,B|272:288|256:240|160:208,1,140
64,144,14744,6,0,B|64:144|128:80,1,70
113,94,14971,2,0,B|113:94|160:160,1,70
153,151,15198,2,0,B|153:151|208:64,1,70
190,91,15426,2,0,B|190:91|240:160,1,70
231,147,15653,2,0,B|231:147|288:64,1,70
270,89,15880,2,0,B|270:89|320:160,1,70
310,146,16107,2,0,B|310:146|352:80,1,70
347,86,16335,2,0,B|347:86|400:176,1,70
382,146,16562,2,0,B|382:146|432:64,1,70
418,86,16789,2,0,B|418:86|320:80,1,70
348,81,17017,2,0,B|348:81|304:160,1,70
313,142,17244,2,0,B|313:142|256:64,1,70
271,85,17471,2,0,B|271:85|224:160,1,70
233,144,17698,2,0,B|233:144|192:80,1,70
195,85,17926,2,0,B|195:85|144:160,1,70
155,142,18153,2,0,B|155:142|80:96,1,70
96,112,18380,2,0,B|96:112|64:208,1,70
64,208,18608,6,0,B|64:208|128:272,1,70
113,258,18835,2,0,B|113:258|160:192,1,70
153,201,19062,2,0,B|153:201|208:288,1,70
190,261,19290,2,0,B|190:261|240:192,1,70
231,205,19517,2,0,B|231:205|288:288,1,70
270,263,19744,2,0,B|270:263|320:192,1,70
310,206,19971,2,0,B|310:206|352:272,1,70
347,266,20199,2,0,B|347:266|400:176,1,70
382,206,20426,2,0,B|382:206|432:288,1,70
418,266,20653,2,0,B|418:266|320:272,1,70
348,271,20881,2,0,B|348:271|304:192,1,70
313,210,21108,2,0,B|313:210|256:288,1,70
271,267,21335,2,0,B|271:267|224:192,1,70
233,208,21562,2,0,B|233:208|192:272,1,70
195,267,21790,2,0,B|195:267|144:192,1,70
