osu file format v14

[General]
AudioFilename: [SDVX III ] Rubeus [NOFX].mp3
AudioLeadIn: 1200
PreviewTime: 80050
Countdown: 0
SampleSet: Normal
StackLeniency: 0.7
Mode: 0
LetterboxInBreaks: 0
WidescreenStoryboard: 0

[Editor]
Bookmarks: 41617
DistanceSpacing: 0.8
BeatDivisor: 4
GridSize: 4
TimelineZoom: 2.4

[Metadata]
Title:Rubeus
TitleUnicode:Rubeus
Artist:RedMuffleR
ArtistUnicode:RedMuffleR
Creator:Smoothie World
Version:GRAVITY
Source:SOUND VOLTEX III GRAVITY WARS
Tags:Fort SDVX konami crabovan monstrata
BeatmapID:574050
BeatmapSetID:249703

[Difficulty]
HPDrainRate:7
CircleSize:4
OverallDifficulty:8
ApproachRate:9.3
SliderMultiplier:1.8
SliderTickRate:1

[Events]
//Background and Video events
0,0,"bg.jpg",0,0
//Break Periods
2,61050,65096
//Storyboard Layer 0 (Background)
//Storyboard Layer 1 (Fail)
//Storyboard Layer 2 (Pass)
//Storyboard Layer 3 (Foreground)
//Storyboard Sound Samples

[TimingPoints]
-650,300,5,1,1,70,1,0
925,-200,5,2,1,40,0,0
6700,-133.333333333333,5,1,1,70,0,0
6925,-133.333333333333,5,2,1,70,0,0
8275,-133.333333333333,5,1,1,70,0,0
8425,-133.333333333333,5,2,1,70,0,0
9775,-100,5,1,1,70,0,0
9925,-100,5,2,1,70,0,0
10225,-100,5,1,1,70,0,0
10375,-100,5,2,1,70,0,0
10675,-100,5,1,1,70,0,0
10825,-100,5,2,1,70,0,0
10975,-100,5,1,1,70,0,0
11125,-100,5,2,1,70,0,0
11275,-100,5,1,1,70,0,0
11425,-100,5,2,1,70,0,0
11612,-100,5,1,1,70,0,0
11687,-100,5,2,1,70,0,0
11875,-100,5,1,1,70,0,0
12850,300,4,1,1,50,1,0
17500,-133.333333333333,4,1,1,70,0,0
17725,-133.333333333333,4,2,1,70,0,0
18025,-133.333333333333,4,1,1,70,0,0
18175,-133.333333333333,4,2,1,70,0,0
18475,-133.333333333333,4,1,1,70,0,0
18625,-133.333333333333,4,2,1,70,0,0
18925,-133.333333333333,4,1,1,70,0,0
19075,-133.333333333333,4,2,1,70,0,0
19375,-133.333333333333,4,1,1,70,0,0
20125,-133.333333333333,4,2,1,70,0,0
20425,-133.333333333333,4,1,1,70,0,0
20575,-133.333333333333,4,2,1,70,0,0
20875,-133.333333333333,4,1,1,70,0,0
21025,-133.333333333333,4,2,1,70,0,0
21175,-133.333333333333,4,2,1,5,0,0
21325,-133.333333333333,4,1,1,70,0,0
21475,-133.333333333333,4,2,1,70,0,0
21587,-133.333333333333,4,1,1,70,0,0
21700,-133.333333333333,4,2,1,70,0,0
21812,-133.333333333333,4,1,1,70,0,0
22000,-66.6666666666667,4,2,1,70,0,0
22150,-66.6666666666667,4,1,1,70,0,0
22375,-100,4,2,1,70,0,0
22412,-100,4,1,1,55,0,0
31075,-100,4,1,1,40,0,0
31975,-100,4,1,1,55,0,0
39775,-100,4,2,1,70,0,0
40075,-100,4,1,1,70,0,0
41725,-100,4,2,1,70,0,0
46112,-100,4,1,1,70,0,0
46487,-100,4,2,1,70,0,0
50575,-100,4,1,1,70,0,0
51325,-100,4,1,1,50,0,0
54812,-100,4,1,1,70,0,0
56125,-100,4,1,1,50,0,0
58412,-100,4,1,1,70,0,0
58975,-100,4,1,1,50,0,0
59575,-100,4,1,1,60,0,0
65500,-100,4,2,1,60,0,0
67975,-100,4,2,1,40,0,0
68612,-100,4,2,1,90,0,0
69212,-100,4,1,1,60,0,0
69812,-100,4,1,1,60,0,0
70112,-100,4,1,1,60,0,0
70525,-100,4,1,1,50,0,0
74875,-66.6666666666667,4,1,1,70,0,0
75175,-100,4,2,1,70,0,0
75212,-100,4,1,1,70,0,0
80050,300,5,1,1,80,1,1
92050,-100,5,2,1,70,0,0
97975,-100,5,1,1,60,0,0
98125,-100,5,2,1,60,0,0
99475,-100,5,1,1,60,0,0
99625,-100,5,2,1,60,0,0
100675,-100,5,1,1,60,0,0
101125,-100,5,1,1,60,0,0
103975,-100,5,1,1,70,0,0
107275,-100,5,1,1,80,0,0
108475,-100,5,1,1,99,0,0

[Colours]
Combo1 : 17,78,111
Combo2 : 128,128,255
Combo3 : 255,146,94
Combo4 : 0,128,64
Combo5 : 255,192,0

[HitObjects]
96,164,850,5,4,2:0:0:0:
152,236,1000,2,0,L|212:232,1,45,0|0,0:0|0:0,0:0:0:0:
380,80,1300,1,0,0:0:0:0:
324,152,1450,2,0,L|260:148,1,45,0|0,0:0|0:0,0:0:0:0:
184,136,1750,5,2,2:0:0:0:
312,312,2050,1,2,2:0:0:0:
456,208,2350,5,0,0:0:0:0:
404,136,2500,2,0,L|396:80,1,45
312,312,2800,1,0,0:0:0:0:
260,240,2950,2,0,L|252:192,1,45
236,120,3250,5,2,0:0:0:0:
208,348,3550,1,2,0:0:0:0:
236,120,3850,5,0,0:0:0:0:
256,116,4000,1,0,0:0:0:0:
272,112,4150,1,0,0:0:0:0:
104,180,4300,1,0,0:0:0:0:
84,176,4450,1,0,0:0:0:0:
64,172,4600,1,0,0:0:0:0:
208,232,4750,5,2,0:0:0:0:
164,36,5050,1,2,0:0:0:0:
364,288,5350,5,0,0:0:0:0:
416,228,5500,1,0,0:0:0:0:
448,320,5650,1,0,0:0:0:0:
336,160,5800,1,0,0:0:0:0:
296,232,5950,1,0,0:0:0:0:
260,104,6100,1,0,0:0:0:0:
356,24,6250,5,2,0:0:0:0:
152,88,6550,1,2,0:0:0:0:
240,324,6850,5,4,2:0:0:0:
316,300,7000,1,0,0:0:0:0:
376,248,7150,1,0,0:0:0:0:
236,240,7300,1,8,0:0:0:0:
152,216,7450,1,0,0:0:0:0:
85,160,7600,1,0,0:0:0:0:
80,256,7750,6,0,P|80:284|68:336,1,67.5000025749208,8|0,0:0|0:0,0:0:0:0:
168,136,8050,2,0,P|156:72|160:44,1,67.5000025749208,8|0,0:0|0:0,0:0:0:0:
312,236,8350,5,12,0:0:0:0:
380,276,8500,1,0,0:0:0:0:
460,280,8650,1,0,0:0:0:0:
388,192,8800,1,8,0:0:0:0:
316,156,8950,1,0,0:0:0:0:
236,156,9100,1,0,0:0:0:0:
160,180,9250,6,0,B|128:188|128:188|76:180,1,67.5000025749208,8|0,0:0|0:0,0:0:0:0:
292,56,9550,2,0,B|324:48|324:48|376:56,1,67.5000025749208,8|0,0:0|0:0,0:0:0:0:
224,240,9850,5,4,0:0:0:0:
380,276,10000,1,0,0:0:0:0:
380,276,10075,1,0,0:0:0:0:
380,276,10150,1,0,0:0:0:0:
344,100,10300,1,4,0:0:0:0:
300,276,10450,2,0,P|280:296|248:312,2,45,0|0|0,0:0|0:0|0:0,0:0:0:0:
456,184,10750,5,4,0:0:0:0:
252,152,10900,1,2,0:0:0:0:
504,120,11050,1,4,0:0:0:0:
312,197,11200,1,2,0:0:0:0:
248,28,11350,6,4,B|204:28|204:28|172:40|152:68,1,90,4|4,0:0|0:0,0:0:0:0:
144,80,11575,1,0,0:0:0:0:
136,116,11650,1,8,0:0:0:0:
328,52,11800,1,0,0:0:0:0:
336,264,11950,1,8,0:0:0:0:
352,236,12025,1,0,0:0:0:0:
356,196,12100,1,0,0:0:0:0:
340,160,12175,1,0,0:0:0:0:
308,136,12250,2,0,B|260:136|260:136|192:108,1,90,8|0,0:0|0:0,0:0:0:0:
440,156,12550,5,2,0:0:0:0:
236,224,12700,1,2,0:0:0:0:
404,92,12850,6,0,P|468:88|508:124,1,90,4|0,2:0|0:0,0:0:0:0:
484,260,13150,1,8,0:0:0:0:
352,352,13300,2,0,B|292:352|292:352|260:328|260:328|152:328,1,180
276,208,13750,1,8,0:0:0:0:
192,176,13900,1,0,0:0:0:0:
359,258,14050,6,0,B|375:214|375:214|367:158,1,90
104,120,14350,2,8,B|88:164|88:164|96:220,1,90,8|0,0:0|0:0,0:0:0:0:
288,64,14650,1,0,0:0:0:0:
292,80,14950,2,0,P|344:128|432:92,1,135,8|0,0:0|0:0,0:0:0:0:
440,112,15250,6,0,B|440:160|440:160|408:212,1,90
260,312,15550,2,0,B|260:264|260:264|292:212,1,90,8|0,0:0|0:0,0:0:0:0:
432,316,15850,1,0,0:0:0:0:
424,300,16150,1,8,0:0:0:0:
416,284,16450,6,0,B|380:284|380:284|352:276|352:276|300:276,1,90
288,64,16750,1,8,0:0:0:0:
216,204,16900,1,0,0:0:0:0:
392,128,17050,1,0,0:0:0:0:
412,264,17200,2,0,L|448:272,2,22.5
396,288,17350,2,0,P|348:308|272:280,1,135,8|0,0:0|0:0,0:0:0:0:
192,216,17650,6,0,P|116:192|48:224,1,135.000005149842,2|0,0:0|0:0,0:0:0:0:
372,200,18100,2,0,B|412:200|412:200|460:180|460:180|504:180,1,135.000005149842,2|0,0:0|0:0,0:0:0:0:
304,132,18550,2,0,P|276:204|304:268,1,135.000005149842,2|0,0:0|0:0,0:0:0:0:
196,136,19000,2,0,B|128:132|128:132|128:124,1,67.5000025749208,2|0,0:0|0:0,0:0:0:0:
40,196,19300,1,0,0:0:0:0:
172,44,19450,1,2,0:0:0:0:
164,244,19600,5,0,0:0:0:0:
164,264,19675,1,0,0:0:0:0:
160,288,19750,2,0,L|156:319,6,16.8750006437302
204,308,20050,6,0,L|232:237,1,67.5000025749208,2|0,0:0|0:0,0:0:0:0:
320,332,20350,1,0,0:0:0:0:
324,196,20500,2,0,P|380:184|452:240,1,135.000005149842,2|0,0:0|0:0,0:0:0:0:
380,104,20950,2,0,P|316:104|268:48,1,135.000005149842,2|0,0:0|0:0,0:0:0:0:
216,180,21400,6,0,L|200:256,1,67.5000025749208
248,316,21625,2,0,L|232:223,1,67.5000025749208
288,148,21850,2,0,P|240:108|176:112,1,101.250003862381,2|0,0:0|0:0,0:0:0:0:
168,124,22150,6,8,P|152:200|36:216,1,202.500007724762,8|0,0:0|0:0,0:0:0:0:
20,240,22450,6,0,P|76:296|72:336,1,90,6|0,0:0|0:0,0:0:0:0:
80,332,22675,1,0,0:0:0:0:
72,360,22750,1,8,0:0:0:0:
92,156,22900,1,0,0:0:0:0:
240,256,23050,1,0,0:0:0:0:
236,76,23200,1,2,0:0:0:0:
148,232,23350,1,8,0:0:0:0:
148,232,23425,1,0,0:0:0:0:
148,232,23500,6,0,B|176:320|176:320|272:344,1,180,0|2,0:0|0:0,0:0:0:0:
328,176,23950,1,8,0:0:0:0:
184,64,24100,2,0,B|252:64|252:64|300:32|300:32|376:32,1,180,0|2,0:0|0:0,0:0:0:0:
392,32,24475,1,0,0:0:0:0:
428,44,24550,1,8,0:0:0:0:
296,168,24700,1,0,0:0:0:0:
360,336,24850,6,0,B|368:316|360:288|360:288|376:228,1,90
370,248,25075,1,0,0:0:0:0:
370,248,25150,1,8,0:0:0:0:
288,88,25300,1,0,0:0:0:0:
224,256,25450,1,2,0:0:0:0:
380,164,25600,1,0,0:0:0:0:
380,164,25675,1,0,0:0:0:0:
380,164,25750,1,8,0:0:0:0:
296,4,25900,6,0,P|232:28|216:132,1,180,2|0,0:0|0:0,0:0:0:0:
260,304,26350,1,8,0:0:0:0:
88,252,26500,2,0,B|152:248|152:248|192:220|192:220|272:216,1,180,2|0,0:0|0:0,0:0:0:0:
288,216,26875,1,0,0:0:0:0:
312,216,26950,2,0,P|320:176|316:160,1,45,8|0,0:0|0:0,0:0:0:0:
384,264,27100,1,2,0:0:0:0:
376,292,27175,1,2,0:0:0:0:
372,320,27250,6,2,P|408:360|464:356,1,90
441,363,27475,1,0,0:0:0:0:
441,363,27550,1,8,0:0:0:0:
260,304,27700,1,0,0:0:0:0:
392,184,27850,1,2,0:0:0:0:
216,140,28000,1,0,0:0:0:0:
364,36,28150,1,8,0:0:0:0:
364,36,28225,1,0,0:0:0:0:
364,36,28300,6,0,B|288:40|288:40|256:16|256:16|224:48|164:32,1,180,0|2,0:0|0:0,0:0:0:0:
16,44,28750,1,8,0:0:0:0:
168,140,28900,2,0,B|228:160|272:112|272:112|304:128|304:128|348:128,1,180,0|2,0:0|0:0,0:0:0:0:
364,132,29275,1,0,0:0:0:0:
396,128,29350,1,8,0:0:0:0:
200,68,29500,1,0,0:0:0:0:
205,250,29650,5,0,0:0:0:0:
288,88,29800,1,2,0:0:0:0:
124,164,29950,1,8,0:0:0:0:
284,212,30100,2,0,L|388:216,1,90
488,144,30400,1,0,0:0:0:0:
275,297,30550,1,8,0:0:0:0:
275,297,30625,1,0,0:0:0:0:
275,296,30700,2,0,P|207:256|199:216,1,90,0|2,0:0|0:0,0:0:0:0:
416,200,31000,5,0,0:0:0:0:
296,8,31150,1,8,0:0:0:0:
332,184,31300,1,2,0:0:0:0:
164,116,31450,1,8,0:0:0:0:
352,92,31600,1,2,0:0:0:0:
212,204,31750,1,8,0:0:0:0:
196,24,31900,1,0,0:0:0:0:
112,184,32050,6,0,B|68:192|68:192|12:180,1,90,2|0,0:0|0:0,0:0:0:0:
23,182,32275,1,0,0:0:0:0:
23,182,32350,1,8,0:0:0:0:
180,96,32500,1,0,0:0:0:0:
180,276,32650,1,2,0:0:0:0:
324,168,32800,1,0,0:0:0:0:
144,188,32950,1,8,0:0:0:0:
144,188,33025,1,0,0:0:0:0:
144,188,33100,6,0,B|100:228|92:268|92:268|96:312|124:360,1,180,2|2,0:0|0:0,0:0:0:0:
252,228,33550,1,8,0:0:0:0:
412,148,33700,2,0,B|356:148|356:148|312:124|312:124|232:124,1,180,0|2,0:0|0:0,0:0:0:0:
212,124,34075,1,0,0:0:0:0:
184,124,34150,2,0,P|212:176|200:240,1,90,8|0,0:0|0:0,0:0:0:0:
116,52,34450,5,2,0:0:0:0:
296,72,34600,1,0,0:0:0:0:
316,88,34675,1,0,0:0:0:0:
336,104,34750,2,0,L|432:100,1,90,8|0,0:0|0:0,0:0:0:0:
248,124,35050,1,2,0:0:0:0:
368,256,35200,1,0,0:0:0:0:
368,256,35275,1,0,0:0:0:0:
368,256,35350,1,8,0:0:0:0:
188,252,35500,6,0,B|148:256|128:240|128:240|104:244|80:264|80:264|40:272|12:260,1,180,0|2,0:0|0:0,0:0:0:0:
52,116,35950,1,8,0:0:0:0:
184,340,36100,2,0,P|256:304|264:208,1,180,0|2,0:0|0:0,0:0:0:0:
252,192,36475,1,0,0:0:0:0:
236,168,36550,2,0,P|232:128|240:104,1,45,8|0,0:0|0:0,0:0:0:0:
334,158,36700,1,10,0:0:0:0:
342,186,36775,1,2,0:0:0:0:
346,214,36850,6,0,B|330:254|330:254|278:286,1,90,2|0,0:0|0:0,0:0:0:0:
262,282,37075,1,0,0:0:0:0:
226,278,37150,1,8,0:0:0:0:
44,212,37300,1,0,0:0:0:0:
144,64,37450,1,2,0:0:0:0:
188,252,37600,1,0,0:0:0:0:
256,72,37750,1,8,0:0:0:0:
256,72,37825,1,0,0:0:0:0:
256,72,37900,6,0,B|320:72|320:72|368:104|368:104|444:104,1,180,2|2,0:0|0:0,0:0:0:0:
252,152,38350,1,8,0:0:0:0:
252,152,38500,2,0,P|240:212|336:240,1,180,2|2,0:0|0:0,0:0:0:0:
352,224,38875,1,0,0:0:0:0:
372,208,38950,1,8,0:0:0:0:
220,304,39100,1,0,0:0:0:0:
184,104,39250,5,2,0:0:0:0:
116,272,39400,1,2,0:0:0:0:
280,200,39550,1,8,0:0:0:0:
108,144,39700,2,0,P|104:68|200:16,1,180,2|0,0:0|0:0,0:0:0:0:
328,132,40150,1,8,0:0:0:0:
328,132,40225,1,0,0:0:0:0:
328,132,40300,6,0,B|400:132|400:132|440:160|440:160|536:160,1,180,2|0,0:0|0:0,0:0:0:0:
344,316,40750,2,0,L|352:272,1,45,10|0,0:0|0:0,0:0:0:0:
316,200,40900,2,0,B|284:220|276:252|276:252|236:252|196:268|196:268|152:260|152:260|124:268,1,180,2|0,0:0|0:0,0:0:0:0:
432,280,41350,1,8,0:0:0:0:
196,176,41500,1,0,0:0:0:0:
332,60,41650,6,0,L|436:52,1,90,4|0,0:0|0:0,0:0:0:0:
293,160,41950,1,8,0:0:0:0:
204,248,42100,2,0,L|100:256,1,90
296,252,42400,1,0,0:0:0:0:
412,112,42550,1,8,0:0:0:0:
240,168,42700,1,0,0:0:0:0:
412,216,42850,6,0,L|420:308,1,90
412,112,43150,1,8,0:0:0:0:
324,152,43300,2,0,L|316:244,1,90
240,72,43600,1,0,0:0:0:0:
108,192,43750,1,8,0:0:0:0:
232,328,43900,1,0,0:0:0:0:
164,116,44050,6,0,L|72:112,1,90
74,275,44350,1,8,0:0:0:0:
196,248,44500,2,0,B|264:236|296:276|296:276|328:256|328:256|352:256|352:256|372:252,1,180
204,164,44950,1,8,0:0:0:0:
336,340,45100,1,0,0:0:0:0:
316,176,45250,6,0,L|304:84,1,90
324,264,45550,1,8,0:0:0:0:
408,104,45700,2,0,L|396:12,1,90
420,192,46000,1,0,0:0:0:0:
244,52,46150,1,0,0:0:0:0:
384,268,46300,1,0,0:0:0:0:
180,252,46450,5,2,0:0:0:0:
292,196,46600,1,0,0:0:0:0:
164,288,46750,1,8,0:0:0:0:
316,172,46900,1,0,0:0:0:0:
296,312,47050,1,0,0:0:0:0:
216,132,47200,1,0,0:0:0:0:
368,256,47350,1,8,0:0:0:0:
140,172,47500,1,0,0:0:0:0:
420,192,47650,6,0,L|512:184,1,90
384,116,47950,1,8,0:0:0:0:
424,340,48100,2,0,B|388:356|352:340|352:340|316:352|316:352|276:336|240:348,1,180
68,356,48550,1,8,0:0:0:0:
144,192,48700,1,0,0:0:0:0:
304,272,48850,6,0,L|404:264,1,90
393,264,49150,1,8,0:0:0:0:
224,204,49300,2,0,L|132:212,1,90,0|0,0:0|0:0,0:0:0:0:
296,128,49600,1,0,0:0:0:0:
396,52,49750,1,8,0:0:0:0:
480,136,49900,1,0,0:0:0:0:
204,120,50050,5,8,0:0:0:0:
364,200,50200,1,0,0:0:0:0:
208,288,50350,1,8,0:0:0:0:
380,340,50500,1,0,0:0:0:0:
356,68,50650,5,2,0:0:0:0:
336,64,50800,1,2,0:0:0:0:
316,60,50950,1,2,0:0:0:0:
296,56,51100,1,2,0:0:0:0:
272,52,51250,6,0,L|172:48,1,90,6|0,2:0|0:0,0:0:0:0:
312,272,51550,1,8,0:0:0:0:
312,176,51700,2,0,B|368:196|408:176|408:176|452:200|500:180,1,180,0|2,0:0|0:0,0:0:0:0:
360,56,52150,1,8,0:0:0:0:
220,172,52300,1,0,0:0:0:0:
404,256,52450,6,0,P|408:304|424:352,1,90,2|0,0:0|0:0,0:0:0:0:
400,140,52750,1,8,0:0:0:0:
300,188,52900,2,0,B|272:228|288:268|288:268|272:296|272:296|276:328|252:368,1,180,0|2,0:0|0:0,0:0:0:0:
156,240,53350,1,8,0:0:0:0:
272,104,53500,1,0,0:0:0:0:
388,240,53650,6,0,L|484:244,1,90,2|0,0:0|0:0,0:0:0:0:
477,243,53950,1,8,0:0:0:0:
312,168,54100,2,0,L|220:160,1,90
44,140,54400,1,2,0:0:0:0:
196,48,54550,1,10,0:0:0:0:
144,220,54700,1,2,0:0:0:0:
272,104,54850,6,0,L|324:92,1,45,10|0,0:0|0:0,0:0:0:0:
392,136,55000,2,0,L|460:148,1,45,10|2,0:0|0:0,0:0:0:0:
500,100,55150,1,2,0:0:0:0:
352,320,55300,1,0,0:0:0:0:
300,195,55450,2,0,L|316:155,3,30,2|0|2|0,0:0|0:0|0:0|0:0,0:0:0:0:
268,16,55750,1,8,0:0:0:0:
216,180,55900,2,0,L|204:208,2,30,2|2|2,0:0|0:0|0:0,0:0:0:0:
188,152,56050,6,0,L|288:144,1,90,2|0,0:0|0:0,0:0:0:0:
116,224,56350,1,8,0:0:0:0:
300,218,56500,1,0,0:0:0:0:
136,296,56650,2,0,L|24:304,1,90,2|0,0:0|0:0,0:0:0:0:
220,348,56950,1,8,0:0:0:0:
400,340,57100,1,0,0:0:0:0:
242,267,57250,6,0,B|218:227|218:227|214:151,1,90
404,200,57550,1,8,0:0:0:0:
408,20,57700,1,0,0:0:0:0:
252,112,57850,2,0,L|132:116,1,90
320,176,58150,1,8,0:0:0:0:
500,164,58300,1,0,0:0:0:0:
384,300,58450,6,0,L|284:308,1,90,8|0,0:0|0:0,0:0:0:0:
136,224,58750,2,0,L|236:216,1,90,8|0,0:0|0:0,0:0:0:0:
404,208,59050,1,10,0:0:0:0:
236,148,59200,1,0,0:0:0:0:
404,88,59350,1,10,0:0:0:0:
232,40,59500,1,0,0:0:0:0:
308,204,59650,5,2,0:0:0:0:
276,224,59725,1,0,0:0:0:0:
240,232,59800,1,2,0:0:0:0:
204,228,59875,1,0,0:0:0:0:
172,212,59950,1,2,0:0:0:0:
148,184,60025,1,0,0:0:0:0:
140,148,60100,1,2,0:0:0:0:
148,104,60175,1,0,0:0:0:0:
156,64,60250,6,0,L|92:64,1,45,8|0,0:0|0:0,0:0:0:0:
236,148,60400,2,0,L|284:148,1,45,8|0,0:0|0:0,0:0:0:0:
82,255,60550,2,0,L|18:255,1,45,8|0,0:0|0:0,0:0:0:0:
262,342,60700,2,0,L|310:342,1,45,8|0,0:0|0:0,0:0:0:0:
480,246,60850,5,4,0:0:0:0:
256,192,65650,12,0,67750,0:0:0:0:
172,264,68050,6,0,L|224:248,3,45,8|0|0|0,0:0|0:0|0:0|0:0,0:0:0:0:
264,316,68350,2,0,L|316:300,3,45,8|0|8|0,0:0|0:0|0:0|0:0,0:0:0:0:
328,284,68650,5,8,0:0:0:0:
308,244,68725,1,0,0:0:0:0:
300,200,68800,1,8,0:0:0:0:
308,156,68875,1,0,0:0:0:0:
328,116,68950,1,8,0:0:0:0:
364,88,69025,1,0,0:0:0:0:
408,84,69100,1,8,0:0:0:0:
452,96,69175,1,0,0:0:0:0:
480,132,69250,6,0,P|404:144|328:48,1,180,2|0,0:0|0:0,0:0:0:0:
333,78,69700,1,2,1:0:0:0:
272,200,69850,1,0,0:0:0:0:
268,244,69925,1,0,0:0:0:0:
276,280,70000,1,0,0:0:0:0:
288,312,70075,1,0,0:0:0:0:
328,320,70150,5,0,0:0:0:0:
344,320,70225,1,2,0:0:0:0:
360,320,70300,1,2,0:0:0:0:
376,320,70375,1,2,0:0:0:0:
392,320,70450,6,0,L|496:312,1,90
419,218,70675,1,0,0:0:0:0:
419,218,70750,2,0,L|355:214,1,45,8|0,0:0|0:0,0:0:0:0:
457,122,70900,2,0,L|521:118,1,45
285,96,71050,1,0,0:0:0:0:
246,100,71125,1,0,0:0:0:0:
220,123,71200,1,0,0:0:0:0:
204,152,71275,1,0,0:0:0:0:
204,184,71350,2,0,L|208:240,1,45,8|0,0:0|0:0,0:0:0:0:
288,280,71500,2,0,L|288:336,1,45
176,320,71650,6,0,L|72:312,1,90,2|0,0:0|0:0,0:0:0:0:
112,276,71875,1,0,0:0:0:0:
124,232,71950,1,8,0:0:0:0:
128,188,72025,1,0,0:0:0:0:
124,144,72100,1,0,0:0:0:0:
100,104,72175,1,0,0:0:0:0:
76,68,72250,2,0,P|152:80|184:64,1,90,2|0,0:0|0:0,0:0:0:0:
328,152,72550,2,0,P|252:164|188:140,1,135,8|0,0:0|0:0,0:0:0:0:
204,192,72850,6,0,L|212:300,1,90,2|0,0:0|0:0,0:0:0:0:
320,240,73150,2,0,L|312:348,1,90,8|0,0:0|0:0,0:0:0:0:
130,241,73450,2,0,L|138:349,1,90,0|2,0:0|0:0,0:0:0:0:
397,212,73750,2,0,L|389:320,1,90,8|0,0:0|0:0,0:0:0:0:
236,140,73975,5,0,0:0:0:0:
216,120,74050,2,0,L|224:228,1,90,2|0,0:0|0:0,0:0:0:0:
488,180,74350,2,0,L|480:288,1,90,8|2,0:0|0:0,0:0:0:0:
312,72,74575,1,0,0:0:0:0:
288,48,74650,2,0,L|296:156,1,90,2|0,0:0|0:0,0:0:0:0:
412,38,74950,6,0,P|468:54|460:206,1,202.500007724762,8|0,0:0|0:0,0:0:0:0:
476,206,75250,6,0,P|460:266|476:310,1,90,2|0,0:0|0:0,0:0:0:0:
380,144,75550,1,8,0:0:0:0:
204,176,75700,1,0,0:0:0:0:
332,300,75850,2,0,L|432:308,1,90,0|2,0:0|0:0,0:0:0:0:
296,176,76150,1,8,0:0:0:0:
120,220,76300,1,0,0:0:0:0:
244,88,76450,6,0,L|368:80,1,90,2|0,0:0|0:0,0:0:0:0:
252,244,76750,1,8,0:0:0:0:
116,128,76900,1,0,0:0:0:0:
168,300,77050,1,2,0:0:0:0:
196,308,77125,1,2,0:0:0:0:
224,316,77200,1,2,0:0:0:0:
252,324,77275,1,2,0:0:0:0:
276,328,77350,2,0,P|348:328|368:316,1,90,8|0,0:0|0:0,0:0:0:0:
376,284,77575,1,0,0:0:0:0:
376,248,77650,5,10,0:0:0:0:
244,88,77800,1,0,0:0:0:0:
452,196,77950,1,10,0:0:0:0:
460,172,78025,1,0,0:0:0:0:
476,148,78100,1,0,0:0:0:0:
376,52,78250,5,10,0:0:0:0:
340,56,78325,1,0,0:0:0:0:
304,52,78400,1,0,0:0:0:0:
268,48,78475,1,0,0:0:0:0:
232,40,78550,1,10,0:0:0:0:
92,56,78700,1,0,0:0:0:0:
56,60,78775,1,0,0:0:0:0:
24,72,78850,6,0,L|32:152,1,45,10|0,0:0|0:0,0:0:0:0:
208,148,79000,2,0,L|200:204,1,45,10|0,0:0|0:0,0:0:0:0:
96,224,79150,2,0,L|108:296,1,45,10|0,0:0|0:0,0:0:0:0:
216,304,79300,2,0,L|208:364,1,45,10|0,0:0|0:0,0:0:0:0:
120,384,79450,5,8,0:0:0:0:
219,211,79600,1,0,0:0:0:0:
332,352,79750,2,0,L|364:328,5,30,8|0|8|0|8|0,0:0|0:0|0:0|0:0|0:0|0:0,0:0:0:0:
392,328,80050,5,8,0:0:0:0:
388,148,80200,1,0,0:0:0:0:
228,228,80350,1,0,0:0:0:0:
448,236,80500,1,8,0:0:0:0:
288,156,80650,1,0,0:0:0:0:
268,332,80800,1,0,0:0:0:0:
468,156,80950,2,0,B|460:116|472:100|472:100|468:72|476:44,1,90,8|0,0:0|0:0,0:0:0:0:
360,240,81250,2,0,B|368:280|356:296|356:296|360:324|352:352,1,90,8|0,0:0|0:0,0:0:0:0:
268,164,81550,5,8,0:0:0:0:
92,120,81700,1,0,0:0:0:0:
152,292,81850,1,0,0:0:0:0:
188,116,82000,1,8,0:0:0:0:
56,240,82150,1,0,0:0:0:0:
236,260,82300,1,0,0:0:0:0:
222,38,82450,2,0,B|184:32|184:32|136:48,1,90,8|0,0:0|0:0,0:0:0:0:
149,229,82750,2,0,B|188:236|188:236|236:220,1,90,8|0,0:0|0:0,0:0:0:0:
222,38,83050,5,8,0:0:0:0:
320,216,83200,1,0,0:0:0:0:
140,240,83350,1,0,0:0:0:0:
284,132,83500,1,8,0:0:0:0:
420,252,83650,1,0,0:0:0:0:
248,308,83800,1,0,0:0:0:0:
364,148,83950,2,0,B|412:140|412:140|468:156,1,90,8|0,0:0|0:0,0:0:0:0:
436,332,84250,2,0,B|388:340|388:340|332:324,1,90,8|0,0:0|0:0,0:0:0:0:
228,196,84550,5,8,0:0:0:0:
100,320,84700,1,0,0:0:0:0:
76,140,84850,1,0,0:0:0:0:
216,320,85000,1,8,0:0:0:0:
280,132,85150,1,0,0:0:0:0:
72,240,85300,1,0,0:0:0:0:
168,104,85450,2,0,L|160:8,1,90,8|0,0:0|0:0,0:0:0:0:
264,164,85750,2,0,L|252:253,1,90,8|0,0:0|0:0,0:0:0:0:
272,72,86050,5,8,0:0:0:0:
148,204,86200,1,0,0:0:0:0:
296,308,86350,1,0,0:0:0:0:
336,132,86500,1,8,0:0:0:0:
212,264,86650,1,0,0:0:0:0:
388,304,86800,1,0,0:0:0:0:
252,188,86950,2,0,L|152:172,1,90,8|0,0:0|0:0,0:0:0:0:
388,304,87250,2,0,L|488:320,1,90,8|0,0:0|0:0,0:0:0:0:
388,64,87550,5,8,0:0:0:0:
208,88,87700,1,0,0:0:0:0:
112,232,87850,1,0,0:0:0:0:
297,49,88000,1,8,0:0:0:0:
147,146,88150,1,0,0:0:0:0:
253,272,88300,1,0,0:0:0:0:
296,136,88450,2,0,B|336:148|360:144|360:144|396:160,1,90,8|0,0:0|0:0,0:0:0:0:
128,256,88750,2,0,B|88:268|64:264|64:264|28:280,1,90,8|0,0:0|0:0,0:0:0:0:
168,132,89050,5,8,0:0:0:0:
80,344,89200,1,0,0:0:0:0:
244,268,89350,1,0,0:0:0:0:
80,192,89500,1,8,0:0:0:0:
180,340,89650,1,0,0:0:0:0:
300,204,89800,1,0,0:0:0:0:
404,352,89950,2,0,B|448:360|448:360|500:344,1,90,8|0,0:0|0:0,0:0:0:0:
480,168,90250,2,0,B|436:160|436:160|384:176,1,90,8|0,0:0|0:0,0:0:0:0:
292,324,90550,5,8,0:0:0:0:
172,188,90700,1,0,0:0:0:0:
304,40,90850,1,0,0:0:0:0:
288,220,91000,1,8,0:0:0:0:
188,68,91150,1,0,0:0:0:0:
356,136,91300,1,0,0:0:0:0:
216,260,91450,2,0,P|152:268|96:244,1,90,8|0,0:0|0:0,0:0:0:0:
284,128,91750,5,8,0:0:0:0:
336,112,91825,1,0,0:0:0:0:
388,104,91900,1,8,0:0:0:0:
440,108,91975,1,0,0:0:0:0:
492,128,92050,1,12,0:0:0:0:
256,192,92200,12,0,95050,0:0:0:0:
204,272,96550,5,0,0:0:0:0:
204,272,96700,1,0,0:0:0:0:
256,148,96850,1,0,0:0:0:0:
256,148,97000,1,0,0:0:0:0:
372,244,97150,1,0,0:0:0:0:
372,244,97300,1,0,0:0:0:0:
424,120,97450,5,0,0:0:0:0:
480,328,97750,1,0,0:0:0:0:
204,232,98050,5,8,0:0:0:0:
204,232,98200,2,0,L|84:224,1,90
288,184,98500,1,0,0:0:0:0:
288,184,98650,2,0,L|408:176,1,90
252,308,98950,1,0,0:0:0:0:
224,108,99250,1,0,0:0:0:0:
352,120,99550,5,8,0:0:0:0:
384,204,99700,2,0,P|440:208|480:200,1,90
312,244,100000,1,0,0:0:0:0:
276,324,100150,2,0,P|224:328|180:320,1,90
368,312,100450,1,0,0:0:0:0:
140,228,100750,1,8,0:0:0:0:
360,180,101050,5,8,0:0:0:0:
300,120,101200,2,0,L|288:24,1,90
144,260,101500,1,8,0:0:0:0:
212,196,101650,2,0,L|224:100,1,90
312,264,101950,2,0,L|304:356,1,90,8|0,0:0|0:0,0:0:0:0:
388,192,102250,2,0,L|396:100,1,90,8|0,0:0|0:0,0:0:0:0:
232,280,102550,1,8,0:0:0:0:
176,108,102700,5,0,0:0:0:0:
156,104,102775,1,0,0:0:0:0:
132,100,102850,1,0,0:0:0:0:
108,96,102925,1,0,0:0:0:0:
84,92,103000,1,8,0:0:0:0:
224,204,103150,1,0,0:0:0:0:
244,200,103225,1,0,0:0:0:0:
268,196,103300,1,0,0:0:0:0:
292,192,103375,1,0,0:0:0:0:
312,188,103450,6,0,L|320:148,3,30,8|0|0|0,0:0|0:0|0:0|0:0,0:0:0:0:
344,320,103750,1,8,0:0:0:0:
252,116,103900,1,0,0:0:0:0:
432,316,104050,5,8,0:0:0:0:
252,264,104200,1,0,0:0:0:0:
72,316,104350,1,0,0:0:0:0:
432,224,104500,1,8,0:0:0:0:
252,168,104650,1,0,0:0:0:0:
72,224,104800,1,0,0:0:0:0:
344,124,104950,1,10,0:0:0:0:
344,124,105025,1,2,0:0:0:0:
344,124,105100,1,2,0:0:0:0:
296,328,105250,1,10,0:0:0:0:
272,332,105325,1,2,0:0:0:0:
248,336,105400,1,2,0:0:0:0:
224,340,105475,1,2,0:0:0:0:
200,344,105550,5,10,0:0:0:0:
160,152,105700,1,0,0:0:0:0:
288,40,105850,1,0,0:0:0:0:
104,352,106000,1,8,0:0:0:0:
88,112,106150,1,0,0:0:0:0:
300,232,106300,1,0,0:0:0:0:
372,40,106450,1,10,0:0:0:0:
372,40,106525,1,2,0:0:0:0:
372,40,106600,1,2,0:0:0:0:
424,296,106750,5,10,0:0:0:0:
424,296,106825,1,2,0:0:0:0:
424,296,106900,1,2,0:0:0:0:
168,260,107050,1,2,0:0:0:0:
344,112,107200,1,2,0:0:0:0:
236,340,107350,5,8,0:0:0:0:
104,172,107500,1,0,0:0:0:0:
380,208,107800,5,0,0:0:0:0:
224,52,108100,5,0,0:0:0:0:
256,256,108250,1,0,0:0:0:0:
352,8,108550,5,6,2:0:0:0:
