osu file format v14

[General]
AudioFilename: [SDVX III ] Rubeus [NOFX].mp3
AudioLeadIn: 1200
PreviewTime: 80050
Countdown: 0
SampleSet: Normal
StackLeniency: 0.7
Mode: 0
LetterboxInBreaks: 0
WidescreenStoryboard: 0

[Editor]
Bookmarks: 41617
DistanceSpacing: 0.8
BeatDivisor: 2
GridSize: 8
TimelineZoom: 1.3

[Metadata]
Title:Rubeus
TitleUnicode:Rubeus
Artist:RedMuffleR
ArtistUnicode:RedMuffleR
Creator:Smoothie World
Version:BEGINNER
Source:SOUND VOLTEX III GRAVITY WARS
Tags:Fort SDVX konami crabovan monstrata
BeatmapID:574051
BeatmapSetID:249703

[Difficulty]
HPDrainRate:3
CircleSize:3
OverallDifficulty:3
ApproachRate:3.5
SliderMultiplier:0.6
SliderTickRate:1

[Events]
//Background and Video events
0,0,"bg.jpg",0,0
//Break Periods
2,61049,67870
2,92250,96670
//Storyboard Layer 0 (Background)
//Storyboard Layer 1 (Fail)
//Storyboard Layer 2 (Pass)
//Storyboard Layer 3 (Foreground)
//Storyboard Sound Samples

[TimingPoints]
-650,300,5,2,1,70,1,0
775,-100,5,1,1,70,0,0
925,-100,5,2,1,40,0,0
6700,-100,5,1,1,50,0,0
8275,-100,5,1,1,50,0,0
12850,300,4,1,1,70,1,0
80050,300,5,1,1,70,1,1
92050,-100,5,2,1,70,0,0
104050,-100,5,1,1,70,0,0

[Colours]
Combo1 : 17,78,111
Combo2 : 128,128,255
Combo3 : 255,146,94
Combo4 : 0,128,64
Combo5 : 255,192,0

[HitObjects]
112,320,850,6,0,B|80:264|112:216|112:216|168:248|224:208|224:208|216:168|256:112,1,300,6|8,2:0|0:0,0:0:0:0:
238,140,3850,2,0,P|262:228|374:124,1,300,2|8,0:0|0:0,0:0:0:0:
381,139,6850,6,0,P|413:203|237:235,1,300,8|8,0:0|0:0,0:0:0:0:
253,264,9850,2,0,B|189:296|125:248|125:248|173:160|125:80,1,300
344,192,12850,6,0,B|272:192|272:192|232:160,1,120,2|8,0:0|0:0,0:0:0:0:
152,120,14050,1,2,0:0:0:0:
156,212,14650,1,8,0:0:0:0:
78,270,15250,6,0,P|138:306|208:296,1,120,2|8,0:0|0:0,0:0:0:0:
276,272,16450,1,2,0:0:0:0:
372,288,17050,1,8,0:0:0:0:
336,200,17650,6,0,B|280:176|280:176|200:200,1,120,2|8,0:0|0:0,0:0:0:0:
128,184,18850,2,0,B|144:128|144:128|192:88,1,120,2|8,0:0|0:0,0:0:0:0:
288,88,20050,2,0,P|429:191|405:286,1,240,2|8,0:0|0:0,0:0:0:0:
400,328,21850,1,8,0:0:0:0:
312,296,22450,6,0,B|272:296|272:296|236:312|236:312|156:312,1,120,2|8,0:0|0:0,0:0:0:0:
124,248,23650,1,2,0:0:0:0:
216,216,24250,1,8,0:0:0:0:
144,152,24850,6,0,B|128:112|128:112|136:36,2,120,2|8|0,0:0|0:0|0:0,0:0:0:0:
232,120,26650,1,8,0:0:0:0:
328,120,27250,6,0,P|330:215|296:256,1,120,2|8,0:0|0:0,0:0:0:0:
264,312,28450,1,2,0:0:0:0:
200,240,29050,1,8,0:0:0:0:
157,323,29650,6,0,P|108:248|213:146,1,240,2|8,0:0|0:0,0:0:0:0:
280,192,31450,1,8,0:0:0:0:
356,252,32050,6,0,B|388:200|388:200|384:108,1,120,2|8,0:0|0:0,0:0:0:0:
296,176,33250,1,2,0:0:0:0:
308,80,33850,1,8,0:0:0:0:
220,116,34450,6,0,P|160:136|104:104,1,120,2|8,0:0|0:0,0:0:0:0:
44,44,35650,1,2,0:0:0:0:
24,136,36250,1,8,0:0:0:0:
92,204,36850,6,0,B|136:208|136:208|160:232|160:232|248:240,1,120,2|8,0:0|0:0,0:0:0:0:
241,329,38050,1,2,0:0:0:0:
330,291,38650,1,8,0:0:0:0:
272,208,39250,6,0,B|328:177|375:202|375:202|461:228|512:152|512:152|512:152,1,240,2|8,0:0|0:0,0:0:0:0:
416,110,41050,1,8,0:0:0:0:
320,80,41650,6,0,P|366:23|424:8,2,120,2|8|0,0:0|0:0|0:0,0:0:0:0:
265,165,43450,1,8,0:0:0:0:
184,224,44050,6,0,P|252:264|324:248,2,120,2|8|2,0:0|0:0|0:0,0:0:0:0:
168,128,45850,1,8,0:0:0:0:
265,165,46450,6,0,B|333:165|333:165|385:137,1,120,2|8,0:0|0:0,0:0:0:0:
304,72,47650,2,0,B|236:72|236:72|184:44,1,120,2|8,0:0|0:0,0:0:0:0:
144,128,48850,5,2,0:0:0:0:
112,216,49450,1,8,0:0:0:0:
144,304,50050,1,2,0:0:0:0:
240,320,50650,1,8,0:0:0:0:
207,225,51250,6,0,P|271:225|324:267,1,120,2|8,0:0|0:0,0:0:0:0:
408,296,52450,1,2,0:0:0:0:
400,200,53050,1,8,0:0:0:0:
316,148,53650,6,0,B|252:148|252:148|196:112,2,120,2|8|2,0:0|0:0|0:0,0:0:0:0:
404,108,55450,1,8,0:0:0:0:
320,60,56050,6,0,P|204:33|80:60,1,240,2|2,0:0|0:0,0:0:0:0:
118,147,57850,1,8,0:0:0:0:
77,233,58450,5,2,0:0:0:0:
167,264,59050,1,8,0:0:0:0:
260,286,59650,2,0,B|319:294|319:294|396:254,2,120,0|0|4,0:0|0:0|0:0,0:0:0:0:
377,296,69250,6,0,P|248:280|230:162,1,240,2|8,0:0|0:0,0:0:0:0:
322,209,71050,1,8,0:0:0:0:
393,138,71650,2,0,P|336:110|272:120,1,120,2|8,0:0|0:0,0:0:0:0:
322,209,72850,5,0,0:0:0:0:
376,292,73450,1,8,0:0:0:0:
280,288,74050,2,0,B|216:288|216:288|160:240,1,120,2|8,0:0|0:0,0:0:0:0:
96,190,75250,6,0,P|76:245|98:318,2,120,2|8|2,0:0|0:0|0:0,0:0:0:0:
184,144,77050,1,8,0:0:0:0:
202,43,77650,2,0,B|281:70|284:148|284:148|325:107|397:99,1,240
108,221,80050,6,0,P|164:245|240:200,1,120,4|0,2:0|0:0,0:0:0:0:
280,152,81250,1,2,0:0:0:0:
308,109,81550,2,0,B|380:109|380:109|444:165,1,120,8|0,0:0|0:0,0:0:0:0:
432,232,82750,5,2,0:0:0:0:
440,280,83050,2,0,P|376:336|304:328,1,120,8|0,0:0|0:0,0:0:0:0:
256,296,84250,1,2,0:0:0:0:
232,256,84550,2,0,B|208:200|208:200|232:136,1,120,8|0,0:0|0:0,0:0:0:0:
328,128,85750,5,2,0:0:0:0:
360,160,86050,2,0,P|440:176|488:152,2,120,8|0|2,0:0|0:0|0:0,0:0:0:0:
328,128,87550,2,0,B|264:120|264:120|176:168,1,120,8|0,0:0|0:0,0:0:0:0:
232,240,88750,5,2,0:0:0:0:
272,256,89050,2,0,P|288:336|248:400,1,120,8|0,0:0|0:0,0:0:0:0:
200,312,90250,1,2,0:0:0:0:
152,296,90550,2,0,B|104:296|104:296|80:280|80:280|-8:280,1,120,8|0,0:0|0:0,0:0:0:0:
16,184,91750,5,2,0:0:0:0:
0,144,92050,1,14,0:0:0:0:
120,256,98050,6,0,P|136:144|240:208,1,240,8|2,0:0|0:0,0:0:0:0:
248,216,99550,2,0,P|264:328|368:264,1,240,8|2,0:0|0:0,0:0:0:0:
376,256,101050,6,0,P|392:144|520:160,1,240,8|2,0:0|0:0,0:0:0:0:
504,192,102550,1,8,0:0:0:0:
264,128,104050,6,0,P|192:144|136:120,1,120,2|0,0:0|0:0,0:0:0:0:
112,104,104950,1,8,0:0:0:0:
96,200,105550,6,0,B|112:264|112:264|88:328,1,120,2|0,0:0|0:0,0:0:0:0:
72,360,106450,1,8,0:0:0:0:
168,336,107050,1,0,0:0:0:0:
216,320,107350,6,0,L|312:312|312:312,2,90
176,288,108550,1,4,0:0:0:0:
