osu file format v14

[General]
AudioFilename: [SDVX III ] Rubeus [NOFX].mp3
AudioLeadIn: 1200
PreviewTime: 80050
Countdown: 0
SampleSet: Soft
StackLeniency: 0.7
Mode: 0
LetterboxInBreaks: 0
WidescreenStoryboard: 0

[Editor]
Bookmarks: 41617
DistanceSpacing: 1
BeatDivisor: 4
GridSize: 4
TimelineZoom: 1.6

[Metadata]
Title:Rubeus
TitleUnicode:Rubeus
Artist:RedMuffleR
ArtistUnicode:RedMuffleR
Creator:Smoothie World
Version:BASIC
Source:SOUND VOLTEX III GRAVITY WARS
Tags:Fort SDVX konami crabovan monstrata
BeatmapID:627785
BeatmapSetID:249703

[Difficulty]
HPDrainRate:4
CircleSize:3
OverallDifficulty:4
ApproachRate:5
SliderMultiplier:1.1
SliderTickRate:1

[Events]
//Background and Video events
0,0,"bg.jpg",0,0
//Break Periods
2,61050,66850
2,92250,96850
//Storyboard Layer 0 (Background)
//Storyboard Layer 1 (Fail)
//Storyboard Layer 2 (Pass)
//Storyboard Layer 3 (Foreground)
//Storyboard Sound Samples

[TimingPoints]
-650,300,5,2,1,70,1,0
850,-133.333333333333,5,2,1,70,0,0
925,-133.333333333333,5,2,1,40,0,0
6700,-100,5,2,1,50,0,0
12850,300,4,1,1,60,1,0
80050,300,5,1,1,70,1,1
92050,-100,5,2,1,70,0,0
103900,-100,5,1,1,80,0,0

[Colours]
Combo1 : 17,78,111
Combo2 : 128,128,255
Combo3 : 255,146,94
Combo4 : 0,128,64
Combo5 : 255,192,0

[HitObjects]
96,212,850,6,0,B|140:232|180:212|180:212|228:268|316:248|327:200,1,247.500009441376,4|0,0:0|0:0,0:0:0:0:
256,164,2050,1,0,0:0:0:0:
332,132,2350,6,0,P|400:156|372:308,1,247.500009441376,2|0,0:0|0:0,0:0:0:0:
300,308,3550,1,0,0:0:0:0:
216,316,3850,6,0,B|212:262|258:232|258:232|156:238|112:198,1,247.500009441376,2|0,0:0|0:0,0:0:0:0:
96,120,5050,1,0,0:0:0:0:
180,124,5350,6,0,B|248:164|360:96|360:96|424:108,1,247.500009441376,2|0,0:0|0:0,0:0:0:0:
424,188,6550,1,0,0:0:0:0:
440,272,6850,5,4,0:0:0:0:
196,60,7750,1,0,0:0:0:0:
280,132,8050,1,0,0:0:0:0:
380,88,8350,6,0,B|405:143|485:139|485:139|485:207|441:219|441:219|453:287|393:299,1,330,6|0,1:0|0:0,0:0:0:0:
288,336,9550,1,0,0:0:0:0:
192,284,9850,6,0,P|162:201|200:128,2,165,2|0|2,1:0|0:0|1:0,0:0:0:0:
272,208,11050,1,0,0:0:0:0:
364,264,11350,2,0,B|449:257|449:257|519:195,2,165,2|0|2,0:0|0:0|0:0,0:0:0:0:
272,208,12550,1,2,0:0:0:0:
372,164,12850,6,0,P|396:104|384:44,1,110
288,96,13450,1,8,0:0:0:0:
188,48,13750,1,0,0:0:0:0:
192,156,14050,2,0,B|216:200|272:207|272:207|240:264|276:324,1,220,2|8,0:0|0:0,0:0:0:0:
368,260,14950,1,0,0:0:0:0:
368,260,15250,6,0,P|380:172|356:140,2,110,2|0|8,0:0|0:0|0:0,0:0:0:0:
260,280,16150,1,0,0:0:0:0:
156,240,16450,2,0,P|160:116|220:128,1,220,2|8,0:0|0:0,0:0:0:0:
304,192,17350,1,0,0:0:0:0:
388,264,17650,6,0,B|446:272|490:247|490:247|456:186|498:123,2,220,0|8|0,0:0|0:0|0:0,0:0:0:0:
304,192,19150,1,0,0:0:0:0:
232,272,19450,2,0,P|154:281|111:262,1,110,8|0,0:0|0:0,0:0:0:0:
180,176,20050,6,0,B|213:127|179:66|179:66|223:41|281:49,2,220,0|8|0,0:0|0:0|0:0,0:0:0:0:
392,60,22150,1,0,0:0:0:0:
440,160,22450,6,0,P|440:224|384:280,1,110,4|2,0:0|0:0,0:0:0:0:
320,316,23050,1,8,0:0:0:0:
272,216,23350,1,0,0:0:0:0:
172,260,23650,2,0,L|148:92,2,165,2|8|2,0:0|0:0|0:0,0:0:0:0:
272,216,24850,6,0,P|360:216|396:264,1,110
444,312,25450,1,8,0:0:0:0:
496,216,25750,1,0,0:0:0:0:
448,116,26050,2,0,B|397:115|397:115|337:89|337:89|267:89,1,165,0|8,0:0|0:0,0:0:0:0:
124,88,26950,1,0,0:0:0:0:
164,188,27250,6,0,L|168:312,1,110,6|0,0:0|0:0,0:0:0:0:
268,248,27850,1,8,0:0:0:0:
368,296,28150,1,0,0:0:0:0:
352,188,28450,2,0,P|432:208|476:288,2,165,2|8|2,0:0|0:0|0:0,0:0:0:0:
368,296,29650,5,2,0:0:0:0:
256,176,30100,1,0,0:0:0:0:
364,196,30400,1,0,0:0:0:0:
320,96,30700,2,0,P|188:100|172:236,1,275,2|8,0:0|0:0,0:0:0:0:
160,332,31750,1,8,0:0:0:0:
264,300,32050,6,2,P|313:323|366:311,1,110,4|0,0:0|0:0,0:0:0:0:
460,252,32650,1,8,0:0:0:0:
376,184,32950,1,0,0:0:0:0:
480,148,33250,2,0,P|424:84|336:80,2,165,2|8|2,0:0|0:0|0:0,0:0:0:0:
460,252,34450,5,0,0:0:0:0:
368,312,34750,1,0,0:0:0:0:
260,316,35050,2,0,P|169:273|158:246,1,110,8|0,0:0|0:0,0:0:0:0:
256,208,35650,2,0,P|292:156|185:83,1,220,2|8,0:0|0:0,0:0:0:0:
148,296,36850,6,0,P|192:336|264:336,1,110,2|0,0:0|0:0,0:0:0:0:
336,284,37450,1,8,0:0:0:0:
436,332,37750,1,0,0:0:0:0:
464,224,38050,2,0,L|468:108,1,110,2|0,0:0|0:0,0:0:0:0:
372,56,38650,2,0,L|369:166,1,110,8|0,0:0|0:0,0:0:0:0:
268,212,39250,6,0,P|176:216|140:156,2,165,2|2|2,0:0|0:0|0:0,0:0:0:0:
364,160,40450,2,0,L|364:272,1,110,2|2,0:0|0:0,0:0:0:0:
276,336,41050,1,8,0:0:0:0:
76,240,41650,6,0,P|64:164|92:112,1,110,2|0,0:0|0:0,0:0:0:0:
164,72,42250,2,0,P|216:58|269:73,1,110,8|0,0:0|0:0,0:0:0:0:
340,156,42850,2,0,P|392:180|464:84,2,165,2|8|2,0:0|0:0|0:0,0:0:0:0:
268,72,44050,5,2,0:0:0:0:
212,168,44350,1,0,0:0:0:0:
256,268,44650,1,8,0:0:0:0:
168,332,44950,1,0,0:0:0:0:
128,228,45250,2,0,P|112:140|212:60,1,220,2|8,0:0|0:0,0:0:0:0:
212,168,46150,1,0,0:0:0:0:
228,276,46450,5,2,0:0:0:0:
336,300,46750,1,0,0:0:0:0:
432,244,47050,2,0,B|440:176|440:176|428:128,1,110,8|0,0:0|0:0,0:0:0:0:
376,40,47650,5,2,0:0:0:0:
264,40,47950,1,0,0:0:0:0:
176,108,48250,2,0,P|220:144|288:148,1,110,8|0,0:0|0:0,0:0:0:0:
380,148,48850,6,0,P|444:184|412:272,2,165,2|8|2,0:0|0:0|0:0,0:0:0:0:
271,151,50050,2,0,L|259:27,1,110,2|0,0:0|0:0,0:0:0:0:
156,80,50650,2,0,L|166:189,1,110,8|0,0:0|0:0,0:0:0:0:
164,300,51250,6,0,P|216:292|256:212,1,110,2|0,0:0|0:0,0:0:0:0:
268,140,51850,1,8,0:0:0:0:
352,212,52150,1,0,0:0:0:0:
368,104,52450,2,0,B|444:136|444:136|516:84,2,165,2|8|2,0:0|0:0|0:0,0:0:0:0:
268,140,53650,5,2,0:0:0:0:
172,192,53950,1,0,0:0:0:0:
152,84,54250,1,8,0:0:0:0:
248,32,54550,1,0,0:0:0:0:
268,140,54850,2,0,P|272:228|160:300,1,220,2|8,0:0|0:0,0:0:0:0:
392,328,56050,6,0,P|432:260|424:212,1,110,2|0,0:0|0:0,0:0:0:0:
340,168,56650,2,0,P|296:100|304:56,1,110,8|0,0:0|0:0,0:0:0:0:
408,84,57250,1,2,0:0:0:0:
340,168,57550,1,2,0:0:0:0:
264,248,57850,2,0,B|192:248|192:248|152:224,2,110,8|0|8,0:0|0:0|0:0,0:0:0:0:
268,28,59050,5,0,0:0:0:0:
432,172,59650,1,0,0:0:0:0:
212,152,60250,1,0,0:0:0:0:
408,52,60850,5,6,0:0:0:0:
304,244,68050,6,0,P|372:260|416:240,2,110
232,160,68950,1,0,0:0:0:0:
340,132,69250,2,8,P|408:84|380:4,2,165,2|2|2,0:0|0:0|0:0,0:0:0:0:
248,72,70450,6,0,L|116:76,1,110,2|0,0:0|0:0,0:0:0:0:
36,112,71050,1,8,0:0:0:0:
124,176,71350,1,0,0:0:0:0:
68,272,71650,2,0,B|124:284|124:284|196:268,1,110
220,172,72250,1,8,0:0:0:0:
164,76,72550,1,0,0:0:0:0:
272,80,72850,6,0,P|364:108|440:40,2,165,2|8|2,0:0|0:0|0:0,0:0:0:0:
164,76,74050,1,2,0:0:0:0:
220,172,74350,1,0,0:0:0:0:
168,268,74650,2,0,P|220:281|273:268,1,110,8|0,0:0|0:0,0:0:0:0:
320,168,75250,6,0,L|444:180,1,110,2|0,0:0|0:0,0:0:0:0:
428,68,75850,2,0,L|304:80,1,110,8|0,0:0|0:0,0:0:0:0:
216,124,76450,5,2,0:0:0:0:
140,204,76750,1,2,0:0:0:0:
208,292,77050,2,0,B|276:264|360:292|360:292|396:260|436:252,1,220,2|4,0:0|0:0,0:0:0:0:
256,192,77950,12,0,79450,0:0:0:0:
200,104,80050,6,0,P|288:120|352:52,2,165,10|0|8,0:0|0:0|0:0,0:0:0:0:
108,168,81250,1,0,0:0:0:0:
192,236,81550,2,0,L|200:356,1,110,10|0,0:0|0:0,0:0:0:0:
308,336,82150,1,0,0:0:0:0:
388,260,82450,2,0,B|449:260|449:260|505:241,1,110,8|0,0:0|0:0,0:0:0:0:
420,164,83050,6,0,P|420:84|504:52,2,165,10|0|8,0:0|0:0|0:0,0:0:0:0:
316,204,84250,1,0,0:0:0:0:
236,132,84550,2,0,L|68:112,2,165,10|0|8,0:0|0:0|0:0,0:0:0:0:
224,240,85750,1,0,0:0:0:0:
164,332,86050,6,0,P|83:293|63:212,2,165,10|0|10,0:0|0:0|0:0,0:0:0:0:
248,264,87250,1,0,0:0:0:0:
352,296,87550,2,0,L|360:172,1,110,10|0,0:0|0:0,0:0:0:0:
252,156,88150,1,0,0:0:0:0:
284,52,88450,2,0,P|224:48|168:88,1,110,10|0,0:0|0:0,0:0:0:0:
108,152,89050,5,8,0:0:0:0:
228,268,89500,1,0,0:0:0:0:
348,156,89950,1,10,0:0:0:0:
348,156,90250,1,0,0:0:0:0:
348,156,90550,6,0,P|440:140|476:156,1,110,10|0,0:0|0:0,0:0:0:0:
412,248,91150,1,0,0:0:0:0:
328,316,91450,2,0,L|204:304,2,110,8|0|8,0:0|0:0|0:0,0:0:0:0:
120,300,98050,6,0,B|116:244|52:236|52:236|116:208|92:72|92:72|136:112|188:68|188:68|188:116|260:84|260:84|260:120|320:132,1,550,2|8,0:0|0:0,0:0:0:0:
224,312,100450,5,0,0:0:0:0:
312,248,100750,1,2,0:0:0:0:
408,304,101050,2,0,B|412:248|476:240|476:240|412:212|436:76|436:76|392:116|340:72|340:72|340:120|268:88|268:88|268:124|208:136,1,550,10|8,0:0|1:0,0:0:0:0:
148,212,102850,5,0,0:0:0:0:
96,116,103150,1,0,0:0:0:0:
40,212,103450,2,0,P|64:284|100:312,1,110,8|2,1:0|1:0,0:0:0:0:
200,316,104050,6,0,L|320:312,1,110,8|0,0:0|0:0,0:0:0:0:
304,204,104650,1,0,0:0:0:0:
404,252,104950,1,8,0:0:0:0:
408,144,105250,1,0,0:0:0:0:
460,48,105550,6,0,P|404:36|340:60,1,110,8|0,0:0|0:0,0:0:0:0:
260,104,106150,1,0,0:0:0:0:
176,176,106450,2,0,P|128:196|56:176,2,110,8|2|8,0:0|0:0|0:0,0:0:0:0:
260,104,107350,6,0,B|332:20|424:72|424:72|412:120|416:152|416:152|480:184|480:184,1,330,8|8,0:0|0:0,0:0:0:0:
473,180,108550,1,4,0:0:0:0:
