osu file format v10

[General]
AudioFilename: Nightcore - Poison.mp3
AudioLeadIn: 0
PreviewTime: -1
Countdown: 0
SampleSet: Soft
StackLeniency: 0.7
Mode: 0
LetterboxInBreaks: 1
SkinPreference:Default

[Editor]
DistanceSpacing: 0.8
BeatDivisor: 16
GridSize: 8

[Metadata]
Title:Nightcore - Poison
TitleUnicode:Nightcore - Poison
Artist:RedBlackBerry
ArtistUnicode:RedBlackBerry
Creator:RedBlackBerry
Version:Insane
Source:
Tags:Nightcore
BeatmapID:186697
BeatmapSetID:63097

[Difficulty]
HPDrainRate:8
CircleSize:7
OverallDifficulty:10
ApproachRate:10
SliderMultiplier:2.99999990463257
SliderTickRate:4

[Events]
//Background and Video events
0,0,"imgres.jpg"
//Break Periods
2,103171,109748
//Storyboard Layer 0 (Background)
//Storyboard Layer 1 (Fail)
//Storyboard Layer 2 (Pass)
//Storyboard Layer 3 (Foreground)
//Storyboard Sound Samples
//Background Colour Transformations
3,100,163,162,255

[TimingPoints]
0,1463.31463414634,4,2,0,100,1,0
0,-100,4,2,0,100,0,0

[Colours]
Combo1 : 255,255,255
Combo2 : 255,255,255

[HitObjects]
104,64,2642,1,0,0:0:0
144,64,3000,1,0,0:0:0
208,64,4005,1,0,0:0:0
248,64,4397,1,0,0:0:0
248,224,5642,1,0,0:0:0
248,128,6000,1,0,0:0:0
320,192,7005,1,0,0:0:0
184,192,7414,1,0,0:0:0
144,256,8386,1,0,0:0:0
232,232,9289,1,0,0:0:0
304,208,10022,1,0,0:0:0
232,160,10312,1,0,0:0:0
248,192,11403,1,0,0:0:0
176,160,11710,1,0,0:0:0
208,248,12681,1,0,0:0:0
272,184,13193,1,0,0:0:0
176,120,15375,1,0,0:0:0
176,120,15698,1,0,0:0:0
176,120,16193,1,0,0:0:0
176,120,16534,1,0,0:0:0
176,120,16909,1,0,0:0:0
176,120,17267,1,0,0:0:0
312,136,18375,1,0,0:0:0
224,224,18818,1,0,0:0:0
304,200,19142,1,0,0:0:0
216,144,19517,1,0,0:0:0
248,64,19840,1,0,0:0:0
320,120,20198,1,0,0:0:0
96,240,20880,1,0,0:0:0
96,240,21187,1,0,0:0:0
192,192,21647,1,0,0:0:0
224,88,21971,1,0,0:0:0
128,128,22994,5,0,0:0:0
208,224,23948,1,0,0:0:0
296,160,24340,1,0,0:0:0
304,232,24750,1,0,0:0:0
168,240,25125,1,0,0:0:0
128,152,25482,1,0,0:0:0
184,128,25875,1,0,0:0:0
320,120,26471,5,0,0:0:0
320,120,26659,1,0,0:0:0
320,120,26778,1,0,0:0:0
320,120,26931,1,0,0:0:0
320,120,27085,1,0,0:0:0
320,120,27238,1,0,0:0:0
320,120,27392,1,0,0:0:0
320,120,27562,1,0,0:0:0
320,120,27732,1,0,0:0:0
320,120,27886,1,0,0:0:0
320,120,28073,1,0,0:0:0
320,120,28227,1,0,0:0:0
320,120,28397,1,0,0:0:0
320,120,28568,1,0,0:0:0
320,120,28704,1,0,0:0:0
160,128,29335,5,0,0:0:0
200,216,29761,1,0,0:0:0
312,224,30119,1,0,0:0:0
344,136,30596,1,0,0:0:0
216,128,31022,1,0,0:0:0
88,64,31414,1,0,0:0:0
312,48,32011,5,0,0:0:0
408,56,32369,1,0,0:0:0
416,152,32710,1,0,0:0:0
192,240,33596,1,0,0:0:0
144,144,34772,5,0,0:0:0
352,96,35335,1,0,0:0:0
352,208,35778,1,0,0:0:0
352,208,36272,1,0,0:0:0
176,216,36732,1,0,0:0:0
176,144,37073,1,0,0:0:0
80,72,39835,5,0,0:0:0
168,64,40142,1,0,0:0:0
240,64,41164,1,0,0:0:0
280,64,41505,1,0,0:0:0
288,88,42443,1,0,0:0:0
248,96,42835,1,0,0:0:0
40,40,44011,1,0,0:0:0
80,64,44301,1,0,0:0:0
120,96,45443,1,0,0:0:0
232,96,45750,1,0,0:0:0
176,96,46789,1,0,0:0:0
184,24,47113,1,0,0:0:0
184,144,48153,1,0,0:0:0
256,96,48511,1,0,0:0:0
152,96,49619,1,0,0:0:0
192,80,49960,1,0,0:0:0
296,64,50164,1,0,0:0:0
296,64,50335,1,0,0:0:0
296,64,50488,1,0,0:0:0
296,64,50625,1,0,0:0:0
296,64,50795,1,0,0:0:0
296,64,50965,1,0,0:0:0
296,64,51119,1,0,0:0:0
296,64,51272,1,0,0:0:0
296,64,51443,1,0,0:0:0
312,184,52295,1,0,0:0:0
192,192,52670,1,0,0:0:0
184,112,53215,5,0,0:0:0
264,96,53556,1,0,0:0:0
336,176,53897,1,0,0:0:0
280,216,54221,1,0,0:0:0
104,240,55278,5,0,0:0:0
128,160,55721,1,0,0:0:0
144,96,56079,1,0,0:0:0
152,72,56454,1,0,0:0:0
176,64,56761,1,0,0:0:0
472,64,57818,5,0,0:0:0
472,64,58227,1,0,0:0:0
456,88,58568,1,0,0:0:0
456,88,58909,1,0,0:0:0
432,112,59318,1,0,0:0:0
432,112,59625,1,0,0:0:0
400,136,60000,1,0,0:0:0
400,136,60340,1,0,0:0:0
368,160,60681,1,0,0:0:0
368,160,60903,1,0,0:0:0
368,160,61465,5,0,0:0:0
368,160,61738,1,0,0:0:0
320,176,62113,1,0,0:0:0
248,168,62488,1,0,0:0:0
208,112,62829,1,0,0:0:0
240,48,63119,1,0,0:0:0
272,40,63375,1,0,0:0:0
272,40,63528,1,0,0:0:0
272,40,63647,1,0,0:0:0
272,40,63784,1,0,0:0:0
272,40,64073,1,0,0:0:0
272,40,64244,1,0,0:0:0
272,40,64397,1,0,0:0:0
272,40,64568,1,0,0:0:0
272,40,64738,1,0,0:0:0
272,40,64909,1,0,0:0:0
272,40,65062,1,0,0:0:0
272,40,65232,1,0,0:0:0
272,40,65403,1,0,0:0:0
272,40,65573,1,0,0:0:0
272,40,65744,1,0,0:0:0
272,40,66085,1,0,0:0:0
272,40,66255,1,0,0:0:0
272,40,66426,1,0,0:0:0
272,40,66579,1,0,0:0:0
272,40,66750,1,0,0:0:0
272,40,66920,1,0,0:0:0
272,40,67261,5,0,0:0:0
272,40,67448,5,0,0:0:0
272,40,67619,5,0,0:0:0
272,40,67789,5,0,0:0:0
272,40,67943,5,0,0:0:0
272,40,68113,1,0,0:0:0
272,40,68301,5,0,0:0:0
272,40,68505,5,0,0:0:0
272,40,68676,5,0,0:0:0
272,40,68863,5,0,0:0:0
272,40,69034,5,0,0:0:0
272,40,69204,1,0,0:0:0
272,40,69392,5,0,0:0:0
272,40,69545,5,0,0:0:0
272,40,69698,5,0,0:0:0
272,40,69869,5,0,0:0:0
272,40,70022,5,0,0:0:0
352,32,70465,5,0,0:0:0
344,80,70926,1,0,0:0:0
344,80,71318,1,0,0:0:0
256,96,71727,1,0,0:0:0
256,96,72102,1,0,0:0:0
160,88,72511,1,0,0:0:0
160,88,72801,1,0,0:0:0
192,160,73193,1,0,0:0:0
336,64,73653,1,0,0:0:0
464,48,73943,1,0,0:0:0
464,136,74642,1,0,0:0:0
472,24,77147,1,0,0:0:0
472,24,77437,1,0,0:0:0
456,40,77761,1,0,0:0:0
456,40,78767,1,0,0:0:0
432,64,79159,1,0,0:0:0
416,80,80232,1,0,0:0:0
304,64,82159,1,0,0:0:0
176,56,82602,1,0,0:0:0
176,136,82892,1,0,0:0:0
264,128,83267,1,0,0:0:0
264,32,83795,5,0,0:0:0
368,40,84630,1,0,0:0:0
376,136,84937,1,0,0:0:0
304,152,85892,1,0,0:0:0
256,144,86301,1,0,0:0:0
24,48,88039,5,0,0:0:0
56,48,88380,1,0,0:0:0
56,48,89590,1,0,0:0:0
88,48,89846,1,0,0:0:0
136,48,90750,1,0,0:0:0
224,48,91090,1,0,0:0:0
320,48,92301,5,0,0:0:0
304,136,92727,1,0,0:0:0
208,128,94926,1,0,0:0:0
208,128,95318,1,0,0:0:0
304,112,95761,1,0,0:0:0
304,112,96153,1,0,0:0:0
320,232,96579,1,0,0:0:0
232,224,96903,1,0,0:0:0
224,96,97926,1,0,0:0:0
320,104,98301,1,0,0:0:0
224,96,98693,1,0,0:0:0
320,104,99051,1,0,0:0:0
224,96,99375,1,0,0:0:0
320,104,99767,1,0,0:0:0
320,104,100551,1,0,0:0:0
224,96,100960,1,0,0:0:0
320,104,101420,1,0,0:0:0
224,96,101829,1,0,0:0:0
320,104,102204,1,0,0:0:0
224,96,102630,1,0,0:0:0
320,104,102971,1,0,0:0:0
80,80,110198,5,0,0:0:0
216,64,110573,1,0,0:0:0
304,80,111068,5,0,0:0:0
320,176,111852,1,0,0:0:0
192,192,112193,1,0,0:0:0
192,192,112534,1,0,0:0:0
192,192,112943,1,0,0:0:0
192,192,113267,1,0,0:0:0
192,192,113676,1,0,0:0:0
128,48,114477,1,0,0:0:0
176,48,114903,1,0,0:0:0
264,72,115312,1,0,0:0:0
272,168,115892,1,0,0:0:0
192,176,116352,1,0,0:0:0
80,96,116659,1,0,0:0:0
120,64,117221,1,0,0:0:0
304,88,118005,1,0,0:0:0
304,88,118210,1,0,0:0:0
304,88,118363,1,0,0:0:0
304,88,118517,1,0,0:0:0
304,88,118653,1,0,0:0:0
304,88,118823,1,0,0:0:0
304,88,118977,1,0,0:0:0
304,88,119130,1,0,0:0:0
304,88,119301,1,0,0:0:0
304,88,119437,1,0,0:0:0
304,88,119607,1,0,0:0:0
304,88,119761,1,0,0:0:0
304,88,119931,1,0,0:0:0
304,88,120238,1,0,0:0:0
304,144,120579,1,0,0:0:0
216,136,120988,1,0,0:0:0
160,80,121465,5,0,0:0:0
128,136,122113,5,0,0:0:0
208,200,122761,5,0,0:0:0
336,144,123289,1,0,0:0:0
336,144,123698,1,0,0:0:0
248,104,124159,1,0,0:0:0
144,160,124602,1,0,0:0:0
160,64,124943,1,0,0:0:0
288,64,125352,1,0,0:0:0
328,264,126102,1,0,0:0:0
208,240,126511,1,0,0:0:0
304,144,126818,1,0,0:0:0
152,104,127142,1,0,0:0:0
320,296,127517,1,0,0:0:0
224,192,127823,1,0,0:0:0
328,168,128164,1,0,0:0:0
280,112,128454,1,0,0:0:0
296,248,129017,1,0,0:0:0
240,200,129579,1,0,0:0:0
240,120,129988,1,0,0:0:0
176,160,130312,1,0,0:0:0
328,224,130687,1,0,0:0:0
328,128,131011,1,0,0:0:0
224,136,131437,5,0,0:0:0
224,136,131659,1,0,0:0:0
224,136,131829,1,0,0:0:0
224,136,131965,1,0,0:0:0
224,136,132136,1,0,0:0:0
224,136,132306,1,0,0:0:0
224,136,132494,1,0,0:0:0
224,136,132664,1,0,0:0:0
224,136,132835,1,0,0:0:0
224,136,133005,1,0,0:0:0
224,136,133159,1,0,0:0:0
224,136,133329,1,0,0:0:0
224,136,133500,1,0,0:0:0
224,136,133687,1,0,0:0:0
224,136,133840,1,0,0:0:0
224,136,133994,1,0,0:0:0
224,136,134318,1,0,0:0:0
288,128,134642,1,0,0:0:0
312,176,134965,1,0,0:0:0
232,224,135357,5,0,0:0:0
144,192,135869,1,0,0:0:0
104,96,136227,1,0,0:0:0
144,8,136534,1,0,0:0:0
432,112,137403,1,0,0:0:0
432,112,137573,1,0,0:0:0
432,112,137744,1,0,0:0:0
432,112,137897,1,0,0:0:0
432,112,138085,5,0,0:0:0
432,112,138272,1,0,0:0:0
432,112,138426,1,0,0:0:0
432,112,138613,1,0,0:0:0
432,112,138784,5,0,0:0:0
432,112,138988,5,0,0:0:0
432,112,139193,5,0,0:0:0
432,112,139346,5,0,0:0:0
432,112,139517,5,0,0:0:0
432,112,139704,5,0,0:0:0
432,112,139875,5,0,0:0:0
432,112,140147,5,0,0:0:0
432,112,140232,5,0,0:0:0
432,112,140403,5,0,0:0:0
432,112,140556,5,0,0:0:0
432,112,140761,5,0,0:0:0
432,112,140914,5,0,0:0:0
432,112,141085,5,0,0:0:0
432,112,141238,5,0,0:0:0
432,112,141409,5,0,0:0:0
432,112,141596,5,0,0:0:0
432,112,141750,5,0,0:0:0
432,112,141920,5,0,0:0:0
432,112,142090,5,0,0:0:0
432,112,142261,5,0,0:0:0
432,112,142448,1,0,0:0:0
432,112,142602,5,0,0:0:0
296,112,143028,1,0,0:0:0
176,56,143539,5,0,0:0:0
176,128,143914,1,0,0:0:0
176,128,143948,1,0,0:0:0
256,160,144289,1,0,0:0:0
320,176,144613,1,0,0:0:0
336,192,145840,1,0,0:0:0
488,24,147409,1,0,0:0:0
472,40,148159,1,0,0:0:0
448,64,149096,1,0,0:0:0
384,80,149471,1,0,0:0:0
272,88,149795,1,0,0:0:0
112,80,150920,5,0,0:0:0
192,192,151227,1,0,0:0:0
416,40,152335,1,0,0:0:0
200,288,152659,1,0,0:0:0
328,288,153562,1,0,0:0:0
184,120,153732,1,0,0:0:0
376,88,155215,1,0,0:0:0
256,80,155454,1,0,0:0:0
136,96,156392,5,0,0:0:0
168,120,156681,1,0,0:0:0
400,72,157772,1,0,0:0:0
104,72,158232,1,0,0:0:0
256,192,159664,1,0,0:0:0
256,192,159818,1,0,0:0:0
256,192,159988,1,0,0:0:0
256,192,160142,1,0,0:0:0
256,192,160329,1,0,0:0:0
256,192,160482,1,0,0:0:0
256,192,160636,1,0,0:0:0
256,192,160806,1,0,0:0:0
256,192,160994,1,0,0:0:0
256,192,161181,1,0,0:0:0
256,192,161352,1,0,0:0:0
256,192,161505,1,0,0:0:0
160,136,161812,1,0,0:0:0
336,256,162204,1,0,0:0:0
328,128,162562,1,0,0:0:0
208,248,162920,1,0,0:0:0
336,256,163261,1,0,0:0:0
184,120,163636,1,0,0:0:0
312,152,163960,1,0,0:0:0
176,272,164369,1,0,0:0:0
296,232,164676,1,0,0:0:0
304,152,165017,1,0,0:0:0
224,160,165357,1,0,0:0:0
224,232,165681,1,0,0:0:0
224,288,165988,1,0,0:0:0
336,200,166329,1,0,0:0:0
336,120,166636,1,0,0:0:0
264,96,167045,1,0,0:0:0
232,184,167386,1,0,0:0:0
72,88,170028,5,0,0:0:0
112,80,170420,1,0,0:0:0
160,80,170812,1,0,0:0:0
240,88,171153,1,0,0:0:0
184,224,171852,5,0,0:0:0
328,128,172551,5,0,0:0:0
328,128,172875,1,0,0:0:0
168,128,173267,1,0,0:0:0
168,128,173573,1,0,0:0:0
176,240,173965,1,0,0:0:0
176,240,174255,1,0,0:0:0
352,240,174681,1,0,0:0:0
352,240,174937,1,0,0:0:0
336,136,175346,1,0,0:0:0
336,136,175670,1,0,0:0:0
152,128,176403,5,0,0:0:0
152,128,176710,1,0,0:0:0
200,264,177119,1,0,0:0:0
200,264,177409,1,0,0:0:0
288,176,178039,1,0,0:0:0
288,176,178210,1,0,0:0:0
288,176,178363,1,0,0:0:0
288,176,178551,5,0,0:0:0
288,176,178721,1,0,0:0:0
288,176,178892,5,0,0:0:0
288,176,179062,5,0,0:0:0
288,176,179250,5,0,0:0:0
288,176,179420,5,0,0:0:0
288,176,179556,5,0,0:0:0
288,176,179710,5,0,0:0:0
288,176,179880,5,0,0:0:0
288,176,180034,5,0,0:0:0
288,176,180221,5,0,0:0:0
288,176,180357,5,0,0:0:0
216,160,180698,5,0,0:0:0
264,128,181125,1,0,0:0:0
328,128,181397,1,0,0:0:0
288,256,181926,1,0,0:0:0
208,200,182318,1,0,0:0:0
240,120,182693,1,0,0:0:0
288,64,183272,1,0,0:0:0
336,168,184943,1,0,0:0:0
192,152,185267,1,0,0:0:0
336,88,185522,1,0,0:0:0
320,248,186340,5,0,0:0:0
168,208,186630,1,0,0:0:0
208,96,186903,1,0,0:0:0
184,64,187670,1,0,0:0:0
184,64,187994,1,0,0:0:0
320,152,188318,1,0,0:0:0
192,200,188982,1,0,0:0:0
336,112,189323,1,0,0:0:0
176,112,189664,1,0,0:0:0
312,216,190380,1,0,0:0:0
136,224,190704,1,0,0:0:0
320,112,191028,1,0,0:0:0
336,208,191795,1,0,0:0:0
224,200,192085,1,0,0:0:0
320,112,192392,1,0,0:0:0
320,200,193090,1,0,0:0:0
288,288,193465,1,0,0:0:0
144,240,193755,1,0,0:0:0
168,104,194403,5,0,0:0:0
336,112,194761,1,0,0:0:0
344,168,195170,1,0,0:0:0
192,184,195903,1,0,0:0:0
320,184,196193,1,0,0:0:0
192,184,196602,1,0,0:0:0
320,184,197215,1,0,0:0:0
192,184,197642,1,0,0:0:0
288,184,197965,1,0,0:0:0
192,184,198630,1,0,0:0:0
288,184,198903,1,0,0:0:0
192,184,199244,1,0,0:0:0
288,184,199500,1,0,0:0:0
192,184,199738,1,0,0:0:0
264,184,199909,1,0,0:0:0
264,184,200096,1,0,0:0:0
224,184,200301,1,0,0:0:0
288,184,200471,1,0,0:0:0
192,184,200659,1,0,0:0:0
288,184,200846,1,0,0:0:0
264,184,201426,1,0,0:0:0
360,120,202005,1,0,0:0:0
200,152,202806,5,0,0:0:0
208,248,203113,1,0,0:0:0
320,176,203420,1,0,0:0:0
288,72,204136,1,0,0:0:0
288,72,204443,1,0,0:0:0
96,144,204750,1,0,0:0:0
208,176,205414,1,0,0:0:0
224,112,206130,5,0,0:0:0
312,128,206846,5,0,0:0:0
312,128,207443,5,0,0:0:0
160,80,208193,5,0,0:0:0
232,160,208823,5,0,0:0:0
352,112,209573,1,0,0:0:0
336,184,209897,1,0,0:0:0
232,160,210170,1,0,0:0:0
168,248,210886,1,0,0:0:0
160,112,211261,1,0,0:0:0
288,96,211585,1,0,0:0:0
384,96,212250,1,0,0:0:0
296,136,212897,1,0,0:0:0
256,128,213681,1,0,0:0:0
216,136,214022,1,0,0:0:0
216,200,214329,1,0,0:0:0
304,192,215079,1,0,0:0:0
416,104,215352,1,0,0:0:0
208,80,215676,1,0,0:0:0
208,80,216375,1,0,0:0:0
208,80,216784,1,0,0:0:0
200,216,217244,5,0,0:0:0
304,208,217806,1,0,0:0:0
336,144,218164,1,0,0:0:0
240,136,218471,1,0,0:0:0
224,240,219221,1,0,0:0:0
104,64,219494,1,0,0:0:0
328,120,219835,1,0,0:0:0
352,224,220653,1,0,0:0:0
224,224,220977,1,0,0:0:0
224,120,221250,1,0,0:0:0
288,112,221931,5,0,0:0:0
320,224,222272,1,0,0:0:0
192,224,222613,1,0,0:0:0
224,128,222903,1,0,0:0:0
352,136,223278,1,0,0:0:0
256,128,223482,1,0,0:0:0
352,136,223687,1,0,0:0:0
320,88,224215,5,0,0:0:0
368,200,224522,1,0,0:0:0
224,176,224795,1,0,0:0:0
288,104,225017,1,0,0:0:0
320,88,225204,1,0,0:0:0
320,248,225988,1,0,0:0:0
176,192,226193,1,0,0:0:0
320,16,226414,1,0,0:0:0
352,40,226602,1,0,0:0:0
376,128,227369,5,0,0:0:0
272,160,227573,1,0,0:0:0
160,144,227795,1,0,0:0:0
288,24,227948,1,0,0:0:0
352,40,228272,1,0,0:0:0
344,192,228801,1,0,0:0:0
240,208,229125,1,0,0:0:0
232,80,229517,5,0,0:0:0
344,80,230198,1,0,0:0:0
224,120,230522,1,0,0:0:0
384,112,230778,1,0,0:0:0
208,136,231664,5,0,0:0:0
208,136,231903,1,0,0:0:0
208,136,232176,1,0,0:0:0
352,80,232875,1,0,0:0:0
352,240,233215,1,0,0:0:0
224,240,233590,5,0,0:0:0
208,128,233795,1,0,0:0:0
208,128,233965,1,0,0:0:0
224,184,234153,1,0,0:0:0
280,128,234306,1,0,0:0:0
352,136,234784,1,0,0:0:0
296,96,235210,1,0,0:0:0
296,96,235636,1,0,0:0:0
296,96,236028,1,0,0:0:0
296,96,236710,1,0,0:0:0
176,96,237051,1,0,0:0:0
296,96,237443,1,0,0:0:0
128,96,237767,1,0,0:0:0
296,96,238159,1,0,0:0:0
200,96,238500,1,0,0:0:0
264,96,238823,1,0,0:0:0
200,96,239130,1,0,0:0:0
264,96,239437,1,0,0:0:0
200,96,239778,1,0,0:0:0
232,88,240119,1,0,0:0:0
248,24,240392,1,0,0:0:0
352,80,241022,5,0,0:0:0
336,112,241397,1,0,0:0:0
336,112,241704,1,0,0:0:0
184,112,242437,5,0,0:0:0
184,112,242778,1,0,0:0:0
184,112,243102,1,0,0:0:0
288,128,243886,5,0,0:0:0
288,128,244159,1,0,0:0:0
256,128,244500,1,0,0:0:0
288,128,244687,1,0,0:0:0
288,128,244892,1,0,0:0:0
288,128,245181,1,0,0:0:0
288,128,245369,1,0,0:0:0
288,128,245522,1,0,0:0:0
288,128,245693,1,0,0:0:0
288,128,245863,1,0,0:0:0
288,128,246017,1,0,0:0:0
288,128,246221,1,0,0:0:0
288,128,246392,1,0,0:0:0
288,128,246579,1,0,0:0:0
288,128,246767,1,0,0:0:0
288,128,246937,1,0,0:0:0
288,128,247125,1,0,0:0:0
288,128,247295,1,0,0:0:0
288,128,247448,1,0,0:0:0
352,104,248096,1,0,0:0:0
288,208,248352,1,0,0:0:0
160,160,248625,1,0,0:0:0
168,80,249306,5,0,0:0:0
248,88,249630,1,0,0:0:0
288,112,249920,1,0,0:0:0
256,152,250704,1,0,0:0:0
256,152,251045,1,0,0:0:0
152,152,251386,1,0,0:0:0
168,32,252136,1,0,0:0:0
272,32,252409,1,0,0:0:0
304,152,252732,1,0,0:0:0
120,168,253517,5,0,0:0:0
120,168,253789,1,0,0:0:0
120,168,254113,1,0,0:0:0
288,112,254846,1,0,0:0:0
280,184,255170,1,0,0:0:0
224,152,255477,1,0,0:0:0
280,184,255698,1,0,0:0:0
288,112,255954,1,0,0:0:0
224,152,256244,1,0,0:0:0
288,112,256960,1,0,0:0:0
224,152,257318,1,0,0:0:0
296,184,257659,1,0,0:0:0
288,112,257948,1,0,0:0:0
224,152,258289,1,0,0:0:0
296,184,258630,1,0,0:0:0
288,112,258988,1,0,0:0:0
224,152,259312,1,0,0:0:0
296,184,259670,1,0,0:0:0
288,112,260267,1,0,0:0:0
224,152,260607,1,0,0:0:0
296,184,260948,1,0,0:0:0
296,184,261170,1,0,0:0:0
288,112,261460,1,0,0:0:0
224,152,261801,1,0,0:0:0
256,128,262125,1,0,0:0:0
288,112,262517,1,0,0:0:0
208,168,262943,1,0,0:0:0
224,152,263318,1,0,0:0:0
256,128,263659,1,0,0:0:0
288,112,263982,1,0,0:0:0
256,128,264340,1,0,0:0:0
224,152,264784,1,0,0:0:0
224,152,265227,5,0,0:0:0
256,128,265585,1,0,0:0:0
304,120,265909,1,0,0:0:0
304,120,266232,1,0,0:0:0
304,120,266403,1,0,0:0:0
304,120,266573,1,0,0:0:0
304,120,266744,1,0,0:0:0
304,120,266863,1,0,0:0:0
176,48,267357,5,0,0:0:0
160,128,267664,1,0,0:0:0
216,128,268142,1,0,0:0:0
256,96,268517,1,0,0:0:0
336,96,268840,1,0,0:0:0
344,208,269181,1,0,0:0:0
208,280,269573,1,0,0:0:0
272,80,270255,1,0,0:0:0
368,80,270562,1,0,0:0:0
352,304,271431,5,0,0:0:0
184,264,271857,1,0,0:0:0
176,152,272267,1,0,0:0:0
352,152,272642,1,0,0:0:0
184,208,273153,1,0,0:0:0
200,128,273664,1,0,0:0:0
304,112,273988,1,0,0:0:0
368,152,274482,5,0,0:0:0
368,192,274823,1,0,0:0:0
352,240,275164,1,0,0:0:0
248,240,275471,1,0,0:0:0
208,224,275761,1,0,0:0:0
192,192,276085,1,0,0:0:0
288,32,276852,1,0,0:0:0
208,216,279613,1,0,0:0:0
208,216,279732,1,0,0:0:0
208,216,279869,1,0,0:0:0
208,216,280022,1,0,0:0:0
208,216,280142,1,0,0:0:0
208,216,280295,1,0,0:0:0
208,216,280431,1,0,0:0:0
208,216,280585,1,0,0:0:0
208,216,280721,1,0,0:0:0
208,216,280892,1,0,0:0:0
208,216,281011,1,0,0:0:0
208,216,281437,1,0,0:0:0
208,216,281590,1,0,0:0:0
208,216,281727,1,0,0:0:0
208,216,282000,1,0,0:0:0
208,216,282153,1,0,0:0:0
208,216,282272,1,0,0:0:0
208,216,282426,1,0,0:0:0
208,216,282562,1,0,0:0:0
208,216,282698,1,0,0:0:0
208,216,282869,1,0,0:0:0
208,216,282988,1,0,0:0:0
208,216,283142,1,0,0:0:0
208,216,283312,1,0,0:0:0
208,216,283465,1,0,0:0:0
208,216,283619,1,0,0:0:0
208,216,283738,1,0,0:0:0
208,216,284062,1,0,0:0:0
208,216,284198,1,0,0:0:0
208,216,284318,1,0,0:0:0
208,216,284454,1,0,0:0:0
208,216,284590,1,0,0:0:0
208,216,284727,1,0,0:0:0
240,208,285034,1,0,0:0:0
224,136,285392,1,0,0:0:0
224,136,285681,1,0,0:0:0
224,136,286039,1,0,0:0:0
224,136,286397,1,0,0:0:0
224,136,286721,1,0,0:0:0
224,136,287079,1,0,0:0:0
224,136,287437,1,0,0:0:0
224,136,287778,1,0,0:0:0
224,136,288136,1,0,0:0:0
224,136,288460,1,0,0:0:0
224,136,289125,1,0,0:0:0
224,136,289448,1,0,0:0:0
224,136,289772,1,0,0:0:0
224,136,290250,1,0,0:0:0
408,64,292125,5,0,0:0:0
104,104,292363,1,0,0:0:0
352,144,292551,1,0,0:0:0
224,104,293284,1,0,0:0:0
344,96,293488,1,0,0:0:0
168,96,293727,1,0,0:0:0
344,96,293897,1,0,0:0:0
248,120,294477,1,0,0:0:0
216,112,294903,1,0,0:0:0
376,80,295107,1,0,0:0:0
192,144,295943,1,0,0:0:0
384,144,296130,1,0,0:0:0
144,144,296335,1,0,0:0:0
352,128,296522,1,0,0:0:0
336,264,297136,1,0,0:0:0
144,264,297494,1,0,0:0:0
176,120,297954,1,0,0:0:0
176,120,298721,1,0,0:0:0
304,96,299062,1,0,0:0:0
216,96,299386,1,0,0:0:0
360,176,300102,5,0,0:0:0
352,232,300409,1,0,0:0:0
192,232,300767,1,0,0:0:0
192,88,301517,1,0,0:0:0
352,72,301806,1,0,0:0:0
344,96,302130,1,0,0:0:0
192,88,302880,1,0,0:0:0
176,128,303187,1,0,0:0:0
192,88,303511,1,0,0:0:0
432,144,304244,5,0,0:0:0
384,112,304585,1,0,0:0:0
384,112,304909,1,0,0:0:0
128,96,305727,5,0,0:0:0
128,96,306017,1,0,0:0:0
128,96,306289,1,0,0:0:0
392,240,306971,5,0,0:0:0
320,96,307721,5,0,0:0:0
208,104,308318,1,0,0:0:0
208,232,308659,1,0,0:0:0
376,256,308982,1,0,0:0:0
336,96,309630,5,0,0:0:0
216,96,309954,1,0,0:0:0
224,240,310329,1,0,0:0:0
352,136,311079,5,0,0:0:0
352,136,311420,1,0,0:0:0
352,136,311744,1,0,0:0:0
352,136,312068,1,0,0:0:0
352,136,312306,1,0,0:0:0
352,136,312494,1,0,0:0:0
352,136,312954,1,0,0:0:0
352,136,313107,1,0,0:0:0
352,136,313244,1,0,0:0:0
352,136,313363,1,0,0:0:0
352,136,313482,1,0,0:0:0
352,136,313653,1,0,0:0:0
352,136,313789,1,0,0:0:0
352,136,313926,1,0,0:0:0
208,112,315613,1,0,0:0:0
