osu file format v5

[General]
AudioFilename: BAKAYA RONEREDZONEMAD.mp3
AudioLeadIn: 0
PreviewTime: -1
Countdown: 0
SampleSet: Normal
StackLeniency: 0.7
Mode: 0
LetterboxInBreaks: 1
EditorBookmarks: 103118
EditorDistanceSpacing: 1

[Metadata]
Title:Bakaya Rone
Artist:Red Zone
Creator:Gladi
Version:Light
Source:Death Note
Tags:

[Difficulty]
HPDrainRate:1
CircleSize:4
OverallDifficulty:8
SliderMultiplier:1.7
SliderTickRate:1

[Events]
//Background and Video events
0,0,"Demotivational__The_Evil_Laugh_by_Nenja_Black.jpg"
Video,0,"BAKAYA RONEREDZONEMAD.avi"
//Break Periods
2,18759,20809
2,24668,26627
2,52286,63021
//Storyboard Layer 0 (Background)
//Storyboard Layer 1 (Fail)
//Storyboard Layer 2 (Pass)
//Storyboard Layer 3 (Foreground)
//Storyboard Sound Samples
//Background Colour Transformations
3,100,163,162,255

[TimingPoints]
7014,363.636363636364,4,1,0,50,1,0
8042,-50,4,1,0,50,0,0
8405,-100,4,1,0,50,0,0
13860,-50,4,1,0,50,0,0
14195,-100,4,1,0,50,0,0
41741,-50,4,1,0,50,0,0
45014,-100,4,1,0,50,0,0
50241,1846.15384615385,4,1,0,50,1,0
52317,363.636363636364,4,1,0,50,1,0
66771,363.636363636364,4,1,0,50,1,0
72407,-50,4,1,0,50,0,0
73771,-100,4,1,0,50,0,0
83816,-50,4,1,0,50,0,0
84134,-100,4,1,0,50,0,0
86861,1846.15384615385,4,1,0,50,1,0
88937,363.636363636364,4,1,0,50,1,0
108027,-100,4,1,0,0,0,0

[HitObjects]
160,152,5542,1,4
176,144,5633,1,0
192,136,5724,1,0
208,128,5814,1,0
224,120,5905,1,4
216,224,6087,1,4
232,232,6178,1,0
328,200,6360,1,0
320,176,6451,1,4
416,208,6633,1,4
408,224,6724,1,0
400,240,6814,1,0
392,256,6905,1,0
384,272,6996,6,0,B|400:328,2,42.5,4|0|0
312,320,7269,2,0,B|264:312,2,42.5,0|0|0
304,232,7542,2,0,B|336:272,2,42.5,4|0|0
216,248,7814,2,0,B|176:304,2,42.5
144,296,8087,2,6,B|104:208,2,85
128,112,8451,6,0,B|112:56,2,42.5,4|0|0
200,64,8724,2,0,B|248:72,2,42.5,0|0|0
208,152,8997,2,0,B|176:112,2,42.5,4|0|0
296,136,9269,2,0,B|336:80,2,42.5
368,88,9542,2,6,B|408:176,2,85
384,72,9996,5,0
400,56,10087,1,0
472,104,10178,2,0,B|496:64,2,42.5
464,192,10451,1,4
472,208,10542,1,0
480,224,10633,1,0
408,264,10724,2,0,B|360:240,2,42.5
344,320,10996,1,6
320,312,11087,1,6
296,304,11178,1,6
208,312,11360,5,0
160,240,11542,1,0
208,168,11724,1,0
152,104,11905,1,2
208,168,12087,5,2
352,88,12269,1,2
464,216,12451,2,6,B|480:168,2,42.5
384,192,12814,5,4
368,200,12905,1,0
352,208,12996,1,0
328,288,13087,2,0,B|272:304,2,42.5
272,224,13360,1,4
280,200,13451,1,0
288,176,13542,1,0
208,152,13633,2,0,B|216:96,2,42.5
136,192,13905,2,0,B|40:136,2,85,6|0|6
384,192,14286,5,4
368,200,14377,1,0
352,208,14468,1,0
328,288,14559,2,0,B|272:304,2,42.5
272,224,14832,1,4
280,200,14923,1,0
288,176,15014,1,0
208,152,15105,2,0,B|216:96,2,42.5
136,192,15377,2,0,B|40:136,2,85,6|0|6
376,112,16286,6,2,B|432:192|368:280,1,170
296,240,16832,1,2
288,224,16923,1,0
280,208,17014,1,0
272,192,17104,1,0
264,176,17195,5,2
72,72,17559,1,2
48,240,17741,1,2
128,272,17832,1,6
408,136,18195,1,2
440,216,18286,1,2
312,328,18468,1,6
336,248,18559,1,6
152,208,21559,6,0,B|96:224,2,42.5,4|0|0
224,256,21832,2,0,B|192:200,2,42.5
296,208,22104,2,0,B|344:216,2,42.5,4|0|0
248,136,22377,2,0,B|240:80,2,42.5
336,128,22650,2,6,B|312:176,2,42.5
152,176,23014,6,0,B|96:160,2,42.5,4|0|0
224,128,23287,2,0,B|192:184,2,42.5
296,176,23559,2,0,B|344:168,2,42.5,4|0|0
248,248,23832,2,0,B|240:304,2,42.5
336,256,24105,2,6,B|312:208,4,42.5
160,144,27377,5,4
176,136,27468,1,0
192,128,27559,1,0
272,136,27650,2,0,B|288:88,2,42.5
224,208,27923,2,0,B|176:224,2,42.5,4|0|0
304,224,28195,1,0
320,216,28286,1,0
336,208,28377,1,0
352,200,28468,1,6
368,192,28559,1,6
384,184,28650,1,6
320,24,28832,5,0
80,264,29195,1,0
232,200,29377,2,0,B|256:152,10,42.5,0|0|0|0|0|0|0|0|0|0|6
352,320,30468,5,2
448,184,30650,1,2
376,24,30832,1,2
208,16,31014,1,2
208,16,31104,1,2
112,160,31286,1,6
176,320,31468,6,2,B|224:296,3,42.5
248,224,31923,1,0
248,224,32014,1,0
248,224,32104,1,2
328,208,32286,1,2
304,128,32468,1,0
304,128,32559,1,0
304,128,32650,1,0
384,96,32832,2,6,B|448:176|392:280,1,170
336,304,33377,5,0
312,312,33468,1,0
288,320,33559,1,0
200,304,33741,1,2
192,280,33832,1,0
184,256,33923,1,0
208,176,34104,1,0
144,112,34286,2,2,B|216:56,1,85,6|2
288,96,34650,2,2,B|408:144,1,127.5
440,112,35014,2,2,B|480:200|400:272,2,170,6|2|6
176,320,36104,5,2
344,320,36286,1,2
448,184,36468,1,2
376,24,36650,1,2
208,16,36832,1,2
208,16,36922,1,2
112,160,37104,1,6
176,320,37286,6,2,B|224:296,3,42.5
224,216,37741,1,0
224,216,37832,1,0
224,216,37923,1,0
304,232,38104,1,2
368,176,38286,1,2
352,160,38377,1,2
336,144,38468,1,2
320,128,38559,1,2
304,112,38650,1,8
136,72,39014,5,4
104,152,39195,1,0
104,152,39286,1,0
104,152,39377,1,10
136,232,39559,1,2
208,280,39741,1,2
224,288,39832,1,2
240,296,39923,1,2
256,304,40014,1,2
272,312,40104,1,10
256,192,40468,12,0,41468
144,184,41923,6,0,B|296:64,1,170,4|0
360,96,42286,1,8
320,168,42468,2,0,B|400:248,1,85,4|0
304,264,42741,1,8
232,216,42923,2,4,B|176:288,1,85,4|0
96,256,43195,1,8
56,176,43377,5,6
56,176,43468,1,2
56,176,43559,1,2
96,96,43741,1,2
176,64,43923,1,2
176,64,44014,1,2
176,64,44104,1,2
176,64,44195,1,2
176,64,44286,2,2,B|168:160|280:224|400:176|384:40,1,340,2|2
256,192,44832,12,0,45923
128,112,46286,6,0,B|112:56,2,42.5,4|0|0
200,64,46559,2,0,B|248:72,2,42.5,0|0|0
208,152,46832,2,0,B|176:112,2,42.5,4|0|0
296,136,47104,2,0,B|336:80,2,42.5
368,88,47377,2,6,B|432:136,2,42.5
392,256,47741,5,0
312,296,47923,1,0
232,272,48104,1,0
232,272,48195,1,2
112,304,48468,1,2
104,280,48559,1,2
96,256,48650,1,2
88,232,48741,1,2
80,208,48832,6,2,B|80:120|192:176|176:48,1,170,6|0
344,64,49377,1,0
464,184,49559,1,0
368,328,49741,1,4
280,344,49923,5,2
200,320,50104,1,2
136,256,50286,1,2
120,168,50471,2,2,B|280:136,1,148.75,2|6
256,192,63771,12,0,65044
144,160,66498,6,2,B|96:120,3,42.5,2|2|2|6
168,72,66952,1,2
248,40,67134,1,2
328,56,67316,1,2
384,120,67498,1,2
392,136,67589,1,2
400,152,67680,1,2
408,168,67771,1,6
376,288,68043,6,2,B|400:328,2,42.5,2|2|6
352,280,68316,1,2
328,272,68407,1,0
248,296,68589,1,0
248,296,68680,1,0
248,296,68771,1,0
200,224,68952,2,6,B|240:192,3,42.5
312,168,69407,5,0
328,160,69498,1,0
344,152,69589,1,0
360,144,69680,1,6
376,136,69771,1,2
392,128,69861,1,2
328,64,70043,2,2,B|368:32,2,42.5
248,40,70407,1,2
248,40,70498,1,2
248,40,70589,1,2
248,40,70680,1,2
256,192,70952,12,0,72225
192,104,72589,6,0,B|368:152,1,170,4|8
296,208,72952,2,0,B|128:160,1,170,0|8
152,240,73316,2,2,B|256:272,3,85,2|2|10|2
360,288,73861,5,0
416,224,74043,1,6
400,208,74134,1,2
384,192,74225,1,2
416,112,74407,2,2,B|472:80,2,42.5,2|2|2
336,80,74771,1,6
312,88,74861,1,2
288,96,74952,1,2
264,104,75043,1,2
160,240,75225,5,0
160,240,75316,1,0
160,240,75407,2,2,B|112:264,3,42.5
72,192,75861,1,6
72,192,75952,1,2
72,192,76043,1,2
136,136,76225,5,0
224,136,76407,2,0,B|320:152|344:256,1,170,0|8
341,244,76861,1,0
341,244,76952,1,0
432,104,77316,1,2
256,192,77498,12,0,78043
352,320,78407,5,2
448,184,78589,1,2
376,24,78771,1,2
208,16,78953,1,2
208,16,79043,1,2
112,160,79225,1,6
184,312,79407,1,2
184,312,79498,1,2
352,320,79680,1,6
256,192,80043,12,0,80952
168,240,81316,5,0
248,208,81498,1,0
224,128,81680,1,0
288,72,81861,1,4
304,80,81952,1,0
320,88,82043,1,0
408,88,82225,1,0
440,168,82407,1,2
424,184,82498,1,2
408,200,82589,1,2
384,280,82771,6,0,B|400:336,2,42.5,4|0|0
312,328,83044,2,0,B|264:320,2,42.5,0|0|0
304,240,83317,2,0,B|336:280,2,42.5,4|0|0
216,256,83589,2,0,B|176:312,2,42.5
144,304,83862,2,6,B|104:216,2,85
184,136,84225,5,0
256,96,84407,1,0
336,120,84589,2,0,B|424:96,1,85
418,97,84861,1,0
408,184,85043,2,0,B|456:264,1,85
451,256,85316,1,0
368,256,85498,1,0
208,320,85680,6,2,B|112:264,1,85
134,277,85952,1,0
134,277,86043,1,0
176,200,86225,1,0
144,120,86407,2,0,B|248:96|272:208,1,170
280,280,86952,2,2,B|440:248,1,148.75,2|6
128,112,89300,5,4
296,88,89664,1,2
400,160,89937,1,2
256,192,90209,12,0,91118
168,152,91482,6,2,B|112:168,2,42.5
232,208,91755,2,0,B|296:208,2,42.5
264,128,92027,1,2
264,128,92118,1,2
264,128,92209,1,2
344,160,92300,2,0,B|320:200,2,42.5
416,200,92573,2,2,B|392:152,2,42.5
360,264,92846,5,0
360,264,92937,1,0
360,264,93027,1,0
280,288,93118,2,2,B|296:248,2,42.5
192,280,93391,1,0
176,264,93482,1,0
160,248,93573,1,0
160,160,93664,6,2,B|184:208,2,42.5
248,160,93937,2,0,B|192:128,2,42.5
272,80,94209,1,2
272,80,94300,1,2
272,80,94391,1,2
344,120,94482,2,0,B|328:64,2,42.5
320,200,94755,2,2,B|304:160,2,42.5
400,216,95027,6,0,B|360:176,2,42.5
344,280,95300,1,2
320,272,95391,1,2
296,264,95482,1,2
240,200,95573,2,0,B|264:248,2,42.5
160,224,95846,1,2
160,224,95937,1,2
160,224,96027,5,2
96,160,96118,2,0,B|152:176,2,42.5
160,104,96391,1,2
176,112,96482,1,2
192,120,96573,1,2
272,88,96664,2,0,B|240:128,2,42.5
328,144,96937,2,2,B|320:64,2,42.5,0|0|0
432,72,97300,6,2,B|480:152|408:256,1,170,6|2
360,288,97846,1,2
280,304,98027,2,2,B|168:288|152:168,1,170,6|2
158,200,98573,1,2
256,192,98846,12,0,102391
144,128,103118,5,4
144,256,103391,1,0
144,128,103664,1,0
304,192,104027,1,2
216,192,104209,1,2
304,192,104391,1,2
368,128,104573,5,4
368,256,104846,1,0
368,128,105118,1,0
216,192,105482,1,2
304,192,105664,1,2
216,192,105846,1,2
256,192,106027,12,2,108209
