osu file format v8

[General]
AudioFilename: Red Hot Chili Peppers - Snow (Hey Oh).mp3
AudioLeadIn: 0
PreviewTime: -1
Countdown: 1
SampleSet: Normal
StackLeniency: 0.2
Mode: 0
LetterboxInBreaks: 1

[Editor]
Bookmarks: 9503
DistanceSpacing: 1
BeatDivisor: 2
GridSize: 16

[Metadata]
Title:Snow (Hey Oh)
Artist:Red Hot Chili Peppers
Creator:mago104
Version:Normal
Source:
Tags:

[Difficulty]
HPDrainRate:6
CircleSize:6
OverallDifficulty:6
ApproachRate:7
SliderMultiplier:1.4
SliderTickRate:1

[Events]
//Background and Video events
0,0,"Red+Hot+Chili+Peppers+Red+Snow.jpg"
//Break Periods
2,52193,54850
2,103588,106000
//Storyboard Layer 0 (Background)
//Storyboard Layer 1 (Fail)
//Storyboard Layer 2 (Pass)
//Storyboard Layer 3 (Foreground)
//Storyboard Sound Samples
//Background Colour Transformations
3,100,255,255,255

[TimingPoints]
8925,578.0980181801,4,1,0,100,1,0
28291,-100,4,1,1,100,0,0
28869,-100,4,1,0,100,0,0
35228,-100,4,1,1,100,0,0
35806,-100,4,1,0,100,0,0
70203,-100,4,1,1,100,0,0
72515,-100,4,1,0,100,0,0
92720,592.698018180098,4,1,0,100,1,1
104573,581.998018180095,4,1,0,100,1,0
106900,562.898018180098,4,1,0,100,1,0
111590,-100,4,1,1,100,0,0
112716,-100,4,1,0,100,0,0
129697,-100,4,1,1,100,0,0
130260,-100,4,1,1,100,0,0
133919,556.098018180096,4,1,0,100,1,0
142816,578.598018180098,4,1,0,100,1,0

[Colours]
Combo1 : 99,46,188
Combo2 : 35,35,35
Combo3 : 184,184,254
Combo4 : 255,255,255

[HitObjects]
256,48,9503,6,0,C|96:48,1,140,0|8
48,176,10659,1,0
112,176,10948,1,0
80,240,11237,1,8
208,304,11815,6,0,C|352:304,1,140,0|8
432,192,12971,1,0
432,128,13260,1,0
432,64,13549,1,8
368,64,13838,1,0
320,112,14127,6,0,C|176:112,1,140,0|8
80,208,15284,1,0
96,272,15573,1,0
160,272,15862,1,8
256,160,16440,6,0,C|384:96,1,140,0|8
416,240,17596,1,0
352,272,17885,1,0
352,208,18174,1,8
224,272,18752,5,0
96,224,19330,1,8
128,96,19908,2,0,C|208:96,2,70,0|0|8
96,224,21065,5,0
208,304,21643,1,8
208,160,22221,1,0
256,112,22510,1,0
304,160,22799,1,8
352,112,23088,1,0
352,112,23377,5,0
352,256,23955,1,8
256,352,24533,1,0
192,352,24822,1,0
160,288,25111,1,8
288,240,25689,5,0
240,112,26267,1,8
112,128,26846,2,0,C|48:64,2,70,0|0|8
96,272,28002,6,0,B|208:320|256:192|400:272,1,280
448,144,29736,1,8
352,48,30314,6,0,B|272:64,1,70
304,128,30892,2,0,B|240:160,1,70,8|0
272,224,31470,2,0,B|208:288,1,70
272,320,32048,1,8
272,320,32337,1,0
128,320,32916,5,0
128,256,33205,1,8
128,192,33494,1,0
128,256,33783,1,8
272,272,34361,6,8,L|432:288|432:288|416:192|208:64|208:176,1,560
256,192,37251,12,4,39564
256,192,40142,5,0
256,192,40431,1,0
256,192,40720,1,8
256,192,41009,1,0
256,192,41298,1,8
256,192,41587,12,8,43610
256,128,45634,5,8
224,192,45923,1,0
288,192,46212,1,8
256,192,46501,12,8,48235
257,190,49102,5,0
203,235,49391,1,8
241,290,49680,1,0
310,289,49969,1,0
313,219,50259,1,8
256,192,50548,12,0,51993
32,160,55750,5,0
80,112,56039,1,0
128,160,56329,1,8
80,208,56618,1,0
128,256,56907,1,0
176,208,57196,1,0
224,256,57485,1,8
176,304,57774,1,0
224,352,58063,5,0
288,352,58352,1,0
336,304,58641,1,8
288,256,58930,1,0
336,208,59219,1,0
384,256,59508,1,0
432,208,59797,1,8
384,160,60086,1,4
256,96,60664,5,0
192,112,60953,1,0
240,160,61242,1,0
176,176,61531,1,8
224,224,61820,1,0
160,240,62110,1,0
208,288,62399,1,0
144,304,62688,1,8
192,352,62977,5,0
256,352,63266,1,0
272,288,63555,1,0
336,304,63844,1,8
352,240,64133,1,0
288,224,64422,1,8
256,32,65000,1,0
192,48,65289,5,0
160,112,65578,1,8
192,176,65867,1,0
256,192,66156,1,0
320,176,66445,1,0
336,112,66734,1,8
320,48,67023,1,0
256,32,67312,5,0
192,48,67601,1,0
160,112,67890,1,8
192,176,68180,1,0
256,192,68469,1,0
320,176,68758,1,0
352,112,69047,1,4
256,336,70203,6,2,L|256:48,2,280
400,368,73093,1,2
256,336,73671,1,12
112,368,74250,5,2
32,256,74828,1,8
112,144,75406,1,2
256,144,75984,1,8
400,144,76562,1,2
480,256,77140,5,8
432,304,77429,1,0
384,256,77718,1,8
336,304,78007,1,0
288,256,78296,1,8
304,192,78585,1,0
272,128,78874,5,0
208,160,79163,1,0
224,240,79452,1,8
160,288,79742,5,0
128,224,80031,1,8
80,288,80320,1,0
48,208,80609,1,8
256,192,81187,12,0,82921
256,192,83499,12,0,85233
64,208,86390,6,0,B|224:208,2,140
240,320,88124,5,0
336,320,88702,1,8
336,192,89280,1,0
336,32,89858,1,8
256,32,90436,1,0
256,32,91014,1,8
112,32,91593,1,0
112,96,91882,1,8
112,160,92171,1,8
400,192,92720,5,0
400,336,93312,1,8
256,336,93905,1,0
112,336,94498,1,8
112,192,95090,1,0
256,192,95683,1,8
320,192,95979,1,0
320,256,96276,2,2,L|480:256,1,140,0|0
320,144,97461,6,2,B|320:128|288:80|368:48|288:0,4,140,0|4|0|4|0
176,112,101017,5,0
128,160,101314,1,0
176,208,101610,1,8
128,256,101906,1,0
176,304,102203,2,0,L|320:304,2,140,0|0|4
144,192,106900,6,0,B|304:192,3,140,0|8|8|0
320,304,109151,6,0,B|160:288,3,140,0|8|8|0
64,256,111403,5,0
64,192,111684,2,0,L|64:160|96:160|96:128|128:128|128:96|160:96|160:64,1,210
304,80,113091,1,0
336,144,113373,1,8
368,80,113654,1,0
464,192,114217,1,0
368,304,114780,2,0,L|224:304,1,140
192,240,115624,1,8
160,304,115906,5,0
64,192,116469,1,0
160,80,117032,1,8
256,192,117595,1,2
320,192,117876,1,10
320,112,118157,6,0,B|224:112,2,70
320,192,119002,1,0
320,272,119283,1,8
320,272,119565,1,8
256,272,119846,2,8,B|96:272,1,140
64,192,120972,1,0
176,112,121535,5,4
176,256,122098,2,8,B|320:256,1,140
320,112,123224,1,8
464,112,123786,1,2
464,256,124349,1,0
432,320,124631,1,8
400,256,124912,5,4
256,256,125475,1,2
112,256,126038,1,0
64,208,126319,1,0
112,160,126601,1,8
112,96,126882,1,2
192,96,127164,6,0,B|368:96,3,140,0|8|8|0
368,256,129415,2,0,B|32:256,1,280
135,93,131104,1,0
256,176,131667,1,8
208,224,131948,1,0
256,272,132230,1,8
320,256,132511,1,0
368,208,132793,1,0
368,144,133074,1,0
320,96,133356,1,8
256,72,133637,5,0
184,72,133919,1,0
120,104,134197,1,0
88,168,134475,1,8
96,240,134753,1,0
144,288,135031,1,8
208,320,135309,6,2,B|368:320,3,140,10|10|10|10
400,272,137255,5,8
448,224,137533,1,0
400,176,137811,1,8
352,128,138089,1,0
288,128,138367,6,0,C|128:128,1,140,0|8
96,176,139201,1,0
144,240,139479,2,0,L|320:240,1,140
336,288,140314,1,0
384,240,140592,2,0,L|384:160,1,70,12|4
256,192,141148,12,4,142260
