osu file format v8

[General]
AudioFilename: Red Hot Chili Peppers - Snow (Hey Oh).mp3
AudioLeadIn: 0
PreviewTime: -1
Countdown: 1
SampleSet: Normal
StackLeniency: 0.2
Mode: 0
LetterboxInBreaks: 1

[Editor]
Bookmarks: 9503
DistanceSpacing: 1
BeatDivisor: 2
GridSize: 16

[Metadata]
Title:Snow (Hey Oh)
Artist:Red Hot Chili Peppers
Creator:mago104
Version:Hard
Source:
Tags:

[Difficulty]
HPDrainRate:7
CircleSize:5
OverallDifficulty:7
ApproachRate:8
SliderMultiplier:1.6
SliderTickRate:1

[Events]
//Background and Video events
0,0,"Red+Hot+Chili+Peppers+Red+Snow.jpg"
//Break Periods
2,37451,44884
2,79941,91970
2,104773,106150
2,131586,133169
//Storyboard Layer 0 (Background)
//Storyboard Layer 1 (Fail)
//Storyboard Layer 2 (Pass)
//Storyboard Layer 3 (Foreground)
//Storyboard Sound Samples
//Background Colour Transformations
3,100,255,255,255

[TimingPoints]
8925,578.0980181801,4,1,0,100,1,0
31759,-200,4,1,1,100,0,0
34939,-100,4,1,0,100,0,0
36384,-100,4,1,1,100,0,0
36962,-100,4,1,0,100,0,0
49102,-100,4,1,1,100,0,0
52571,-100,4,1,0,100,0,0
71648,-200,4,1,0,100,0,0
77140,-200,4,1,1,100,0,0
79163,-100,4,1,0,100,0,0
92720,592.698018180098,4,1,0,100,1,1
104573,581.998018180095,4,1,0,100,1,0
106900,562.898018180098,4,1,0,100,1,0
121535,-50,4,1,0,100,0,0
131386,-100,4,1,0,100,0,0
133919,556.098018180096,4,1,0,100,1,0
142816,578.598018180098,4,1,0,100,1,0
142816,-100,4,1,0,100,0,1

[Colours]
Combo1 : 99,46,188
Combo2 : 35,35,35
Combo3 : 184,184,254
Combo4 : 255,255,255

[HitObjects]
112,256,9503,2,0,B|224:256|224:160,1,160,0|8
144,192,10370,1,0
144,112,10659,2,0,B|64:112|48:240,1,160,0|8
192,304,11815,6,0,B|320:304|304:224,1,160,0|8
304,176,12682,1,0
304,112,12971,1,0
240,112,13260,2,0,B|224:112|176:112|176:208,1,80,0|8
160,208,13838,1,0
128,272,14127,1,0
272,272,14705,6,0,B|400:288|368:192,1,160,8|0
352,80,15862,2,0,B|224:96|272:208,1,160,8|0
208,288,17018,6,0,B|128:288|80:336|0:272,2,160,8|0|8
368,304,18752,5,0
416,240,19041,1,0
384,160,19330,1,8
416,240,19619,1,0
464,176,19908,1,0
416,240,20197,1,0
336,240,20486,5,8
256,240,20776,1,0
176,240,21065,1,0
176,160,21354,1,0
176,240,21643,1,8
176,160,21932,1,0
256,160,22221,1,0
336,160,22510,6,0,B|272:96|384:64|336:16,2,160,0|8|0
336,240,23955,1,0
256,240,24244,1,0
256,320,24533,1,8
336,320,24822,1,0
416,320,25111,1,0
416,240,25400,1,8
336,240,25689,5,0
256,240,25978,1,0
176,240,26267,2,0,B|112:192|240:160|160:96,2,160,8|0|8
176,320,27713,5,0
256,320,28002,1,0
336,320,28291,1,0
400,272,28580,2,0,B|448:208|256:224|496:160|256:160|416:128|304:160,1,160,8|0
256,160,29447,1,0
176,160,29736,1,8
96,160,30025,5,0
256,336,30314,5,0
256,48,30603,5,0
416,160,30892,5,8
416,240,31181,5,0
416,320,31470,1,0
336,320,32048,6,8,C|304:256|256:304|208:240,2,200,4|4|12
416,320,35228,5,0
416,240,35517,1,0
416,160,35806,1,0
336,160,36095,6,8,C|272:80|256:192|176:96,1,320,8|4
112,176,45634,5,8
144,176,45778,1,0
176,176,45923,1,0
208,176,46067,1,0
256,176,46212,1,0
288,176,46356,1,0
320,176,46501,1,8
352,176,46645,1,0
384,176,46790,1,0
384,208,46934,1,0
384,256,47079,1,0
384,256,47223,1,0
352,256,47368,1,0
320,256,47513,1,0
320,256,47657,1,0
288,256,47802,1,8
176,256,48235,6,2,B|160:160|256:128|160:80|112:96|128:64,1,160
48,112,49102,2,0,L|80:160|32:176|64:208|80:208|48:240|80:256|48:272|80:288,3,320
160,304,52860,1,8
208,240,53438,1,0
288,240,54016,5,8
288,320,54594,1,0
224,256,54883,5,8
160,208,55172,1,8
240,176,55750,5,0
320,176,56039,1,0
320,256,56329,1,8
400,256,56618,1,0
400,336,56907,1,0
480,336,57196,1,0
480,256,57485,1,8
480,176,57774,5,0
400,176,58063,1,0
400,96,58352,1,0
400,176,58641,1,8
352,112,58930,1,0
400,176,59219,1,0
320,144,59508,1,0
400,176,59797,1,8
320,208,60086,1,0
400,176,60375,5,0
400,256,60664,1,0
320,256,60953,1,8
240,256,61242,1,0
240,176,61531,1,0
320,176,61820,1,0
400,176,62110,2,0,B|400:96,1,80,8|0
320,96,62688,5,0
256,64,62977,1,0
192,112,63266,1,8
240,176,63555,1,0
240,256,63844,1,0
160,256,64133,1,0
240,256,64422,1,8
400,336,65000,6,0,C|304:336,1,80,0|8
240,336,65578,2,0,C|240:240,1,80,0|8
160,256,66156,2,0,C|160:176,1,80,0|8
240,176,66734,2,0,C|240:256,1,80,0|8
320,272,67312,6,0,C|320:96,1,160,0|8
400,144,68180,2,0,C|400:240,1,80,0|8
400,304,68758,6,2,C|400:368,2,53.3333333333333
208,288,69914,5,0
208,208,70203,1,0
208,128,70492,1,0
288,128,70781,1,8
288,208,71070,5,0
288,288,71359,1,0
368,288,71648,1,8
256,192,71937,12,0,73382
128,288,73671,6,2,C|128:208,1,80
208,208,74827,6,2,C|208:304,1,80
288,304,75984,6,2,C|288:208,1,80
368,208,77140,6,2,C|368:352,3,120
128,144,92720,6,2,B|192:144|208:144|192:192|128:208|176:256|240:224,1,160
208,304,93609,5,8
320,304,94201,1,0
320,224,94498,5,0
320,144,94794,1,8
256,192,95090,12,0,95683
208,48,95831,5,0
176,48,95979,1,0
176,96,96128,1,0
144,96,96276,1,8
112,96,96424,1,0
80,96,96572,1,0
48,96,96720,1,0
16,96,96868,1,4
112,224,97461,5,8
192,224,97659,1,0
272,224,97856,1,4
352,224,98054,1,0
432,224,98251,1,8
432,304,98449,1,0
352,304,98646,1,4
272,304,98844,1,0
176,304,99042,1,4
80,304,99239,1,0
80,192,99437,1,4
192,192,99634,1,4
304,192,99832,1,4
256,192,101017,12,8,104573
112,192,106900,5,0
112,192,107181,1,0
112,192,107462,1,0
112,192,107744,1,8
192,192,108025,5,0
192,192,108307,1,0
192,192,108588,1,0
192,192,108870,1,8
272,192,109151,5,0
272,192,109433,1,0
272,192,109714,1,0
272,192,109995,1,8
352,192,110277,5,0
352,192,110558,1,0
352,192,110840,1,0
352,192,111121,1,8
432,192,111403,5,0
432,192,111684,1,0
432,192,111966,1,0
432,192,112247,1,8
432,272,112528,5,0
432,272,112810,1,0
432,272,113091,1,0
432,272,113373,1,8
352,272,113654,5,0
352,272,113936,1,0
352,272,114217,1,0
352,272,114499,1,8
272,272,114780,5,0
272,272,115062,1,0
272,272,115343,1,0
272,272,115624,1,8
192,272,115906,5,0
272,272,116187,1,0
192,272,116469,1,0
112,272,116750,1,8
192,272,117032,5,0
112,272,117313,1,0
32,272,117595,1,0
32,192,117876,1,8
112,192,118157,5,0
192,192,118439,1,0
112,192,118720,1,0
192,192,119002,1,8
192,112,119283,5,0
272,112,119565,1,0
192,112,119846,1,0
272,112,120128,1,8
272,192,120409,1,0
352,192,120691,1,0
352,112,120972,1,0
352,192,121253,1,8
352,272,121535,6,8,C|32:272,1,320
32,352,122379,6,8,C|368:352,1,320
448,352,123224,6,8,C|448:32,1,320
288,32,124068,6,8,C|64:32|48:160,1,320
48,272,124912,6,8,C|176:128|336:368|480:96,1,800
336,32,126601,6,8,C|144:304|416:272|64:48,1,960
48,224,128571,6,0,B|160:80|240:288|464:208|496:144,3,480
491,150,131386,1,0
96,160,133919,5,8
176,160,134197,1,0
176,240,134475,1,0
256,240,134753,1,0
256,320,135031,5,8
336,320,135309,1,0
336,240,135587,1,0
336,160,135865,1,0
256,160,136143,1,8
256,80,136421,5,0
336,80,136699,1,0
416,80,136977,1,0
416,160,137255,1,8
416,240,137533,1,0
416,320,137811,1,0
336,320,138089,1,8
336,240,138367,1,8
256,240,138645,5,0
256,160,138923,1,0
336,144,139201,1,0
400,96,139479,1,8
464,48,139758,1,0
400,96,140036,1,0
400,16,140314,1,8
320,16,140592,5,0
240,16,140870,1,0
240,96,141148,1,8
240,176,141426,6,6,L|240:304|160:272|160:368,1,240
240,176,142816,1,8
