osu file format v8

[General]
AudioFilename: Red Hot Chili Peppers - Snow (Hey Oh).mp3
AudioLeadIn: 0
PreviewTime: -1
Countdown: 1
SampleSet: Normal
StackLeniency: 0.2
Mode: 0
LetterboxInBreaks: 1

[Editor]
Bookmarks: 9503
DistanceSpacing: 1
BeatDivisor: 2
GridSize: 16

[Metadata]
Title:Snow (Hey Oh)
Artist:Red Hot Chili Peppers
Creator:mago104
Version:Easy
Source:
Tags:

[Difficulty]
HPDrainRate:2
CircleSize:4
OverallDifficulty:3
ApproachRate:3
SliderMultiplier:1
SliderTickRate:2

[Events]
//Background and Video events
0,0,"Red+Hot+Chili+Peppers+Red+Snow.jpg"
//Break Periods
2,53349,70208
2,81386,91280
//Storyboard Layer 0 (Background)
//Storyboard Layer 1 (Fail)
//Storyboard Layer 2 (Pass)
//Storyboard Layer 3 (Foreground)
//Storyboard Sound Samples
//Background Colour Transformations
3,100,255,255,255

[TimingPoints]
8925,578.0980181801,4,1,0,100,1,0
28724,-100,4,1,1,100,0,0
29013,-100,4,1,0,100,0,0
31759,-200,4,1,1,100,0,0
34939,-100,4,1,0,100,0,0
71648,-200,4,1,1,100,0,0
72515,-200,4,1,0,100,0,0
77140,-200,4,1,1,100,0,0
79163,-100,4,1,0,100,0,0
92720,592.698018180098,4,1,0,100,1,1
104870,-200,4,1,1,100,0,0
106900,-100,4,1,0,100,0,0
121535,-50,4,1,1,100,0,0
131386,-100,4,1,0,100,0,0
133919,556.098018180096,4,1,0,100,1,0
134892,-100,4,1,1,100,0,0
135200,-100,4,1,0,100,0,0
136004,-100,4,1,1,100,0,0
136282,-100,4,1,0,100,0,0
142816,578.598018180098,4,1,0,100,1,0
142816,-100,4,1,0,100,0,1

[Colours]
Combo1 : 99,46,188
Combo2 : 35,35,35
Combo3 : 184,184,254
Combo4 : 255,255,255

[HitObjects]
48,32,9503,1,8
368,48,10659,5,8
368,368,11815,5,8
48,368,12971,5,8
256,192,14127,5,8
256,192,15284,5,8
256,32,16440,5,8
464,32,17596,5,8
464,352,18752,5,8
144,352,19908,5,8
384,128,21065,5,8
64,128,22221,5,8
384,128,23377,5,8
384,368,24533,5,8
128,160,25689,5,8
448,160,26846,5,8
256,176,28002,6,0,B|288:224|224:272|272:352|288:368,1,200,8|0
288,368,29736,1,8
288,272,30314,1,8
288,176,30892,5,8
288,80,31470,1,8
160,80,31759,6,2,B|96:144|160:160|96:224|176:256|112:304|144:336|80:336,1,275
224,336,35517,5,8
288,256,36095,1,8
288,160,36673,5,8
192,160,37251,1,8
192,64,37829,5,8
288,64,38407,1,8
288,160,38986,5,8
192,160,39564,1,8
192,256,40142,1,8
256,192,40431,12,0,44188
256,192,45634,12,0,48235
256,192,49102,12,0,53149
112,160,71648,6,0,B|128:80|208:96|192:176,1,150
193,162,73671,1,0
400,160,74250,6,0,B|384:80|304:96|320:176,1,150
224,176,77140,6,0,B|400:176,2,175
128,144,92720,5,8
192,224,93312,1,4
256,304,93905,5,8
352,304,94498,1,4
352,208,95090,5,8
352,112,95683,1,4
352,16,96276,5,8
256,16,96868,1,4
160,16,97461,5,8
160,112,98054,1,4
256,112,98646,5,8
256,208,99239,1,4
256,304,99832,5,8
256,304,100425,1,4
352,304,101017,5,8
352,208,101610,1,4
256,192,102203,12,8,104573
80,192,104870,6,0,B|256:192,1,175
304,192,107241,5,8
352,272,107833,1,8
352,272,108426,5,8
448,336,109019,1,8
448,240,109611,5,8
368,176,110204,1,8
256,192,110500,12,4,115242
192,208,115835,5,8
240,208,116131,1,0
288,208,116428,1,0
336,208,116724,1,0
384,208,117020,5,8
384,256,117317,1,0
384,304,117613,1,0
336,304,117910,1,0
288,304,118206,5,0
240,304,118502,1,0
192,304,118799,1,8
144,304,119095,1,0
96,304,119391,5,0
48,304,119687,1,8
48,256,119984,2,0,B|32:192|128:192|96:128|160:128|16:80|160:16,1,250
224,32,121762,2,0,B|192:128|304:160|192:224|320:256|208:304|336:352,1,300
384,320,122947,6,0,B|400:208|320:160|432:112|320:32,1,300
224,32,124132,6,0,B|224:192|304:208|208:352,1,300
128,320,125318,6,0,B|192:224|64:192|160:48|48:96|160:32,1,300
240,48,126503,6,0,B|336:144|192:288|384:320,2,300
256,192,128578,12,0,131393
112,160,133919,6,0,B|288:64|384:272|192:288|128:288|0:128|464:96,1,650,8|8
256,192,138367,12,0,140314
256,192,142260,5,8
256,192,142816,5,14
