osu file format v5

[General]
AudioFilename: Red Hot Chilli Peppers - Dani California.mp3
AudioLeadIn: 0
PreviewTime: 56198
Countdown: 1
SampleSet: Normal
StackLeniency: 0.7
Mode: 0
LetterboxInBreaks: 1

[Metadata]
Title:Dani California
Artist:Red Hot Chili Peppers
Creator:Behonkiss
Version:Normal
Source:
Tags:

[Difficulty]
HPDrainRate:5
CircleSize:4
OverallDifficulty:5
SliderMultiplier:2
SliderTickRate:2

[Events]
//Background and Video events
0,0,"danicalifornia.jpg"
1,2000,"danicalifornia.avi"
//Break Periods
2,45129,55319
2,80369,90010
2,135762,154752
//Storyboard Layer 0 (Background)
//Storyboard Layer 1 (Failing)
//Storyboard Layer 2 (Passing)
//Storyboard Layer 3 (Foreground)
//Storyboard Sound Samples
//Background Colour Transformations
3,100,163,162,255

[TimingPoints]
-52,624,4,1,0,80,1,0
40544,626.5,4,1,0,100,1,0
58087,637.6,4,1,0,80,1,0
76572,599.599999999999,4,1,0,80,1,0
80804,635.300000000003,4,1,0,80,1,0
90898,625.000000000004,4,1,0,80,1,0
100884,627.600000000003,4,1,0,80,1,0
113424,633.600000000003,4,1,0,80,1,0
132237,665.100000000003,4,1,0,80,1,0
136087,620.800000000004,4,1,0,80,1,0
183330,632.800000000003,4,1,0,80,1,0
201090,600.000000000002,4,1,0,80,1,0
205910,631.000000000003,4,1,0,80,1,0

[HitObjects]
456,192,15860,1,0
376,192,16172,1,2
416,256,16484,1,0
376,320,16796,2,0,B|160:320,1,200,0|2
72,256,17888,2,0,B|16:200|32:104,1,150
64,48,18668,1,8
136,24,18980,2,0,B|248:64|216:200,1,200
208,264,19916,1,8
208,264,20072,1,8
328,104,20852,5,0
392,56,21164,1,2
392,56,21320,1,0
472,56,21632,2,0,B|472:224,1,150
472,288,22412,1,2
472,288,22568,1,0
360,336,23036,2,0,B|168:344|136:144|336:104,1,400,0|8
320,24,24596,1,8
240,24,24908,2,0,B|16:24,1,200,8|4
40,104,25844,5,0
40,104,26156,1,2
40,104,26468,1,2
40,104,26780,1,2
40,104,27092,1,0
40,104,27404,1,2
40,104,27716,1,0
40,184,28028,2,2,B|48:384|480:376|488:136,1,600,2|6
472,104,30836,5,0
472,104,31148,1,2
472,104,31460,1,2
472,104,31772,1,2
472,104,32084,1,0
472,104,32396,1,2
472,104,32708,1,0
472,184,33020,2,2,B|464:384|32:376|24:136,1,600,2|6
152,48,35516,6,0,B|288:48,1,100
328,48,36140,1,2
328,48,36296,1,0
408,48,36608,2,0,B|408:136|288:152,1,150
232,152,37388,1,2
128,272,38012,1,0
184,320,38324,2,0,B|400:320,1,200
392,240,39260,2,0,B|176:240,1,200,0|4
376,80,40857,5,0
440,120,41170,1,2
440,120,41327,1,0
440,200,41640,2,0,B|440:360,1,150
368,312,42423,1,2
368,312,42580,1,0
248,312,43050,2,0,B|96:168,1,200
48,112,43989,1,8
96,48,44303,2,0,B|304:48,1,200,8|4
184,112,56519,6,4,B|272:32|376:120,3,200
272,240,59043,1,0
136,328,59681,1,0
48,184,60318,1,0
136,48,60956,1,2
136,48,61275,1,2
200,96,61593,6,4,B|312:48|424:112,3,200
296,224,64144,1,0
408,336,64781,1,0
472,184,65419,1,0
472,24,66057,1,2
472,24,66375,1,2
392,24,66694,6,4,B|168:24,3,200
32,32,69245,2,0,B|32:248,2,200
152,136,71157,1,2
152,136,71476,1,2
152,216,71795,6,4,B|152:336|288:336,3,200
440,336,74345,1,0
440,176,74983,1,0
296,112,75621,2,2,B|232:24|168:160|104:64,1,200
48,224,76871,2,2,B|160:344,1,150
288,184,78071,2,2,B|416:304,1,150
504,72,79420,1,8
424,72,79719,1,0
424,72,79869,1,8
344,72,80169,1,12
176,80,91210,5,0
256,80,91523,1,8
256,80,91679,1,8
216,152,91991,2,2,B|216:304,1,150
280,352,92773,1,2
408,256,93398,2,0,B|464:152|400:48,1,200
336,24,94335,1,2
272,72,94648,2,0,B|224:176|288:280,1,200,2|4
48,192,96210,5,0
80,120,96523,1,8
80,120,96679,1,8
128,56,96991,2,2,B|208:-8|296:80,1,150
344,56,97773,1,2
464,56,98241,2,2,B|512:176|472:320,1,250
312,304,99648,2,2,B|256:200|296:72,1,200
288,32,100585,1,8
288,32,100884,1,12
232,88,101197,5,0
184,152,101511,1,2
136,216,101825,1,2
88,280,102139,1,2
160,312,102453,1,0
208,248,102766,1,2
256,184,103080,1,0
304,120,103394,1,2
352,56,103708,1,0
432,56,104022,1,2
512,56,104335,2,2,B|512:264|328:296,1,300,2|6
256,192,105904,12,0,111553
184,272,111867,6,4,B|272:352|376:264,3,200
272,144,114374,1,0
136,56,115008,1,0
48,200,115641,1,0
136,336,116304,1,2
136,336,116623,1,2
200,288,116908,6,4,B|312:336|424:272,3,200
296,160,119443,1,0
408,48,120076,1,0
472,200,120710,1,0
472,360,121340,1,2
472,360,121658,1,2
392,360,121977,6,4,B|168:360,3,200
32,352,124496,2,0,B|32:136,2,200
152,248,126408,1,2
152,248,126727,1,2
152,168,127046,6,4,B|152:48|288:48,3,200
440,48,129572,1,0
440,208,130210,1,0
296,272,130848,2,2,B|232:360|168:224|104:320,1,200
48,160,132194,2,2,B|160:40,1,150
288,200,133400,2,2,B|416:80,1,150
504,312,134731,1,8
424,312,135067,1,0
424,312,135217,1,8
344,312,135517,1,12
256,32,156263,5,0
256,112,156573,1,2
256,112,156728,1,0
256,192,157039,2,0,B|256:344,1,150
256,342,157815,1,2
256,342,157970,1,0
176,344,158280,6,0,B|56:296|56:136,1,250
56,64,159367,2,8,B|176:64,3,100
312,64,160919,1,4
312,144,161229,5,0
392,144,161539,1,2
392,144,161695,1,0
472,152,162005,2,0,B|472:256|376:264,1,150
312,264,162781,1,2
152,264,163402,6,0,B|152:128|272:120,4,200,0|0|0|0|4
152,344,166195,5,0
72,320,166506,1,2
40,248,166816,1,2
40,168,167127,1,2
40,88,167437,1,0
96,32,167747,1,2
176,32,168058,1,0
136,96,168368,2,2,B|136:312,1,200
216,304,169299,2,2,B|312:352|448:288,1,200
488,296,170231,1,4
256,192,170851,12,0,181405
184,112,181715,6,4,B|272:32|376:120,3,200
272,240,184276,1,0
136,328,184910,1,0
48,184,185543,1,0
136,48,186206,1,2
136,48,186525,1,2
200,96,186810,6,4,B|312:48|424:112,3,200
296,224,189341,1,0
408,336,189974,1,0
472,184,190607,1,0
472,24,191235,1,2
472,24,191553,1,2
392,24,191872,6,4,B|168:24,3,200
32,32,194385,2,0,B|32:248,2,200
152,136,196297,1,2
152,136,196616,1,2
152,216,196935,6,4,B|152:336|288:336,3,200
440,336,199466,1,0
440,176,200099,1,0
296,112,200732,2,2,B|232:24|168:160|104:64,1,200
48,224,201990,2,2,B|160:344,1,150
288,184,203190,2,2,B|416:304,1,150
328,112,204390,6,4,B|240:32|136:120,3,200
240,240,206851,1,0
376,328,207485,1,0
464,184,208118,1,0
376,48,208749,1,2
376,48,209065,1,2
312,96,209380,6,4,B|200:48|88:112,3,200
216,224,211904,1,0
104,336,212535,1,0
40,184,213166,1,0
40,24,213797,1,2
40,24,214113,1,2
120,24,214428,6,4,B|344:24,3,200
480,32,216915,2,0,B|480:248,2,200
360,136,218845,1,2
360,136,219161,1,2
360,216,219476,6,4,B|360:336|224:336,3,200
72,336,222000,1,0
72,176,222629,1,0
216,112,223262,2,2,B|280:24|344:160|408:64,1,200
256,192,224209,12,4,228400
