osu file format v5

[General]
AudioFilename: Red Hot Chilli Peppers - Dani California.mp3
AudioLeadIn: 0
PreviewTime: 56198
Countdown: 1
SampleSet: Normal
StackLeniency: 0.7
Mode: 0
LetterboxInBreaks: 1

[Metadata]
Title:Dani California
Artist:Red Hot Chili Peppers
Creator:Behonkiss
Version:Hard
Source:
Tags:

[Difficulty]
HPDrainRate:6
CircleSize:4
OverallDifficulty:6
SliderMultiplier:2
SliderTickRate:2

[Events]
//Background and Video events
0,0,"danicalifornia.jpg"
1,2000,"danicalifornia.avi"
//Break Periods
2,45147,55466
2,80404,89922
2,135762,154752
//Storyboard Layer 0 (Background)
//Storyboard Layer 1 (Failing)
//Storyboard Layer 2 (Passing)
//Storyboard Layer 3 (Foreground)
//Storyboard Sound Samples
//Background Colour Transformations
3,100,163,162,255

[TimingPoints]
-52,624,4,1,0,80,1,0
40544,626.5,4,1,0,100,1,0
58087,637.6,4,1,0,80,1,0
76572,599.599999999999,4,1,0,80,1,0
80804,635.300000000003,4,1,0,80,1,0
90898,625.000000000004,4,1,0,80,1,0
100884,627.600000000003,4,1,0,80,1,0
113424,633.600000000003,4,1,0,80,1,0
132237,665.100000000003,4,1,0,80,1,0
136087,620.800000000004,4,1,0,80,1,0
183330,632.800000000003,4,1,0,80,1,0
201090,600.000000000002,4,1,0,80,1,0
205910,631.000000000003,4,1,0,80,1,0

[HitObjects]
48,64,15860,1,0
48,64,16016,1,0
48,64,16172,2,0,B|184:64,1,100,2|0
112,136,16796,2,0,B|80:176|112:232,2,100,0|8|8
208,184,17888,2,0,B|360:184,1,150
440,184,18668,1,2
440,184,18824,1,0
440,184,18980,1,0
440,264,19292,2,0,B|296:264,1,100
256,264,19916,1,8
256,264,20072,1,8
112,328,20696,5,0
112,328,20852,1,2
112,328,21008,1,0
112,328,21164,1,2
112,328,21320,1,0
56,272,21632,2,0,B|8:192|72:104,1,150
88,56,22412,1,2
88,56,22568,1,0
184,56,23036,2,8,B|296:56,2,100
248,128,23972,1,0
248,128,24128,1,0
248,128,24284,2,0,B|248:232,2,100,0|0|4
456,200,25844,5,0
496,264,26156,1,2
456,336,26468,1,0
376,336,26780,1,2
296,336,27092,1,0
216,336,27404,1,2
136,320,27716,1,0
80,256,28028,2,2,B|24:160|80:48,1,200
168,40,28964,2,2,B|480:40,1,300,2|6
248,48,30836,5,0
192,104,31148,1,2
152,168,31460,1,0
152,248,31772,1,2
200,312,32084,1,0
272,344,32396,1,2
352,344,32708,1,0
432,344,33020,2,2,B|432:120,1,200
512,128,33956,2,2,B|456:8|224:40,1,300,2|6
88,56,35516,5,2
32,112,35828,1,2
32,192,36140,1,8
32,192,36296,1,8
72,264,36608,1,2
128,320,36920,1,0
128,320,37076,1,8
128,320,37232,1,0
128,320,37388,1,8
128,320,37544,1,8
248,320,38012,2,0,B|456:320,1,200,0|0
448,240,38948,1,2
448,160,39260,2,0,B|240:160,1,200,0|4
464,56,40857,5,0
384,56,41170,1,8
384,56,41327,1,8
304,56,41640,2,2,B|112:56,1,150
72,56,42423,1,8
72,56,42580,1,8
144,152,43050,1,0
144,152,43206,1,0
144,152,43363,1,2
144,152,43519,1,0
144,152,43676,1,2
144,232,43989,1,0
200,288,44303,2,2,B|248:344|304:272,2,100,2|2|6
176,128,56519,6,4,B|256:40|360:136,1,200
352,264,57772,2,4,B|256:328|160:248,1,200
104,192,58724,1,2
24,192,59043,2,0,B|24:72|160:80,1,200
232,80,59999,1,2
296,184,60318,2,8,B|440:184,3,100
440,248,61593,2,4,B|440:360|296:352,1,200
224,352,62550,1,2
144,352,62869,2,4,B|24:176,1,200
32,104,63825,1,2
32,24,64144,2,0,B|128:24|120:192,1,200
200,176,65100,1,2
280,176,65419,2,8,B|392:176,3,100
424,104,66694,6,4,B|496:200|408:328,1,200
376,352,67650,1,2
296,352,67969,2,4,B|80:352,1,200
56,280,68926,1,2
56,200,69244,2,0,B|56:80|208:80,1,200
184,160,70201,1,2
184,240,70520,1,2
248,200,70838,2,8,B|368:200,2,100
248,280,71795,2,4,B|336:352|432:272,1,200
432,192,72751,1,2
432,112,73070,2,4,B|360:24|224:56,3,200
104,120,75620,2,2,B|40:200|168:240|80:336,1,200
312,336,77021,5,0
392,336,77321,1,8
392,336,77471,1,8
456,144,78220,1,0
376,144,78520,1,8
376,144,78670,1,8
264,88,79420,1,0
184,88,79719,1,8
184,88,79869,2,0,B|184:200,1,100,8|4
256,192,91210,5,0
256,192,91366,1,0
256,192,91523,1,8
256,192,91679,1,8
192,144,91991,2,2,B|104:128|80:224,1,150
80,296,92773,1,8
80,296,92929,1,8
200,296,93398,6,0,B|320:296,6,100,0|0|0|0|0|0|4
432,232,96210,5,0
432,232,96366,1,0
432,232,96523,1,8
432,232,96679,1,8
432,152,96991,2,2,B|432:64|312:48,1,150
256,56,97773,1,8
256,56,97929,1,8
136,56,98398,2,0,B|64:152,1,100
56,208,99023,1,2
96,280,99335,1,0
96,280,99491,2,2,B|168:328|248:272,1,150
320,280,100273,1,8
400,280,100585,1,8
472,144,101197,5,0
432,72,101511,1,2
360,32,101825,1,0
280,32,102139,1,2
200,32,102452,1,2
128,72,102766,1,0
80,136,103080,1,0
64,216,103394,1,2
72,296,103708,1,2
136,344,104021,1,0
216,344,104335,2,2,B|328:368|432:328,1,200
472,280,105277,1,0
256,192,105904,12,0,111553
336,128,111866,6,4,B|256:40|152:136,1,200
160,264,113122,2,4,B|256:328|352:248,1,200
408,192,114057,1,2
488,192,114374,2,0,B|488:72|352:80,1,200
280,80,115324,1,2
216,184,115641,2,8,B|72:184,3,100
72,248,116908,2,4,B|72:360|216:352,1,200
288,352,117859,1,2
368,352,118175,2,4,B|488:176,1,200
480,104,119126,1,2
480,24,119443,2,0,B|384:24|392:192,1,200
312,176,120393,1,2
232,176,120710,2,8,B|120:176,3,100
88,104,121977,6,4,B|16:200|104:328,1,200
136,352,122927,1,2
216,352,123244,2,4,B|432:352,1,200
456,280,124195,1,2
456,200,124511,2,0,B|456:80|304:80,1,200
328,160,125462,1,2
328,240,125779,1,2
264,200,126096,2,8,B|144:200,2,100
264,280,127046,2,4,B|176:352|80:272,1,200
80,192,127996,1,2
80,112,128313,2,4,B|160:24|288:56,3,200
408,120,130848,2,2,B|472:200|344:240|432:336,1,200
200,336,132273,5,0
120,336,132569,1,8
120,336,132735,1,8
56,144,133400,1,0
136,144,133733,1,8
136,144,133899,1,8
248,88,134731,1,0
328,88,135063,1,8
328,88,135230,2,0,B|328:200,1,100,8|4
456,320,155952,5,2
376,320,156263,1,0
376,320,156418,1,0
376,320,156573,1,8
376,320,156728,1,8
296,320,157039,2,2,B|136:320,1,150
64,320,157815,1,8
64,320,157970,1,8
40,240,158280,2,2,B|8:168|48:88,1,150
88,32,159056,1,8
168,32,159367,2,0,B|272:32,3,100,0|0|0|4
448,192,161229,5,0
448,192,161384,1,0
448,192,161539,1,8
448,192,161695,2,0,B|456:272|384:312,1,100,8|0
352,328,162315,1,0
352,328,162471,2,2,B|240:328,1,100
152,200,163402,6,0,B|40:200,6,100,0|0|0|0|0|0|4
72,64,165885,5,2
136,112,166195,1,0
216,112,166506,1,2
272,56,166816,1,0
352,56,167127,1,2
408,112,167437,1,0
488,112,167747,1,2
488,192,168058,1,0
488,272,168368,1,2
424,320,168679,1,0
344,344,168989,1,2
264,344,169299,2,2,B|152:344|96:248,1,200
72,176,170231,1,8
256,24,171162,5,0
256,104,171472,1,2
256,184,171783,1,0
256,264,172093,1,2
256,344,172403,1,8
256,344,172714,1,8
256,192,173024,12,0,181405
176,256,181715,6,4,B|256:344|360:248,1,200
352,120,182957,2,4,B|256:56|160:136,1,200
104,192,183962,1,2
24,192,184279,2,0,B|24:312|160:304,1,200
232,304,185228,1,2
296,200,185544,2,8,B|440:200,3,100
440,136,186810,2,4,B|440:24|296:32,1,200
224,32,187759,1,2
144,32,188076,2,4,B|24:208,1,200
32,280,189025,1,2
32,360,189341,2,0,B|128:360|120:192,1,200
200,208,190290,1,2
280,208,190607,2,8,B|392:208,3,100
424,280,191872,6,4,B|496:184|408:56,1,200
376,32,192822,1,2
296,32,193138,2,4,B|80:32,1,200
56,104,194087,1,2
56,184,194404,2,0,B|56:304|208:304,1,200
184,224,195353,1,2
184,144,195669,1,2
248,184,195986,2,8,B|368:184,2,100
248,104,196935,2,4,B|336:32|432:112,1,200
432,192,197884,1,2
432,272,198200,2,4,B|352:360|224:328,3,200
104,264,200732,2,2,B|40:184|168:144|80:48,1,200
312,48,202140,5,0
392,48,202440,1,8
392,48,202590,1,8
456,240,203340,1,0
376,240,203640,1,8
376,240,203790,1,8
176,256,204390,6,4,B|256:344|360:248,1,200
352,120,205590,2,4,B|256:56|160:136,1,200
104,192,206570,1,2
24,192,206882,2,0,B|24:312|160:304,1,200
232,304,207818,1,2
296,200,208130,2,8,B|440:200,3,100
440,136,209378,2,4,B|440:24|296:32,1,200
224,32,210314,1,2
144,32,210626,2,4,B|24:208,1,200
32,280,211562,1,2
32,360,211874,2,0,B|128:360|120:192,1,200
200,208,212888,1,2
280,208,213200,2,8,B|392:208,3,100
424,280,214448,6,4,B|496:184|408:56,1,200
376,32,215384,1,2
296,32,215696,2,4,B|80:32,1,200
56,104,216632,1,2
56,184,216944,2,0,B|56:304|208:304,1,200
184,224,217880,1,2
184,144,218192,1,2
248,184,218504,2,8,B|368:184,2,100
248,104,219440,2,4,B|336:32|432:112,1,200
432,192,220454,1,2
432,272,220766,2,4,B|352:360|224:328,3,200
104,264,223262,2,2,B|40:184|168:144|80:48,1,200
256,192,224198,12,4,228389
