osu file format v12

[General]
AudioFilename: Red - Start Again.mp3
AudioLeadIn: 0
PreviewTime: 2990
Countdown: 0
SampleSet: Soft
StackLeniency: 0.7
Mode: 3
LetterboxInBreaks: 0
SpecialStyle: 0
WidescreenStoryboard: 1

[Editor]
Bookmarks: 138571,156924
DistanceSpacing: 0.8
BeatDivisor: 4
GridSize: 8

[Metadata]
Title:Start Again
TitleUnicode:Start Again
Artist:Red
ArtistUnicode:Red
Creator:Quavio
Version:7K Hard
Source:
Tags:
BeatmapID:360383
BeatmapSetID:144309

[Difficulty]
HPDrainRate:7
CircleSize:7
OverallDifficulty:8
ApproachRate:5
SliderMultiplier:1.4
SliderTickRate:1

[Events]
//Background and Video events
0,0,"InnocenceInstinctBlack.jpg",0,0
//Break Periods
//Storyboard Layer 0 (Background)
//Storyboard Layer 1 (Fail)
//Storyboard Layer 2 (Pass)
//Storyboard Layer 3 (Foreground)
//Storyboard Sound Samples
//Background Colour Transformations
3,100,163,162,255

[TimingPoints]
17160,705.882352941176,4,2,0,30,1,0
90571,-100,4,2,0,30,0,1
113159,-100,4,2,0,30,0,0
161159,-100,4,2,0,30,0,1
195042,-100,4,2,0,30,0,0

[HitObjects]
402,192,11512,1,0,0:0:0:0:
256,192,11512,1,0,0:0:0:0:
329,192,11865,1,0,0:0:0:0:
182,192,11865,1,0,0:0:0:0:
475,192,12218,1,0,0:0:0:0:
329,192,12218,1,0,0:0:0:0:
329,192,12571,1,0,0:0:0:0:
182,192,12571,1,0,0:0:0:0:
402,192,12924,1,0,0:0:0:0:
329,192,13277,1,0,0:0:0:0:
475,192,13630,1,0,0:0:0:0:
329,192,13983,1,0,0:0:0:0:
475,192,14336,1,0,0:0:0:0:
256,192,14336,1,0,0:0:0:0:
182,192,14689,1,0,0:0:0:0:
402,192,14689,1,0,0:0:0:0:
329,192,15042,1,0,0:0:0:0:
109,192,15042,1,0,0:0:0:0:
36,192,15395,1,0,0:0:0:0:
256,192,15395,1,0,0:0:0:0:
402,192,15748,1,0,0:0:0:0:
329,192,16101,1,0,0:0:0:0:
402,192,16454,1,0,0:0:0:0:
329,192,16807,1,0,0:0:0:0:
475,192,17160,1,0,0:0:0:0:
109,192,17160,1,0,0:0:0:0:
36,192,17512,1,0,0:0:0:0:
402,192,17512,1,0,0:0:0:0:
109,192,17865,1,0,0:0:0:0:
475,192,17865,1,0,0:0:0:0:
36,192,18218,1,0,0:0:0:0:
402,192,18218,1,0,0:0:0:0:
475,192,18571,1,0,0:0:0:0:
402,192,18924,1,0,0:0:0:0:
475,192,19277,1,0,0:0:0:0:
402,192,19630,1,0,0:0:0:0:
329,192,19983,1,0,0:0:0:0:
109,192,19983,1,0,0:0:0:0:
402,192,20336,1,0,0:0:0:0:
182,192,20336,1,0,0:0:0:0:
109,192,20689,1,0,0:0:0:0:
329,192,20689,1,0,0:0:0:0:
182,192,21042,1,0,0:0:0:0:
402,192,21042,1,0,0:0:0:0:
329,192,21395,1,0,0:0:0:0:
402,192,21748,1,0,0:0:0:0:
329,192,22101,1,0,0:0:0:0:
36,192,22101,1,0,0:0:0:0:
109,192,22101,1,0,0:0:0:0:
402,192,22454,1,0,0:0:0:0:
329,192,22807,128,0,23512:0:0:0:0:
109,192,22807,1,0,0:0:0:0:
182,192,22807,1,0,0:0:0:0:
109,192,23336,1,0,0:0:0:0:
182,192,23512,1,0,0:0:0:0:
402,192,23512,1,0,0:0:0:0:
36,192,23865,1,0,0:0:0:0:
329,192,24218,128,0,24924:0:0:0:0:
36,192,24218,1,0,0:0:0:0:
109,192,24748,1,0,0:0:0:0:
182,192,24924,1,0,0:0:0:0:
402,192,24924,1,0,0:0:0:0:
36,192,25277,1,0,0:0:0:0:
402,192,25630,128,0,26336:0:0:0:0:
256,192,25630,1,0,0:0:0:0:
256,192,26160,1,0,0:0:0:0:
36,192,26336,1,0,0:0:0:0:
475,192,26336,1,0,0:0:0:0:
36,192,26689,1,0,0:0:0:0:
256,192,27042,1,0,0:0:0:0:
36,192,27042,128,0,27748:0:0:0:0:
329,192,27218,1,0,0:0:0:0:
182,192,27218,1,0,0:0:0:0:
256,192,27571,1,0,0:0:0:0:
182,192,27748,1,0,0:0:0:0:
329,192,27748,1,0,0:0:0:0:
109,192,28101,1,0,0:0:0:0:
402,192,28101,1,0,0:0:0:0:
256,192,28454,1,0,0:0:0:0:
402,192,28454,128,0,29512:0:0:0:0:
36,192,28454,1,0,0:0:0:0:
256,192,28983,1,0,0:0:0:0:
109,192,29160,1,0,0:0:0:0:
36,192,29160,1,0,0:0:0:0:
329,192,29512,128,0,29865:0:0:0:0:
402,192,29865,128,0,30924:0:0:0:0:
256,192,29865,1,0,0:0:0:0:
36,192,29865,1,0,0:0:0:0:
256,192,30395,1,0,0:0:0:0:
36,192,30571,1,0,0:0:0:0:
109,192,30571,1,0,0:0:0:0:
475,192,30924,128,0,31277:0:0:0:0:
402,192,31277,128,0,32336:0:0:0:0:
109,192,31277,1,0,0:0:0:0:
36,192,31807,1,0,0:0:0:0:
182,192,31983,1,0,0:0:0:0:
256,192,31983,1,0,0:0:0:0:
182,192,32336,1,0,0:0:0:0:
256,192,32336,1,0,0:0:0:0:
109,192,32512,1,0,0:0:0:0:
475,192,32512,1,0,0:0:0:0:
402,192,32689,1,0,0:0:0:0:
36,192,32689,1,0,0:0:0:0:
182,192,32865,1,0,0:0:0:0:
256,192,32865,1,0,0:0:0:0:
402,192,33218,1,0,0:0:0:0:
256,192,33395,1,0,0:0:0:0:
329,192,33395,1,0,0:0:0:0:
475,192,33571,1,0,0:0:0:0:
182,192,33571,1,0,0:0:0:0:
109,192,33748,1,0,0:0:0:0:
402,192,33748,1,0,0:0:0:0:
329,192,33924,1,0,0:0:0:0:
36,192,33924,1,0,0:0:0:0:
475,192,34101,128,0,34807:0:0:0:0:
182,192,34101,1,0,0:0:0:0:
109,192,34101,1,0,0:0:0:0:
182,192,34630,1,0,0:0:0:0:
402,192,34807,128,0,35512:0:0:0:0:
109,192,34807,1,0,0:0:0:0:
36,192,34807,1,0,0:0:0:0:
329,192,35512,128,0,36218:0:0:0:0:
109,192,35512,1,0,0:0:0:0:
182,192,35512,1,0,0:0:0:0:
182,192,36042,1,0,0:0:0:0:
256,192,36218,128,0,36924:0:0:0:0:
109,192,36218,1,0,0:0:0:0:
36,192,36218,1,0,0:0:0:0:
182,192,36571,1,0,0:0:0:0:
402,192,36924,128,0,38336:0:0:0:0:
109,192,36924,1,0,0:0:0:0:
182,192,36924,1,0,0:0:0:0:
109,192,37454,1,0,0:0:0:0:
182,192,37630,1,0,0:0:0:0:
329,192,37630,1,0,0:0:0:0:
109,192,38336,1,0,0:0:0:0:
36,192,38336,128,0,39748:0:0:0:0:
329,192,38512,1,0,0:0:0:0:
182,192,38512,1,0,0:0:0:0:
109,192,38865,1,0,0:0:0:0:
182,192,39042,1,0,0:0:0:0:
329,192,39042,1,0,0:0:0:0:
109,192,39395,1,0,0:0:0:0:
475,192,39748,128,0,40807:0:0:0:0:
109,192,39748,1,0,0:0:0:0:
402,192,39748,1,0,0:0:0:0:
256,192,40277,1,0,0:0:0:0:
109,192,40454,1,0,0:0:0:0:
402,192,40454,1,0,0:0:0:0:
402,192,40807,128,0,41160:0:0:0:0:
256,192,41159,1,0,0:0:0:0:
329,192,41160,128,0,42571:0:0:0:0:
36,192,41160,1,0,0:0:0:0:
256,192,41689,1,0,0:0:0:0:
109,192,41865,1,0,0:0:0:0:
182,192,41865,1,0,0:0:0:0:
256,192,42218,1,0,0:0:0:0:
256,192,42571,1,0,0:0:0:0:
36,192,42571,1,0,0:0:0:0:
475,192,42571,128,0,43630:0:0:0:0:
182,192,43101,1,0,0:0:0:0:
329,192,43277,1,0,0:0:0:0:
36,192,43277,1,0,0:0:0:0:
36,192,43630,1,0,0:0:0:0:
256,192,43630,1,0,0:0:0:0:
182,192,43807,1,0,0:0:0:0:
329,192,43807,1,0,0:0:0:0:
256,192,43983,1,0,0:0:0:0:
36,192,43983,1,0,0:0:0:0:
475,192,43983,1,0,0:0:0:0:
182,192,44159,1,0,0:0:0:0:
329,192,44159,1,0,0:0:0:0:
109,192,44512,1,0,0:0:0:0:
256,192,44689,1,0,0:0:0:0:
329,192,44689,1,0,0:0:0:0:
182,192,44865,1,0,0:0:0:0:
475,192,44865,1,0,0:0:0:0:
109,192,45042,1,0,0:0:0:0:
402,192,45042,1,0,0:0:0:0:
36,192,45218,1,0,0:0:0:0:
329,192,45218,1,0,0:0:0:0:
109,192,45395,1,0,0:0:0:0:
329,192,45748,1,0,0:0:0:0:
402,192,46101,1,0,0:0:0:0:
36,192,46454,1,0,0:0:0:0:
182,192,46630,1,0,0:0:0:0:
329,192,46807,128,0,47160:0:0:0:0:
182,192,47159,1,0,0:0:0:0:
329,192,47336,1,0,0:0:0:0:
475,192,47512,128,0,47865:0:0:0:0:
329,192,47865,128,0,48218:0:0:0:0:
256,192,47865,1,0,0:0:0:0:
36,192,48218,128,0,48571:0:0:0:0:
402,192,48218,1,0,0:0:0:0:
475,192,48571,1,0,0:0:0:0:
329,192,48748,1,0,0:0:0:0:
182,192,48924,128,0,49277:0:0:0:0:
475,192,49277,1,0,0:0:0:0:
402,192,49630,1,0,0:0:0:0:
36,192,49630,1,0,0:0:0:0:
475,192,49983,1,0,0:0:0:0:
109,192,49983,1,0,0:0:0:0:
36,192,50159,1,0,0:0:0:0:
402,192,50336,1,0,0:0:0:0:
182,192,50336,1,0,0:0:0:0:
475,192,50689,1,0,0:0:0:0:
256,192,50689,1,0,0:0:0:0:
329,192,51042,1,0,0:0:0:0:
36,192,51042,128,0,51748:0:0:0:0:
402,192,51395,1,0,0:0:0:0:
329,192,51748,1,0,0:0:0:0:
402,192,52101,1,0,0:0:0:0:
256,192,52277,1,0,0:0:0:0:
475,192,52454,128,0,52807:0:0:0:0:
109,192,52454,1,0,0:0:0:0:
402,192,52807,128,0,53159:0:0:0:0:
182,192,52807,1,0,0:0:0:0:
329,192,53159,128,0,53512:0:0:0:0:
256,192,53159,1,0,0:0:0:0:
36,192,53512,1,0,0:0:0:0:
109,192,53865,1,0,0:0:0:0:
402,192,53865,1,0,0:0:0:0:
36,192,54218,1,0,0:0:0:0:
109,192,54571,1,0,0:0:0:0:
402,192,54924,1,0,0:0:0:0:
109,192,55101,1,0,0:0:0:0:
256,192,55277,128,0,55630:0:0:0:0:
182,192,55630,128,0,55983:0:0:0:0:
402,192,55630,1,0,0:0:0:0:
109,192,55983,128,0,56336:0:0:0:0:
329,192,55983,1,0,0:0:0:0:
36,192,56336,128,0,56689:0:0:0:0:
256,192,56336,1,0,0:0:0:0:
329,192,56689,1,0,0:0:0:0:
402,192,57042,1,0,0:0:0:0:
109,192,57395,1,0,0:0:0:0:
182,192,57748,1,0,0:0:0:0:
109,192,58101,1,0,0:0:0:0:
475,192,58101,1,0,0:0:0:0:
36,192,58101,128,0,59159:0:0:0:0:
256,192,58454,1,0,0:0:0:0:
329,192,58807,1,0,0:0:0:0:
475,192,59159,128,0,59512:0:0:0:0:
182,192,59159,1,0,0:0:0:0:
256,192,59512,128,0,60218:0:0:0:0:
36,192,59512,1,0,0:0:0:0:
109,192,59865,1,0,0:0:0:0:
182,192,60218,1,0,0:0:0:0:
475,192,60218,1,0,0:0:0:0:
329,192,60571,1,0,0:0:0:0:
475,192,60924,128,0,61630:0:0:0:0:
36,192,60924,1,0,0:0:0:0:
182,192,61277,1,0,0:0:0:0:
329,192,61630,1,0,0:0:0:0:
475,192,61983,1,0,0:0:0:0:
182,192,61983,1,0,0:0:0:0:
256,192,62336,128,0,63042:0:0:0:0:
402,192,62336,1,0,0:0:0:0:
36,192,62689,1,0,0:0:0:0:
475,192,63042,1,0,0:0:0:0:
402,192,63395,1,0,0:0:0:0:
329,192,63748,128,0,64454:0:0:0:0:
36,192,63748,1,0,0:0:0:0:
475,192,64101,1,0,0:0:0:0:
256,192,64454,128,0,65159:0:0:0:0:
109,192,64454,1,0,0:0:0:0:
475,192,64807,1,0,0:0:0:0:
36,192,65159,1,0,0:0:0:0:
182,192,65512,1,0,0:0:0:0:
109,192,65865,1,0,0:0:0:0:
36,192,66218,1,0,0:0:0:0:
109,192,66571,1,0,0:0:0:0:
329,192,66571,1,0,0:0:0:0:
475,192,66571,128,0,66924:0:0:0:0:
402,192,66924,128,0,67277:0:0:0:0:
182,192,66924,1,0,0:0:0:0:
329,192,67277,128,0,67630:0:0:0:0:
109,192,67277,1,0,0:0:0:0:
256,192,67630,128,0,67983:0:0:0:0:
36,192,67630,1,0,0:0:0:0:
36,192,67983,1,0,0:0:0:0:
475,192,67983,1,0,0:0:0:0:
256,192,68512,1,0,0:0:0:0:
329,192,68689,1,0,0:0:0:0:
182,192,69218,1,0,0:0:0:0:
256,192,69395,1,0,0:0:0:0:
109,192,69395,1,0,0:0:0:0:
402,192,69395,1,0,0:0:0:0:
329,192,69571,1,0,0:0:0:0:
256,192,69748,1,0,0:0:0:0:
182,192,69924,1,0,0:0:0:0:
475,192,70101,128,0,70454:0:0:0:0:
36,192,70101,128,0,70454:0:0:0:0:
329,192,70101,1,0,0:0:0:0:
109,192,70454,128,0,70807:0:0:0:0:
402,192,70454,128,0,70807:0:0:0:0:
182,192,70454,1,0,0:0:0:0:
256,192,70807,1,0,0:0:0:0:
329,192,71159,1,0,0:0:0:0:
256,192,71336,1,0,0:0:0:0:
182,192,71512,1,0,0:0:0:0:
182,192,71865,1,0,0:0:0:0:
329,192,72042,1,0,0:0:0:0:
109,192,72218,1,0,0:0:0:0:
402,192,72218,1,0,0:0:0:0:
475,192,72218,128,0,72571:0:0:0:0:
36,192,72218,128,0,72571:0:0:0:0:
109,192,72571,1,0,0:0:0:0:
402,192,72571,1,0,0:0:0:0:
182,192,72748,1,0,0:0:0:0:
36,192,72924,128,0,73277:0:0:0:0:
475,192,72924,128,0,73277:0:0:0:0:
329,192,73101,1,0,0:0:0:0:
109,192,73277,128,0,73630:0:0:0:0:
402,192,73277,128,0,73630:0:0:0:0:
182,192,73277,1,0,0:0:0:0:
256,192,73277,1,0,0:0:0:0:
256,192,73630,1,0,0:0:0:0:
329,192,73630,1,0,0:0:0:0:
475,192,73983,1,0,0:0:0:0:
256,192,74159,1,0,0:0:0:0:
36,192,74336,1,0,0:0:0:0:
36,192,74689,1,0,0:0:0:0:
256,192,74865,1,0,0:0:0:0:
182,192,75042,1,0,0:0:0:0:
329,192,75042,1,0,0:0:0:0:
402,192,75042,128,0,75395:0:0:0:0:
36,192,75218,1,0,0:0:0:0:
475,192,75395,128,0,75748:0:0:0:0:
256,192,75571,1,0,0:0:0:0:
109,192,75748,128,0,76101:0:0:0:0:
36,192,76101,128,0,76454:0:0:0:0:
256,192,76101,1,0,0:0:0:0:
475,192,76277,1,0,0:0:0:0:
256,192,76454,128,0,77159:0:0:0:0:
402,192,76454,1,0,0:0:0:0:
182,192,76983,1,0,0:0:0:0:
36,192,77159,1,0,0:0:0:0:
329,192,77159,1,0,0:0:0:0:
109,192,77336,1,0,0:0:0:0:
402,192,77336,1,0,0:0:0:0:
475,192,77512,1,0,0:0:0:0:
182,192,77512,1,0,0:0:0:0:
182,192,77689,1,0,0:0:0:0:
475,192,77689,1,0,0:0:0:0:
475,192,77865,128,0,78571:0:0:0:0:
256,192,77865,1,0,0:0:0:0:
329,192,77865,1,0,0:0:0:0:
182,192,78395,1,0,0:0:0:0:
402,192,78571,128,0,79277:0:0:0:0:
109,192,78748,1,0,0:0:0:0:
109,192,78924,1,0,0:0:0:0:
329,192,79277,128,0,79983:0:0:0:0:
109,192,79277,1,0,0:0:0:0:
475,192,79630,1,0,0:0:0:0:
182,192,79807,1,0,0:0:0:0:
475,192,79983,1,0,0:0:0:0:
475,192,80336,1,0,0:0:0:0:
256,192,80512,1,0,0:0:0:0:
329,192,80689,1,0,0:0:0:0:
109,192,80689,1,0,0:0:0:0:
475,192,80689,1,0,0:0:0:0:
182,192,80865,1,0,0:0:0:0:
109,192,81042,1,0,0:0:0:0:
256,192,81218,1,0,0:0:0:0:
329,192,81395,1,0,0:0:0:0:
256,192,81748,1,0,0:0:0:0:
329,192,81924,128,0,82807:0:0:0:0:
256,192,82101,1,0,0:0:0:0:
36,192,82454,1,0,0:0:0:0:
109,192,82630,1,0,0:0:0:0:
36,192,82807,1,0,0:0:0:0:
109,192,83159,1,0,0:0:0:0:
109,192,83336,1,0,0:0:0:0:
402,192,83512,1,0,0:0:0:0:
256,192,83512,1,0,0:0:0:0:
36,192,83512,1,0,0:0:0:0:
182,192,83689,1,0,0:0:0:0:
475,192,83865,1,0,0:0:0:0:
182,192,84042,1,0,0:0:0:0:
256,192,84218,1,0,0:0:0:0:
109,192,84218,1,0,0:0:0:0:
329,192,84395,1,0,0:0:0:0:
36,192,84571,1,0,0:0:0:0:
402,192,84571,1,0,0:0:0:0:
256,192,84924,128,0,85277:0:0:0:0:
109,192,84924,1,0,0:0:0:0:
475,192,85277,1,0,0:0:0:0:
182,192,85454,1,0,0:0:0:0:
475,192,85630,1,0,0:0:0:0:
256,192,85630,1,0,0:0:0:0:
182,192,85983,128,0,86689:0:0:0:0:
36,192,85983,1,0,0:0:0:0:
402,192,86159,1,0,0:0:0:0:
475,192,86336,1,0,0:0:0:0:
36,192,86336,1,0,0:0:0:0:
329,192,86336,1,0,0:0:0:0:
36,192,86689,1,0,0:0:0:0:
402,192,86865,1,0,0:0:0:0:
475,192,87042,1,0,0:0:0:0:
256,192,87042,1,0,0:0:0:0:
109,192,87395,1,0,0:0:0:0:
475,192,87395,1,0,0:0:0:0:
182,192,87395,128,0,88101:0:0:0:0:
402,192,87748,1,0,0:0:0:0:
36,192,88101,128,0,88454:0:0:0:0:
475,192,88101,128,0,88454:0:0:0:0:
329,192,88277,1,0,0:0:0:0:
182,192,88454,1,0,0:0:0:0:
329,192,88630,1,0,0:0:0:0:
182,192,88807,1,0,0:0:0:0:
256,192,88983,1,0,0:0:0:0:
36,192,88983,1,0,0:0:0:0:
475,192,88983,1,0,0:0:0:0:
182,192,89159,1,0,0:0:0:0:
256,192,89159,1,0,0:0:0:0:
329,192,89159,1,0,0:0:0:0:
36,192,89159,128,0,90571:0:0:0:0:
475,192,89159,128,0,90571:0:0:0:0:
109,192,89689,1,0,0:0:0:0:
402,192,89689,1,0,0:0:0:0:
182,192,89865,1,0,0:0:0:0:
329,192,89865,1,0,0:0:0:0:
109,192,90571,1,0,0:0:0:0:
182,192,90571,1,0,0:0:0:0:
329,192,90571,1,0,0:0:0:0:
402,192,90571,1,0,0:0:0:0:
182,192,91101,1,0,0:0:0:0:
36,192,91277,1,0,0:0:0:0:
329,192,91277,1,0,0:0:0:0:
109,192,91277,1,0,0:0:0:0:
475,192,91983,128,0,92689:0:0:0:0:
256,192,91983,1,0,0:0:0:0:
182,192,92512,1,0,0:0:0:0:
402,192,92689,128,0,93395:0:0:0:0:
36,192,92689,1,0,0:0:0:0:
329,192,92689,1,0,0:0:0:0:
109,192,92689,1,0,0:0:0:0:
329,192,93395,128,0,94101:0:0:0:0:
256,192,93395,1,0,0:0:0:0:
182,192,93924,1,0,0:0:0:0:
36,192,94101,1,0,0:0:0:0:
402,192,94101,1,0,0:0:0:0:
109,192,94101,1,0,0:0:0:0:
475,192,94807,128,0,95159:0:0:0:0:
36,192,94807,1,0,0:0:0:0:
109,192,94983,1,0,0:0:0:0:
256,192,94983,1,0,0:0:0:0:
402,192,95159,128,0,95512:0:0:0:0:
36,192,95336,1,0,0:0:0:0:
109,192,95512,1,0,0:0:0:0:
329,192,95512,128,0,95865:0:0:0:0:
182,192,95512,1,0,0:0:0:0:
182,192,95865,1,0,0:0:0:0:
256,192,95865,128,0,96218:0:0:0:0:
36,192,96218,1,0,0:0:0:0:
475,192,96218,128,0,96924:0:0:0:0:
182,192,96748,1,0,0:0:0:0:
36,192,96924,1,0,0:0:0:0:
329,192,96924,1,0,0:0:0:0:
109,192,96924,1,0,0:0:0:0:
36,192,97277,1,0,0:0:0:0:
475,192,97277,1,0,0:0:0:0:
402,192,97630,128,0,98336:0:0:0:0:
256,192,97630,1,0,0:0:0:0:
182,192,98159,1,0,0:0:0:0:
475,192,98336,128,0,99042:0:0:0:0:
36,192,98336,1,0,0:0:0:0:
329,192,98336,1,0,0:0:0:0:
109,192,98336,1,0,0:0:0:0:
256,192,99042,1,0,0:0:0:0:
475,192,99571,1,0,0:0:0:0:
36,192,99571,1,0,0:0:0:0:
109,192,99748,1,0,0:0:0:0:
402,192,99748,1,0,0:0:0:0:
256,192,99748,1,0,0:0:0:0:
402,192,100101,1,0,0:0:0:0:
109,192,100101,1,0,0:0:0:0:
256,192,100101,1,0,0:0:0:0:
182,192,100277,1,0,0:0:0:0:
256,192,100454,128,0,101865:0:0:0:0:
36,192,100454,1,0,0:0:0:0:
475,192,100454,1,0,0:0:0:0:
402,192,100630,1,0,0:0:0:0:
329,192,100807,1,0,0:0:0:0:
402,192,100983,1,0,0:0:0:0:
36,192,101159,1,0,0:0:0:0:
475,192,101159,1,0,0:0:0:0:
109,192,101336,1,0,0:0:0:0:
182,192,101512,1,0,0:0:0:0:
109,192,101689,1,0,0:0:0:0:
36,192,101865,1,0,0:0:0:0:
475,192,101865,1,0,0:0:0:0:
182,192,102395,1,0,0:0:0:0:
329,192,102395,1,0,0:0:0:0:
109,192,102571,1,0,0:0:0:0:
402,192,102571,1,0,0:0:0:0:
256,192,102571,1,0,0:0:0:0:
256,192,103277,128,0,103983:0:0:0:0:
182,192,103277,1,0,0:0:0:0:
182,192,103807,1,0,0:0:0:0:
109,192,103983,1,0,0:0:0:0:
36,192,103983,1,0,0:0:0:0:
329,192,103983,1,0,0:0:0:0:
256,192,104689,128,0,105395:0:0:0:0:
329,192,104689,1,0,0:0:0:0:
329,192,105218,1,0,0:0:0:0:
402,192,105395,1,0,0:0:0:0:
475,192,105395,1,0,0:0:0:0:
182,192,105395,1,0,0:0:0:0:
36,192,106101,1,0,0:0:0:0:
402,192,106277,1,0,0:0:0:0:
475,192,106277,1,0,0:0:0:0:
182,192,106277,1,0,0:0:0:0:
256,192,106454,1,0,0:0:0:0:
36,192,106630,1,0,0:0:0:0:
402,192,106807,1,0,0:0:0:0:
475,192,106807,1,0,0:0:0:0:
182,192,106807,1,0,0:0:0:0:
256,192,107159,1,0,0:0:0:0:
109,192,107336,1,0,0:0:0:0:
402,192,107336,1,0,0:0:0:0:
475,192,107512,1,0,0:0:0:0:
36,192,107512,1,0,0:0:0:0:
256,192,107512,128,0,108924:0:0:0:0:
109,192,108042,1,0,0:0:0:0:
402,192,108042,1,0,0:0:0:0:
475,192,108218,1,0,0:0:0:0:
36,192,108218,1,0,0:0:0:0:
182,192,108218,1,0,0:0:0:0:
36,192,108924,128,0,109277:0:0:0:0:
475,192,108924,128,0,110336:0:0:0:0:
109,192,108924,1,0,0:0:0:0:
402,192,108924,1,0,0:0:0:0:
109,192,109277,128,0,109630:0:0:0:0:
329,192,109454,1,0,0:0:0:0:
36,192,109630,128,0,109983:0:0:0:0:
402,192,109630,1,0,0:0:0:0:
256,192,109630,1,0,0:0:0:0:
109,192,109983,128,0,110336:0:0:0:0:
36,192,110336,1,0,0:0:0:0:
402,192,110336,1,0,0:0:0:0:
329,192,110336,128,0,111395:0:0:0:0:
182,192,110865,1,0,0:0:0:0:
36,192,111042,1,0,0:0:0:0:
475,192,111042,1,0,0:0:0:0:
256,192,111042,1,0,0:0:0:0:
109,192,111395,1,0,0:0:0:0:
402,192,111395,1,0,0:0:0:0:
256,192,111395,1,0,0:0:0:0:
36,192,111571,1,0,0:0:0:0:
475,192,111748,1,0,0:0:0:0:
329,192,111748,1,0,0:0:0:0:
402,192,111924,1,0,0:0:0:0:
36,192,111924,1,0,0:0:0:0:
402,192,112101,1,0,0:0:0:0:
36,192,112101,1,0,0:0:0:0:
256,192,112101,1,0,0:0:0:0:
475,192,112277,1,0,0:0:0:0:
402,192,112454,1,0,0:0:0:0:
36,192,112454,1,0,0:0:0:0:
182,192,112454,1,0,0:0:0:0:
329,192,112630,1,0,0:0:0:0:
256,192,112807,1,0,0:0:0:0:
109,192,112807,1,0,0:0:0:0:
182,192,112983,1,0,0:0:0:0:
475,192,113159,1,0,0:0:0:0:
36,192,113159,128,0,115983:0:0:0:0:
329,192,113159,1,0,0:0:0:0:
256,192,115983,1,0,0:0:0:0:
182,192,115983,1,0,0:0:0:0:
329,192,115983,1,0,0:0:0:0:
329,192,116512,1,0,0:0:0:0:
109,192,116689,1,0,0:0:0:0:
475,192,116689,1,0,0:0:0:0:
256,192,116689,1,0,0:0:0:0:
402,192,117218,1,0,0:0:0:0:
109,192,117395,128,0,117748:0:0:0:0:
36,192,117748,128,0,118101:0:0:0:0:
329,192,117924,1,0,0:0:0:0:
475,192,118101,1,0,0:0:0:0:
109,192,118101,1,0,0:0:0:0:
256,192,118101,1,0,0:0:0:0:
402,192,118454,128,0,118807:0:0:0:0:
109,192,118630,1,0,0:0:0:0:
475,192,118807,128,0,119159:0:0:0:0:
109,192,118807,1,0,0:0:0:0:
182,192,119336,1,0,0:0:0:0:
109,192,119512,1,0,0:0:0:0:
475,192,119512,1,0,0:0:0:0:
329,192,119512,128,0,119865:0:0:0:0:
36,192,119512,1,0,0:0:0:0:
256,192,120218,128,0,121630:0:0:0:0:
36,192,120218,1,0,0:0:0:0:
475,192,120218,1,0,0:0:0:0:
402,192,120571,1,0,0:0:0:0:
329,192,120748,1,0,0:0:0:0:
109,192,120924,1,0,0:0:0:0:
475,192,120924,1,0,0:0:0:0:
36,192,120924,1,0,0:0:0:0:
329,192,121277,1,0,0:0:0:0:
402,192,121454,1,0,0:0:0:0:
475,192,121630,1,0,0:0:0:0:
36,192,121630,1,0,0:0:0:0:
109,192,122159,1,0,0:0:0:0:
256,192,122159,1,0,0:0:0:0:
36,192,122336,1,0,0:0:0:0:
329,192,122336,1,0,0:0:0:0:
182,192,122336,1,0,0:0:0:0:
36,192,122865,1,0,0:0:0:0:
402,192,122865,1,0,0:0:0:0:
256,192,123042,128,0,123748:0:0:0:0:
475,192,123042,1,0,0:0:0:0:
109,192,123571,1,0,0:0:0:0:
182,192,123748,128,0,124101:0:0:0:0:
475,192,123748,1,0,0:0:0:0:
36,192,123748,1,0,0:0:0:0:
109,192,124101,128,0,124454:0:0:0:0:
402,192,124277,1,0,0:0:0:0:
36,192,124454,128,0,125159:0:0:0:0:
402,192,124454,1,0,0:0:0:0:
256,192,124807,1,0,0:0:0:0:
182,192,124983,1,0,0:0:0:0:
475,192,125159,1,0,0:0:0:0:
109,192,125159,1,0,0:0:0:0:
182,192,125512,1,0,0:0:0:0:
475,192,125512,128,0,125865:0:0:0:0:
109,192,125689,1,0,0:0:0:0:
402,192,125865,128,0,126218:0:0:0:0:
36,192,125865,1,0,0:0:0:0:
256,192,125865,1,0,0:0:0:0:
329,192,126218,128,0,126571:0:0:0:0:
182,192,126395,1,0,0:0:0:0:
475,192,126571,1,0,0:0:0:0:
256,192,126571,128,0,127277:0:0:0:0:
36,192,126571,1,0,0:0:0:0:
329,192,126924,1,0,0:0:0:0:
182,192,126924,1,0,0:0:0:0:
109,192,127101,1,0,0:0:0:0:
402,192,127101,1,0,0:0:0:0:
36,192,127277,1,0,0:0:0:0:
475,192,127277,1,0,0:0:0:0:
329,192,127630,1,0,0:0:0:0:
182,192,127630,1,0,0:0:0:0:
109,192,127807,1,0,0:0:0:0:
402,192,127807,1,0,0:0:0:0:
36,192,127983,1,0,0:0:0:0:
475,192,127983,1,0,0:0:0:0:
256,192,127983,1,0,0:0:0:0:
256,192,128689,128,0,129395:0:0:0:0:
182,192,128689,1,0,0:0:0:0:
109,192,128865,1,0,0:0:0:0:
402,192,128865,1,0,0:0:0:0:
36,192,129218,1,0,0:0:0:0:
182,192,129395,128,0,129748:0:0:0:0:
109,192,129395,1,0,0:0:0:0:
402,192,129395,1,0,0:0:0:0:
329,192,129748,1,0,0:0:0:0:
36,192,129924,1,0,0:0:0:0:
475,192,129924,1,0,0:0:0:0:
109,192,130101,1,0,0:0:0:0:
329,192,130101,128,0,130807:0:0:0:0:
182,192,130630,1,0,0:0:0:0:
109,192,130807,1,0,0:0:0:0:
402,192,130807,1,0,0:0:0:0:
475,192,130807,1,0,0:0:0:0:
402,192,131512,128,0,131865:0:0:0:0:
36,192,131512,1,0,0:0:0:0:
329,192,131865,1,0,0:0:0:0:
402,192,132042,1,0,0:0:0:0:
256,192,132042,1,0,0:0:0:0:
109,192,132218,1,0,0:0:0:0:
182,192,132218,1,0,0:0:0:0:
475,192,132218,1,0,0:0:0:0:
182,192,132571,1,0,0:0:0:0:
329,192,132571,1,0,0:0:0:0:
256,192,132924,128,0,133630:0:0:0:0:
36,192,132924,1,0,0:0:0:0:
182,192,133454,1,0,0:0:0:0:
402,192,133630,128,0,133983:0:0:0:0:
109,192,133630,128,0,133983:0:0:0:0:
329,192,133630,1,0,0:0:0:0:
36,192,133983,128,0,134689:0:0:0:0:
475,192,133983,128,0,134689:0:0:0:0:
256,192,134336,1,0,0:0:0:0:
256,192,134689,1,0,0:0:0:0:
402,192,134865,1,0,0:0:0:0:
182,192,135042,128,0,135395:0:0:0:0:
329,192,135042,128,0,135395:0:0:0:0:
36,192,135042,1,0,0:0:0:0:
475,192,135042,1,0,0:0:0:0:
36,192,135395,128,0,135748:0:0:0:0:
475,192,135395,128,0,135748:0:0:0:0:
109,192,135571,1,0,0:0:0:0:
256,192,135748,1,0,0:0:0:0:
402,192,135748,1,0,0:0:0:0:
475,192,135924,1,0,0:0:0:0:
36,192,135924,1,0,0:0:0:0:
256,192,136101,1,0,0:0:0:0:
329,192,136101,1,0,0:0:0:0:
402,192,136277,1,0,0:0:0:0:
475,192,136454,1,0,0:0:0:0:
36,192,136454,1,0,0:0:0:0:
109,192,136454,1,0,0:0:0:0:
402,192,136542,1,0,0:0:0:0:
329,192,136630,1,0,0:0:0:0:
256,192,136718,1,0,0:0:0:0:
182,192,136807,1,0,0:0:0:0:
475,192,136807,1,0,0:0:0:0:
109,192,136983,1,0,0:0:0:0:
402,192,136983,1,0,0:0:0:0:
475,192,137159,128,0,138571:0:0:0:0:
329,192,137159,1,0,0:0:0:0:
36,192,137159,1,0,0:0:0:0:
182,192,137336,1,0,0:0:0:0:
36,192,137512,1,0,0:0:0:0:
256,192,137512,1,0,0:0:0:0:
182,192,137689,1,0,0:0:0:0:
36,192,137865,1,0,0:0:0:0:
109,192,137865,1,0,0:0:0:0:
256,192,138571,1,0,0:0:0:0:
182,192,138571,1,0,0:0:0:0:
329,192,138571,1,0,0:0:0:0:
109,192,138571,128,0,139277:0:0:0:0:
182,192,139101,1,0,0:0:0:0:
36,192,139277,1,0,0:0:0:0:
402,192,139277,1,0,0:0:0:0:
475,192,139277,1,0,0:0:0:0:
109,192,139983,128,0,140689:0:0:0:0:
329,192,139983,1,0,0:0:0:0:
475,192,139983,1,0,0:0:0:0:
329,192,140512,1,0,0:0:0:0:
182,192,140689,128,0,141395:0:0:0:0:
36,192,140689,1,0,0:0:0:0:
475,192,140689,1,0,0:0:0:0:
402,192,140689,1,0,0:0:0:0:
402,192,141042,1,0,0:0:0:0:
256,192,141395,128,0,142101:0:0:0:0:
475,192,141395,1,0,0:0:0:0:
36,192,141395,1,0,0:0:0:0:
329,192,141924,1,0,0:0:0:0:
36,192,142101,1,0,0:0:0:0:
475,192,142101,1,0,0:0:0:0:
402,192,142101,1,0,0:0:0:0:
256,192,142807,1,0,0:0:0:0:
36,192,142983,1,0,0:0:0:0:
109,192,142983,1,0,0:0:0:0:
182,192,142983,1,0,0:0:0:0:
402,192,143159,1,0,0:0:0:0:
475,192,143159,1,0,0:0:0:0:
256,192,143336,1,0,0:0:0:0:
329,192,143512,1,0,0:0:0:0:
402,192,143512,1,0,0:0:0:0:
475,192,143512,1,0,0:0:0:0:
256,192,143689,1,0,0:0:0:0:
402,192,143865,1,0,0:0:0:0:
475,192,143865,1,0,0:0:0:0:
109,192,144042,1,0,0:0:0:0:
36,192,144042,1,0,0:0:0:0:
256,192,144218,128,0,144924:0:0:0:0:
402,192,144218,128,0,144924:0:0:0:0:
182,192,144218,1,0,0:0:0:0:
36,192,144748,1,0,0:0:0:0:
475,192,144924,1,0,0:0:0:0:
109,192,144924,1,0,0:0:0:0:
36,192,145277,1,0,0:0:0:0:
182,192,145277,1,0,0:0:0:0:
329,192,145630,128,0,146336:0:0:0:0:
109,192,145630,1,0,0:0:0:0:
36,192,145630,1,0,0:0:0:0:
182,192,146159,1,0,0:0:0:0:
402,192,146336,128,0,147042:0:0:0:0:
109,192,146336,1,0,0:0:0:0:
36,192,146336,1,0,0:0:0:0:
182,192,146689,1,0,0:0:0:0:
475,192,147042,128,0,147748:0:0:0:0:
36,192,147042,1,0,0:0:0:0:
256,192,147042,1,0,0:0:0:0:
329,192,147571,1,0,0:0:0:0:
109,192,147748,1,0,0:0:0:0:
182,192,147748,1,0,0:0:0:0:
329,192,147924,1,0,0:0:0:0:
182,192,148277,1,0,0:0:0:0:
475,192,148454,128,0,149159:0:0:0:0:
402,192,148454,1,0,0:0:0:0:
109,192,148454,1,0,0:0:0:0:
256,192,148454,1,0,0:0:0:0:
182,192,148630,1,0,0:0:0:0:
256,192,148807,1,0,0:0:0:0:
36,192,148807,1,0,0:0:0:0:
109,192,148983,1,0,0:0:0:0:
402,192,149159,128,0,149865:0:0:0:0:
329,192,149159,1,0,0:0:0:0:
182,192,149159,1,0,0:0:0:0:
256,192,149336,1,0,0:0:0:0:
182,192,149512,1,0,0:0:0:0:
475,192,149512,1,0,0:0:0:0:
36,192,149512,1,0,0:0:0:0:
109,192,149689,1,0,0:0:0:0:
256,192,149865,1,0,0:0:0:0:
329,192,149865,1,0,0:0:0:0:
329,192,150395,1,0,0:0:0:0:
36,192,150571,1,0,0:0:0:0:
109,192,150571,1,0,0:0:0:0:
475,192,150571,1,0,0:0:0:0:
475,192,151277,128,0,151983:0:0:0:0:
36,192,151277,1,0,0:0:0:0:
256,192,151277,1,0,0:0:0:0:
182,192,151807,1,0,0:0:0:0:
402,192,151983,128,0,152689:0:0:0:0:
36,192,151983,1,0,0:0:0:0:
109,192,151983,1,0,0:0:0:0:
182,192,152336,1,0,0:0:0:0:
329,192,152689,128,0,153395:0:0:0:0:
36,192,152689,1,0,0:0:0:0:
256,192,152689,1,0,0:0:0:0:
182,192,153218,1,0,0:0:0:0:
109,192,153395,1,0,0:0:0:0:
36,192,153395,1,0,0:0:0:0:
475,192,153395,1,0,0:0:0:0:
36,192,154101,128,0,154807:0:0:0:0:
182,192,154101,1,0,0:0:0:0:
475,192,154101,1,0,0:0:0:0:
402,192,154277,1,0,0:0:0:0:
329,192,154277,1,0,0:0:0:0:
329,192,154630,1,0,0:0:0:0:
402,192,154630,1,0,0:0:0:0:
109,192,154807,128,0,155512:0:0:0:0:
475,192,154807,1,0,0:0:0:0:
182,192,154807,1,0,0:0:0:0:
402,192,155159,1,0,0:0:0:0:
182,192,155512,128,0,156218:0:0:0:0:
475,192,155512,1,0,0:0:0:0:
256,192,155512,1,0,0:0:0:0:
402,192,156042,1,0,0:0:0:0:
36,192,156218,1,0,0:0:0:0:
475,192,156218,1,0,0:0:0:0:
256,192,156218,1,0,0:0:0:0:
402,192,156571,128,0,156924:0:0:0:0:
475,192,156924,128,0,157983:0:0:0:0:
36,192,156924,1,0,0:0:0:0:
109,192,156924,1,0,0:0:0:0:
256,192,157101,1,0,0:0:0:0:
182,192,157277,1,0,0:0:0:0:
329,192,157454,1,0,0:0:0:0:
36,192,157630,1,0,0:0:0:0:
402,192,157630,1,0,0:0:0:0:
256,192,157630,1,0,0:0:0:0:
182,192,157807,1,0,0:0:0:0:
109,192,157983,1,0,0:0:0:0:
329,192,157983,1,0,0:0:0:0:
402,192,158159,1,0,0:0:0:0:
36,192,158336,128,0,159042:0:0:0:0:
475,192,158336,128,0,159042:0:0:0:0:
256,192,158336,1,0,0:0:0:0:
256,192,158865,1,0,0:0:0:0:
109,192,159042,1,0,0:0:0:0:
182,192,159042,1,0,0:0:0:0:
329,192,159395,1,0,0:0:0:0:
402,192,159395,1,0,0:0:0:0:
109,192,159571,1,0,0:0:0:0:
256,192,159748,1,0,0:0:0:0:
475,192,159748,1,0,0:0:0:0:
36,192,159748,1,0,0:0:0:0:
329,192,159924,1,0,0:0:0:0:
402,192,160012,1,0,0:0:0:0:
475,192,160101,1,0,0:0:0:0:
109,192,160101,1,0,0:0:0:0:
329,192,160277,1,0,0:0:0:0:
182,192,160454,1,0,0:0:0:0:
402,192,160454,1,0,0:0:0:0:
475,192,160630,1,0,0:0:0:0:
329,192,160807,1,0,0:0:0:0:
182,192,160983,1,0,0:0:0:0:
475,192,161159,128,0,163983:0:0:0:0:
402,192,161159,1,0,0:0:0:0:
36,192,161159,1,0,0:0:0:0:
329,192,161336,1,0,0:0:0:0:
182,192,161512,1,0,0:0:0:0:
36,192,161689,1,0,0:0:0:0:
402,192,161689,1,0,0:0:0:0:
182,192,161865,1,0,0:0:0:0:
329,192,162042,1,0,0:0:0:0:
182,192,162218,1,0,0:0:0:0:
36,192,162395,1,0,0:0:0:0:
402,192,162395,1,0,0:0:0:0:
182,192,162571,1,0,0:0:0:0:
256,192,162571,1,0,0:0:0:0:
329,192,162748,1,0,0:0:0:0:
182,192,162924,1,0,0:0:0:0:
36,192,163101,1,0,0:0:0:0:
402,192,163101,1,0,0:0:0:0:
182,192,163277,1,0,0:0:0:0:
256,192,163277,1,0,0:0:0:0:
402,192,163630,1,0,0:0:0:0:
36,192,163983,1,0,0:0:0:0:
402,192,163983,1,0,0:0:0:0:
256,192,163983,128,0,164689:0:0:0:0:
475,192,164512,1,0,0:0:0:0:
329,192,164689,1,0,0:0:0:0:
475,192,165042,128,0,165395:0:0:0:0:
36,192,165042,1,0,0:0:0:0:
109,192,165218,1,0,0:0:0:0:
402,192,165395,128,0,165748:0:0:0:0:
256,192,165395,1,0,0:0:0:0:
182,192,165395,1,0,0:0:0:0:
182,192,165748,1,0,0:0:0:0:
109,192,165924,1,0,0:0:0:0:
36,192,166101,128,0,166454:0:0:0:0:
256,192,166101,1,0,0:0:0:0:
329,192,166101,1,0,0:0:0:0:
109,192,166454,128,0,166807:0:0:0:0:
182,192,166454,1,0,0:0:0:0:
402,192,166807,1,0,0:0:0:0:
182,192,166807,1,0,0:0:0:0:
256,192,166807,128,0,167865:0:0:0:0:
329,192,167336,1,0,0:0:0:0:
109,192,167512,1,0,0:0:0:0:
402,192,167512,1,0,0:0:0:0:
36,192,167865,1,0,0:0:0:0:
475,192,167865,1,0,0:0:0:0:
402,192,168042,1,0,0:0:0:0:
329,192,168218,1,0,0:0:0:0:
256,192,168218,1,0,0:0:0:0:
109,192,168748,1,0,0:0:0:0:
256,192,168924,1,0,0:0:0:0:
182,192,168924,1,0,0:0:0:0:
329,192,169101,1,0,0:0:0:0:
109,192,169277,1,0,0:0:0:0:
402,192,169277,128,0,169630:0:0:0:0:
256,192,169277,128,0,169630:0:0:0:0:
36,192,169630,1,0,0:0:0:0:
329,192,169630,128,0,170336:0:0:0:0:
109,192,170159,1,0,0:0:0:0:
256,192,170336,128,0,170689:0:0:0:0:
402,192,170689,128,0,171395:0:0:0:0:
109,192,170689,1,0,0:0:0:0:
36,192,170865,1,0,0:0:0:0:
182,192,171042,1,0,0:0:0:0:
256,192,171042,1,0,0:0:0:0:
36,192,171395,1,0,0:0:0:0:
475,192,171395,1,0,0:0:0:0:
109,192,171571,1,0,0:0:0:0:
182,192,171659,1,0,0:0:0:0:
256,192,171748,1,0,0:0:0:0:
402,192,171924,1,0,0:0:0:0:
109,192,172101,1,0,0:0:0:0:
256,192,172277,1,0,0:0:0:0:
329,192,172454,1,0,0:0:0:0:
36,192,172454,1,0,0:0:0:0:
402,192,172454,128,0,174571:0:0:0:0:
475,192,172454,128,0,173865:0:0:0:0:
109,192,172630,1,0,0:0:0:0:
256,192,172807,1,0,0:0:0:0:
109,192,172983,1,0,0:0:0:0:
329,192,172983,1,0,0:0:0:0:
256,192,173159,1,0,0:0:0:0:
182,192,173336,1,0,0:0:0:0:
329,192,173512,1,0,0:0:0:0:
109,192,173689,1,0,0:0:0:0:
36,192,173865,1,0,0:0:0:0:
329,192,173865,1,0,0:0:0:0:
182,192,174042,1,0,0:0:0:0:
36,192,174218,1,0,0:0:0:0:
109,192,174395,1,0,0:0:0:0:
36,192,174571,1,0,0:0:0:0:
329,192,174571,1,0,0:0:0:0:
475,192,174571,128,0,175277:0:0:0:0:
329,192,174924,1,0,0:0:0:0:
109,192,174924,1,0,0:0:0:0:
109,192,175277,128,0,176689:0:0:0:0:
329,192,175277,1,0,0:0:0:0:
182,192,175454,1,0,0:0:0:0:
329,192,175807,1,0,0:0:0:0:
402,192,176336,1,0,0:0:0:0:
256,192,176336,1,0,0:0:0:0:
329,192,176512,1,0,0:0:0:0:
475,192,176689,128,0,177395:0:0:0:0:
182,192,176689,1,0,0:0:0:0:
256,192,176689,1,0,0:0:0:0:
329,192,177042,1,0,0:0:0:0:
329,192,177218,1,0,0:0:0:0:
402,192,177395,128,0,178101:0:0:0:0:
256,192,177395,1,0,0:0:0:0:
36,192,177395,1,0,0:0:0:0:
182,192,177748,1,0,0:0:0:0:
36,192,178101,1,0,0:0:0:0:
475,192,178101,1,0,0:0:0:0:
329,192,178101,128,0,178807:0:0:0:0:
109,192,178630,1,0,0:0:0:0:
256,192,178807,128,0,179159:0:0:0:0:
475,192,179159,128,0,179512:0:0:0:0:
109,192,179336,1,0,0:0:0:0:
36,192,179512,1,0,0:0:0:0:
402,192,179512,1,0,0:0:0:0:
329,192,179512,1,0,0:0:0:0:
329,192,180042,1,0,0:0:0:0:
109,192,180218,1,0,0:0:0:0:
475,192,180218,1,0,0:0:0:0:
36,192,180218,1,0,0:0:0:0:
182,192,180571,1,0,0:0:0:0:
402,192,180571,1,0,0:0:0:0:
475,192,180924,128,0,181630:0:0:0:0:
109,192,180924,1,0,0:0:0:0:
256,192,181454,1,0,0:0:0:0:
402,192,181630,128,0,181983:0:0:0:0:
329,192,181983,128,0,182689:0:0:0:0:
36,192,181983,1,0,0:0:0:0:
109,192,182159,1,0,0:0:0:0:
182,192,182336,1,0,0:0:0:0:
402,192,182336,1,0,0:0:0:0:
109,192,182512,1,0,0:0:0:0:
256,192,182689,128,0,183748:0:0:0:0:
36,192,182689,1,0,0:0:0:0:
402,192,182865,1,0,0:0:0:0:
182,192,182865,1,0,0:0:0:0:
329,192,183042,1,0,0:0:0:0:
182,192,183218,1,0,0:0:0:0:
475,192,183395,1,0,0:0:0:0:
329,192,183395,1,0,0:0:0:0:
36,192,183395,1,0,0:0:0:0:
109,192,183571,1,0,0:0:0:0:
475,192,183748,1,0,0:0:0:0:
36,192,183748,1,0,0:0:0:0:
475,192,184101,1,0,0:0:0:0:
109,192,184277,1,0,0:0:0:0:
475,192,184454,1,0,0:0:0:0:
109,192,184983,1,0,0:0:0:0:
182,192,185159,128,0,185512:0:0:0:0:
329,192,185159,128,0,185512:0:0:0:0:
475,192,185159,1,0,0:0:0:0:
36,192,185159,1,0,0:0:0:0:
109,192,185512,128,0,185865:0:0:0:0:
402,192,185512,128,0,185865:0:0:0:0:
182,192,185865,128,0,186218:0:0:0:0:
329,192,185865,128,0,186218:0:0:0:0:
36,192,185865,1,0,0:0:0:0:
109,192,186218,1,0,0:0:0:0:
36,192,186395,1,0,0:0:0:0:
475,192,186395,1,0,0:0:0:0:
109,192,186571,1,0,0:0:0:0:
402,192,186571,128,0,187277:0:0:0:0:
36,192,186924,1,0,0:0:0:0:
109,192,187101,1,0,0:0:0:0:
36,192,187277,1,0,0:0:0:0:
182,192,187630,1,0,0:0:0:0:
402,192,187630,1,0,0:0:0:0:
109,192,187807,1,0,0:0:0:0:
329,192,187807,1,0,0:0:0:0:
475,192,187983,1,0,0:0:0:0:
36,192,187983,1,0,0:0:0:0:
256,192,187983,1,0,0:0:0:0:
109,192,188159,1,0,0:0:0:0:
402,192,188159,1,0,0:0:0:0:
36,192,188336,1,0,0:0:0:0:
256,192,188336,128,0,188689:0:0:0:0:
402,192,188689,128,0,189395:0:0:0:0:
109,192,188689,1,0,0:0:0:0:
36,192,188689,1,0,0:0:0:0:
182,192,188865,1,0,0:0:0:0:
256,192,189042,1,0,0:0:0:0:
109,192,189218,1,0,0:0:0:0:
182,192,189218,1,0,0:0:0:0:
475,192,189395,128,0,190101:0:0:0:0:
329,192,189395,1,0,0:0:0:0:
36,192,189395,1,0,0:0:0:0:
182,192,189924,1,0,0:0:0:0:
109,192,190101,1,0,0:0:0:0:
402,192,190101,1,0,0:0:0:0:
36,192,190277,1,0,0:0:0:0:
329,192,190454,1,0,0:0:0:0:
182,192,190630,1,0,0:0:0:0:
402,192,190807,128,0,191159:0:0:0:0:
109,192,190807,128,0,191159:0:0:0:0:
256,192,190807,1,0,0:0:0:0:
329,192,190807,1,0,0:0:0:0:
475,192,191159,128,0,191512:0:0:0:0:
36,192,191159,128,0,191512:0:0:0:0:
256,192,191512,1,0,0:0:0:0:
182,192,191512,1,0,0:0:0:0:
109,192,191865,1,0,0:0:0:0:
402,192,191865,1,0,0:0:0:0:
329,192,192218,128,0,192924:0:0:0:0:
36,192,192218,1,0,0:0:0:0:
475,192,192218,1,0,0:0:0:0:
182,192,192218,1,0,0:0:0:0:
402,192,192748,1,0,0:0:0:0:
182,192,192924,128,0,193277:0:0:0:0:
36,192,193101,1,0,0:0:0:0:
475,192,193101,1,0,0:0:0:0:
402,192,193277,1,0,0:0:0:0:
329,192,193277,1,0,0:0:0:0:
109,192,193454,1,0,0:0:0:0:
182,192,193454,1,0,0:0:0:0:
36,192,193630,1,0,0:0:0:0:
475,192,193630,1,0,0:0:0:0:
109,192,193807,1,0,0:0:0:0:
182,192,193983,1,0,0:0:0:0:
36,192,193983,1,0,0:0:0:0:
329,192,193983,128,0,195042:0:0:0:0:
109,192,194159,1,0,0:0:0:0:
182,192,194248,1,0,0:0:0:0:
256,192,194336,1,0,0:0:0:0:
402,192,194512,1,0,0:0:0:0:
109,192,194512,1,0,0:0:0:0:
182,192,194689,1,0,0:0:0:0:
256,192,194689,1,0,0:0:0:0:
402,192,194865,1,0,0:0:0:0:
109,192,194865,1,0,0:0:0:0:
36,192,195042,1,0,0:0:0:0:
475,192,195042,1,0,0:0:0:0:
256,192,195042,1,0,0:0:0:0:
182,192,195395,1,0,0:0:0:0:
329,192,195748,1,0,0:0:0:0:
182,192,196101,1,0,0:0:0:0:
256,192,196454,1,0,0:0:0:0:
109,192,196807,1,0,0:0:0:0:
256,192,197159,1,0,0:0:0:0:
36,192,197512,1,0,0:0:0:0:
475,192,197865,1,0,0:0:0:0:
36,192,198218,1,0,0:0:0:0:
256,192,198218,128,0,199277:0:0:0:0:
329,192,198571,128,0,199277:0:0:0:0:
182,192,198924,128,0,199277:0:0:0:0:
36,192,199277,128,0,200689:0:0:0:0:
475,192,199983,128,0,200689:0:0:0:0:
256,192,199983,1,0,0:0:0:0:
109,192,200689,128,0,203512:0:0:0:0:
402,192,200689,128,0,201748:0:0:0:0:
182,192,200689,1,0,0:0:0:0:
329,192,200689,1,0,0:0:0:0:
475,192,201042,1,0,0:0:0:0:
36,192,201218,1,0,0:0:0:0:
256,192,201395,1,0,0:0:0:0:
475,192,201748,128,0,202101:0:0:0:0:
36,192,201924,1,0,0:0:0:0:
256,192,202101,1,0,0:0:0:0:
182,192,202101,1,0,0:0:0:0:
329,192,202101,128,0,203159:0:0:0:0:
475,192,202630,1,0,0:0:0:0:
36,192,202807,1,0,0:0:0:0:
475,192,202983,1,0,0:0:0:0:
36,192,203159,1,0,0:0:0:0:
256,192,203512,1,0,0:0:0:0:
475,192,203512,128,0,204571:0:0:0:0:
182,192,203512,1,0,0:0:0:0:
329,192,203512,1,0,0:0:0:0:
182,192,204042,1,0,0:0:0:0:
182,192,204571,1,0,0:0:0:0:
109,192,204748,1,0,0:0:0:0:
329,192,204924,1,0,0:0:0:0:
402,192,204924,128,0,205630:0:0:0:0:
36,192,204924,1,0,0:0:0:0:
182,192,205101,1,0,0:0:0:0:
109,192,205189,1,0,0:0:0:0:
36,192,205277,1,0,0:0:0:0:
182,192,205454,1,0,0:0:0:0:
256,192,205454,1,0,0:0:0:0:
475,192,205630,128,0,205983:0:0:0:0:
36,192,205630,1,0,0:0:0:0:
329,192,205630,1,0,0:0:0:0:
182,192,205807,1,0,0:0:0:0:
256,192,205807,1,0,0:0:0:0:
109,192,205983,1,0,0:0:0:0:
402,192,205983,1,0,0:0:0:0:
36,192,206159,1,0,0:0:0:0:
329,192,206159,1,0,0:0:0:0:
256,192,206336,1,0,0:0:0:0:
36,192,206336,1,0,0:0:0:0:
402,192,206336,128,0,207395:0:0:0:0:
182,192,206865,1,0,0:0:0:0:
36,192,207042,1,0,0:0:0:0:
475,192,207042,1,0,0:0:0:0:
109,192,207042,1,0,0:0:0:0:
329,192,207748,1,0,0:0:0:0:
182,192,207748,128,0,208454:0:0:0:0:
109,192,208277,1,0,0:0:0:0:
329,192,208454,128,0,209159:0:0:0:0:
475,192,208454,1,0,0:0:0:0:
36,192,208454,1,0,0:0:0:0:
402,192,208807,1,0,0:0:0:0:
475,192,209159,128,0,209865:0:0:0:0:
109,192,209159,1,0,0:0:0:0:
109,192,209689,1,0,0:0:0:0:
36,192,209865,1,0,0:0:0:0:
402,192,209865,1,0,0:0:0:0:
329,192,209865,1,0,0:0:0:0:
36,192,210218,128,0,210571:0:0:0:0:
109,192,210218,1,0,0:0:0:0:
402,192,210571,1,0,0:0:0:0:
475,192,210571,128,0,210924:0:0:0:0:
256,192,210748,1,0,0:0:0:0:
182,192,210748,1,0,0:0:0:0:
402,192,210924,1,0,0:0:0:0:
109,192,210924,1,0,0:0:0:0:
36,192,211101,1,0,0:0:0:0:
329,192,211101,1,0,0:0:0:0:
475,192,211277,1,0,0:0:0:0:
182,192,211277,1,0,0:0:0:0:
256,192,211277,128,0,211630:0:0:0:0:
182,192,211630,1,0,0:0:0:0:
329,192,211630,1,0,0:0:0:0:
109,192,211983,1,0,0:0:0:0:
256,192,211983,1,0,0:0:0:0:
402,192,211983,1,0,0:0:0:0:
36,192,211983,128,0,214807:0:0:0:0:
475,192,211983,128,0,213042:0:0:0:0:
329,192,212512,1,0,0:0:0:0:
256,192,212689,1,0,0:0:0:0:
182,192,212689,1,0,0:0:0:0:
402,192,213042,128,0,213395:0:0:0:0:
329,192,213395,128,0,214454:0:0:0:0:
109,192,213395,1,0,0:0:0:0:
475,192,213395,1,0,0:0:0:0:
475,192,213924,1,0,0:0:0:0:
182,192,214101,1,0,0:0:0:0:
256,192,214101,1,0,0:0:0:0:
256,192,214454,128,0,214807:0:0:0:0:
182,192,214454,1,0,0:0:0:0:
475,192,214807,128,0,215865:0:0:0:0:
109,192,214807,1,0,0:0:0:0:
402,192,214807,1,0,0:0:0:0:
109,192,215336,1,0,0:0:0:0:
256,192,215512,1,0,0:0:0:0:
36,192,215512,1,0,0:0:0:0:
402,192,215512,1,0,0:0:0:0:
256,192,215865,1,0,0:0:0:0:
36,192,215865,1,0,0:0:0:0:
402,192,215865,1,0,0:0:0:0:
36,192,216218,1,0,0:0:0:0:
256,192,216218,128,0,216924:0:0:0:0:
475,192,216395,1,0,0:0:0:0:
402,192,216483,1,0,0:0:0:0:
329,192,216571,1,0,0:0:0:0:
109,192,216748,1,0,0:0:0:0:
182,192,216924,128,0,217630:0:0:0:0:
475,192,216924,1,0,0:0:0:0:
402,192,216924,1,0,0:0:0:0:
402,192,217101,1,0,0:0:0:0:
329,192,217101,1,0,0:0:0:0:
475,192,217277,1,0,0:0:0:0:
109,192,217277,1,0,0:0:0:0:
36,192,217454,1,0,0:0:0:0:
402,192,217454,1,0,0:0:0:0:
256,192,217630,128,0,217983:0:0:0:0:
36,192,217630,1,0,0:0:0:0:
475,192,217630,1,0,0:0:0:0:
402,192,218159,1,0,0:0:0:0:
475,192,218336,128,0,218689:0:0:0:0:
36,192,218336,128,0,218689:0:0:0:0:
182,192,218336,1,0,0:0:0:0:
329,192,218336,1,0,0:0:0:0:
109,192,218689,128,0,219042:0:0:0:0:
402,192,218689,128,0,219042:0:0:0:0:
256,192,218689,1,0,0:0:0:0:
256,192,219042,128,0,219748:0:0:0:0:
36,192,219042,1,0,0:0:0:0:
402,192,219571,1,0,0:0:0:0:
182,192,219748,128,0,220454:0:0:0:0:
329,192,219748,128,0,220454:0:0:0:0:
475,192,219748,1,0,0:0:0:0:
36,192,219748,1,0,0:0:0:0:
256,192,220101,1,0,0:0:0:0:
256,192,220454,128,0,221865:0:0:0:0:
36,192,220454,1,0,0:0:0:0:
109,192,220454,1,0,0:0:0:0:
475,192,220983,1,0,0:0:0:0:
36,192,221159,1,0,0:0:0:0:
109,192,221159,1,0,0:0:0:0:
182,192,221159,1,0,0:0:0:0:
329,192,221865,128,0,222571:0:0:0:0:
475,192,221865,1,0,0:0:0:0:
36,192,222042,1,0,0:0:0:0:
109,192,222042,1,0,0:0:0:0:
182,192,222042,1,0,0:0:0:0:
475,192,222395,1,0,0:0:0:0:
36,192,222571,1,0,0:0:0:0:
109,192,222571,1,0,0:0:0:0:
402,192,222571,128,0,223277:0:0:0:0:
182,192,222571,1,0,0:0:0:0:
329,192,222924,1,0,0:0:0:0:
256,192,223277,1,0,0:0:0:0:
475,192,223277,128,0,226807:0:0:0:0:
36,192,223277,128,0,224336:0:0:0:0:
182,192,223277,1,0,0:0:0:0:
329,192,223807,1,0,0:0:0:0:
182,192,223983,1,0,0:0:0:0:
256,192,223983,1,0,0:0:0:0:
402,192,224336,1,0,0:0:0:0:
109,192,224336,128,0,224689:0:0:0:0:
36,192,224689,128,0,226101:0:0:0:0:
329,192,224689,1,0,0:0:0:0:
329,192,225218,1,0,0:0:0:0:
256,192,225395,1,0,0:0:0:0:
182,192,225395,1,0,0:0:0:0:
329,192,225748,1,0,0:0:0:0:
109,192,226101,128,0,227512:0:0:0:0:
256,192,226101,1,0,0:0:0:0:
182,192,226630,1,0,0:0:0:0:
329,192,226807,1,0,0:0:0:0:
402,192,226807,1,0,0:0:0:0:
329,192,227159,1,0,0:0:0:0:
402,192,227159,1,0,0:0:0:0:
256,192,227336,1,0,0:0:0:0:
182,192,227512,1,0,0:0:0:0:
475,192,227512,128,0,227865:0:0:0:0:
256,192,227689,1,0,0:0:0:0:
36,192,227689,1,0,0:0:0:0:
402,192,227865,128,0,228218:0:0:0:0:
36,192,227865,1,0,0:0:0:0:
256,192,227865,1,0,0:0:0:0:
182,192,228042,1,0,0:0:0:0:
329,192,228218,128,0,228571:0:0:0:0:
256,192,228218,1,0,0:0:0:0:
36,192,228218,1,0,0:0:0:0:
475,192,228395,1,0,0:0:0:0:
36,192,228395,1,0,0:0:0:0:
402,192,228571,1,0,0:0:0:0:
109,192,228571,1,0,0:0:0:0:
256,192,228571,1,0,0:0:0:0:
475,192,228748,1,0,0:0:0:0:
36,192,228748,1,0,0:0:0:0:
475,192,228924,1,0,0:0:0:0:
182,192,228924,1,0,0:0:0:0:
402,192,229101,1,0,0:0:0:0:
109,192,229101,1,0,0:0:0:0:
329,192,229277,1,0,0:0:0:0:
36,192,229277,1,0,0:0:0:0:
36,192,229454,1,0,0:0:0:0:
475,192,229454,1,0,0:0:0:0:
402,192,229630,1,0,0:0:0:0:
475,192,229630,1,0,0:0:0:0:
36,192,229630,1,0,0:0:0:0:
109,192,229630,1,0,0:0:0:0:
329,192,229630,128,0,229983:0:0:0:0:
256,192,229983,128,0,230336:0:0:0:0:
182,192,230336,1,0,0:0:0:0:
402,192,230336,128,0,231042:0:0:0:0:
182,192,230865,1,0,0:0:0:0:
475,192,231042,128,0,231748:0:0:0:0:
36,192,231042,1,0,0:0:0:0:
256,192,231042,1,0,0:0:0:0:
182,192,231395,1,0,0:0:0:0:
256,192,231748,1,0,0:0:0:0:
402,192,231748,128,0,232454:0:0:0:0:
109,192,231748,1,0,0:0:0:0:
182,192,232277,1,0,0:0:0:0:
36,192,232454,1,0,0:0:0:0:
256,192,232454,1,0,0:0:0:0:
475,192,232454,1,0,0:0:0:0:
182,192,232807,1,0,0:0:0:0:
402,192,232807,1,0,0:0:0:0:
256,192,232983,1,0,0:0:0:0:
329,192,233159,1,0,0:0:0:0:
36,192,233159,1,0,0:0:0:0:
109,192,233159,1,0,0:0:0:0:
256,192,233336,1,0,0:0:0:0:
475,192,233336,1,0,0:0:0:0:
182,192,233512,1,0,0:0:0:0:
402,192,233512,1,0,0:0:0:0:
36,192,233689,1,0,0:0:0:0:
256,192,233689,1,0,0:0:0:0:
475,192,233865,1,0,0:0:0:0:
329,192,233865,1,0,0:0:0:0:
109,192,233865,1,0,0:0:0:0:
36,192,234218,1,0,0:0:0:0:
402,192,234218,1,0,0:0:0:0:
475,192,234571,128,0,237395:0:0:0:0:
36,192,234571,128,0,235630:0:0:0:0:
182,192,235101,1,0,0:0:0:0:
329,192,235277,1,0,0:0:0:0:
256,192,235277,1,0,0:0:0:0:
109,192,235630,128,0,235983:0:0:0:0:
402,192,235630,1,0,0:0:0:0:
36,192,235983,128,0,237395:0:0:0:0:
329,192,235983,1,0,0:0:0:0:
182,192,235983,1,0,0:0:0:0:
182,192,236512,1,0,0:0:0:0:
256,192,236689,1,0,0:0:0:0:
329,192,236689,1,0,0:0:0:0:
329,192,237042,1,0,0:0:0:0:
402,192,237395,128,0,238101:0:0:0:0:
256,192,237395,1,0,0:0:0:0:
256,192,237924,1,0,0:0:0:0:
475,192,238101,128,0,238807:0:0:0:0:
36,192,238101,1,0,0:0:0:0:
329,192,238101,1,0,0:0:0:0:
36,192,238807,128,0,240218:0:0:0:0:
329,192,238807,1,0,0:0:0:0:
182,192,238807,1,0,0:0:0:0:
182,192,239159,1,0,0:0:0:0:
329,192,239159,1,0,0:0:0:0:
256,192,239395,1,0,0:0:0:0:
475,192,239395,1,0,0:0:0:0:
109,192,239512,1,0,0:0:0:0:
329,192,239630,1,0,0:0:0:0:
402,192,239630,1,0,0:0:0:0:
109,192,239748,1,0,0:0:0:0:
256,192,239865,1,0,0:0:0:0:
402,192,239865,1,0,0:0:0:0:
329,192,239983,1,0,0:0:0:0:
182,192,239983,1,0,0:0:0:0:
256,192,240101,1,0,0:0:0:0:
109,192,240101,1,0,0:0:0:0:
475,192,240218,1,0,0:0:0:0:
402,192,240218,1,0,0:0:0:0:
182,192,240218,1,0,0:0:0:0:
329,192,240571,1,0,0:0:0:0:
256,192,240924,1,0,0:0:0:0:
329,192,241277,1,0,0:0:0:0:
182,192,241630,1,0,0:0:0:0:
109,192,241983,1,0,0:0:0:0:
36,192,242336,1,0,0:0:0:0:
256,192,242689,1,0,0:0:0:0:
329,192,243042,1,0,0:0:0:0:
402,192,243395,1,0,0:0:0:0:
182,192,243748,1,0,0:0:0:0:
256,192,244101,1,0,0:0:0:0:
329,192,244454,1,0,0:0:0:0:
402,192,244807,1,0,0:0:0:0:
329,192,245159,1,0,0:0:0:0:
36,192,245512,1,0,0:0:0:0:
402,192,245865,1,0,0:0:0:0:
329,192,246218,1,0,0:0:0:0:
256,192,246571,1,0,0:0:0:0:
329,192,246924,1,0,0:0:0:0:
256,192,247277,1,0,0:0:0:0:
182,192,247630,1,0,0:0:0:0:
109,192,247983,1,0,0:0:0:0:
402,192,248336,1,0,0:0:0:0:
475,192,248689,1,0,0:0:0:0:
329,192,249042,1,0,0:0:0:0:
402,192,249395,1,0,0:0:0:0:
329,192,249748,1,0,0:0:0:0:
109,192,250101,1,0,0:0:0:0:
36,192,250454,1,0,0:0:0:0:
182,192,251159,1,0,0:0:0:0:
329,192,251159,1,0,0:0:0:0:
475,192,251512,1,0,0:0:0:0:
402,192,251865,1,0,0:0:0:0:
329,192,252218,1,0,0:0:0:0:
256,192,252571,1,0,0:0:0:0:
182,192,252924,1,0,0:0:0:0:
36,192,253983,1,0,0:0:0:0:
475,192,253983,1,0,0:0:0:0:
475,192,254336,1,0,0:0:0:0:
402,192,254689,1,0,0:0:0:0:
329,192,255042,1,0,0:0:0:0:
256,192,255395,1,0,0:0:0:0:
182,192,255748,1,0,0:0:0:0:
109,192,256101,1,0,0:0:0:0:
109,192,256807,1,0,0:0:0:0:
256,192,256983,1,0,0:0:0:0:
402,192,257159,1,0,0:0:0:0:
475,192,257512,1,0,0:0:0:0:
329,192,257865,1,0,0:0:0:0:
475,192,258218,1,0,0:0:0:0:
329,192,258571,1,0,0:0:0:0:
256,192,258924,1,0,0:0:0:0:
475,192,259983,1,0,0:0:0:0:
182,192,259983,1,0,0:0:0:0:
36,192,260336,1,0,0:0:0:0:
402,192,260689,1,0,0:0:0:0:
109,192,261042,1,0,0:0:0:0:
329,192,261395,1,0,0:0:0:0:
182,192,261748,1,0,0:0:0:0:
36,192,262101,1,0,0:0:0:0:
