osu file format v13

[General]
AudioFilename: Receptor_-_Beautiful_Lie.mp3
AudioLeadIn: 0
PreviewTime: 46372
Countdown: 0
SampleSet: Normal
StackLeniency: 0.7
Mode: 0
LetterboxInBreaks: 0
EpilepsyWarning: 1
WidescreenStoryboard: 1

[Editor]
Bookmarks: 24554,46372,68190,90008,109099,111826,133645,155292,155463,174554,177281,199099,220917,242736
DistanceSpacing: 1.3
BeatDivisor: 4
GridSize: 4
TimelineZoom: 1

[Metadata]
Title:Beautiful Lie
TitleUnicode:Beautiful Lie
Artist:Receptor
ArtistUnicode:Receptor
Creator:fergas
Version:Normal Collab
Source:
Tags:downtempo drum and base dnb enclave 61 electronic glitch hop collab collaboration -bakari- alexabm aka
BeatmapID:460572
BeatmapSetID:193722

[Difficulty]
HPDrainRate:4
CircleSize:4
OverallDifficulty:4
ApproachRate:5
SliderMultiplier:1.4
SliderTickRate:2

[Events]
//Background and Video events
0,0,"lie.jpg",0,0
//Break Periods
2,133845,148799
//Storyboard Layer 0 (Background)
//Storyboard Layer 1 (Fail)
//Storyboard Layer 2 (Pass)
//Storyboard Layer 3 (Foreground)
Sprite,Foreground,Centre,"lyr\baka.png",320,240 F,0,2727,4090,0,1 M,0,2727,46363,430,380,465,365 F,0,46363,46704,1,0 F,0,89999,90340,0,1 M,0,89999,111817,333,359,383,369 F,0,111817,112158,1,0 F,0,155454,156817,0,1 M,0,155454,177272,343,359,383,369 F,0,177272,177613,1,0 F,0,199090,199431,0,1 M,0,199090,220908,430,400,465,385 F,0,220908,221249,1,0
Sprite,Foreground,Centre,"lyr\bm.png",320,240 F,0,46363,46704,0,1 M,0,46704,89999,204,408,174,384 F,0,89999,90340,1,0 F,0,111817,112158,0,1 M,0,111817,133636,238,373,200,403 F,0,133636,134999,1,0 F,0,177272,177613,0,1 M,0,177272,199090,238,373,200,398 F,0,199090,199431,1,0 F,0,220908,221249,0,1 M,0,220908,244090,204,408,174,384 F,0,242727,244090,1,0
//Storyboard Sound Samples
//Background Colour Transformations
3,100,163,162,255

[TimingPoints]
2727,681.818181818182,4,2,1,47,1,0
21817,-100,4,2,1,50,0,0
24545,-90.9090909090909,4,1,1,52,0,0
46363,-90.9090909090909,4,1,1,52,0,1
50795,-90.9090909090909,4,1,3,52,0,1
51136,-90.9090909090909,4,1,1,52,0,1
53522,-90.9090909090909,4,1,3,52,0,1
53863,-90.9090909090909,4,1,1,52,0,1
58977,-90.9090909090909,4,1,3,52,0,1
59317,-90.9090909090909,4,1,1,52,0,1
61704,-90.9090909090909,4,1,3,52,0,1
62045,-90.9090909090909,4,1,1,52,0,1
66817,-90.9090909090909,4,1,1,52,0,0
67158,-90.9090909090909,4,1,3,52,0,0
67499,-90.9090909090909,4,1,1,52,0,0
78067,-90.9090909090909,4,1,3,52,0,0
78408,-90.9090909090909,4,1,1,52,0,0
89999,-90.9090909090909,4,1,1,52,0,1
110454,-90.9090909090909,4,1,1,52,0,0
110965,-90.9090909090909,4,1,1,30,0,0
111136,-90.9090909090909,4,1,1,52,0,0
111817,-90.9090909090909,4,1,1,52,0,1
118977,-90.9090909090909,4,1,3,52,0,1
119317,-90.9090909090909,4,1,1,52,0,1
121704,-90.9090909090909,4,1,3,52,0,1
122045,-90.9090909090909,4,1,1,52,0,1
124431,-90.9090909090909,4,1,3,52,0,1
124772,-90.9090909090909,4,1,1,52,0,1
132272,-90.9090909090909,4,1,1,55,0,0
154090,-90.9090909090909,4,1,1,40,0,0
155454,-90.9090909090909,4,1,1,55,0,0
176761,-90.9090909090909,4,1,1,30,0,0
176931,-90.9090909090909,4,1,1,40,0,0
177272,-90.9090909090909,4,1,1,52,0,1
184431,-90.9090909090909,4,1,3,52,0,1
184772,-90.9090909090909,4,1,1,52,0,1
189886,-90.9090909090909,4,1,3,52,0,1
190227,-90.9090909090909,4,1,1,52,0,1
197727,-90.9090909090909,4,1,1,52,0,0
220397,-90.9090909090909,4,1,1,30,0,0
220567,-90.9090909090909,4,1,1,40,0,0
220908,-90.9090909090909,4,1,1,52,0,1
222613,-90.9090909090909,4,1,3,52,0,1
222954,-90.9090909090909,4,1,1,52,0,1
241363,-90.9090909090909,4,1,1,52,0,0
242727,-90.9090909090909,4,1,1,52,0,1
242897,-90.9090909090909,4,1,1,52,0,0

[Colours]
Combo1 : 128,128,128
Combo2 : 128,128,64
Combo3 : 149,74,64

[HitObjects]
100,264,2727,6,0,P|128:276|200:252,1,105,4|4,0:0|0:0,0:0:0:0:
224,220,3408,2,0,L|216:136,2,70,8|0|0,0:0|0:0|0:0,0:0:0:0:
288,284,4431,2,0,L|280:336,2,35,4|4|8,0:0|0:0|0:0,0:0:0:0:
432,176,5454,6,0,P|448:128|424:68,1,105,4|4,0:0|0:0,0:0:0:0:
392,52,6136,2,0,P|368:44|304:52,1,70,8|0,0:0|0:0,0:0:0:0:
148,96,7158,1,4,0:0:0:0:
68,56,7499,1,8,0:0:0:0:
132,228,8181,6,0,P|144:280|124:336,1,105,4|4,0:0|0:0,0:0:0:0:
96,356,8863,2,0,L|12:352,1,70,8|0,0:0|0:0,0:0:0:0:
44,172,9886,2,0,L|32:124,2,35,4|4|8,0:0|0:0|0:0,0:0:0:0:
216,232,10908,6,0,P|244:224|304:160,1,105,4|4,0:0|0:0,0:0:0:0:
292,128,11590,2,0,P|288:80|304:48,1,70,8|0,0:0|0:0,0:0:0:0:
472,16,12613,1,4,0:0:0:0:
508,100,12954,1,8,0:0:0:0:
388,232,13636,6,0,P|344:248|272:244,1,105,4|4,0:0|0:0,0:0:0:0:
244,228,14317,2,0,P|208:224|164:228,1,70,8|0,0:0|0:0,0:0:0:0:
100,280,14999,1,0,0:0:0:0:
84,192,15340,2,0,L|56:160,2,35,4|4|8,0:0|0:0|0:0,0:0:0:0:
264,168,16363,6,0,L|332:252,1,105,4|4,0:0|0:0,0:0:0:0:
368,276,17045,2,0,P|404:260|424:236,2,70,8|0|0,0:0|0:0|0:0,0:0:0:0:
276,284,18067,1,4,0:0:0:0:
200,236,18408,1,8,0:0:0:0:
20,268,19090,6,0,P|32:224|24:152,1,105,4|4,0:0|0:0,0:0:0:0:
16,120,19772,2,0,P|48:112|88:88,1,70,8|0,0:0|0:0,0:0:0:0:
132,20,20454,1,0,0:0:0:0:
196,84,20795,2,0,L|192:128,2,35,4|4|8,0:0|0:0|0:0,0:0:0:0:
376,56,21817,6,0,L|364:216,1,140,4|8,0:0|0:0,0:0:0:0:
400,280,22840,1,0,0:0:0:0:
312,296,23181,2,0,L|316:376,2,70,0|4|8,0:0|0:0|0:0,0:0:0:0:
196,132,24545,6,0,P|156:108|44:124,1,154.000004699707,6|8,0:0|0:0,0:0:0:0:
16,212,25567,1,0,0:0:0:0:
116,224,25908,2,0,P|144:250|159:296,1,77.0000023498536,0|4,0:0|0:0,0:0:0:0:
196,380,26590,2,0,P|232:360|284:364,1,77.0000023498536,8|0,0:0|0:0,0:0:0:0:
356,312,27272,6,0,P|372:272|364:228,2,77.0000023498536,2|0|8,0:0|0:0|0:0,0:0:0:0:
268,264,28295,1,0,0:0:0:0:
231,172,28636,2,0,P|234:139|252:94,1,77.0000023498536,0|4,0:0|0:0,0:0:0:0:
312,20,29317,1,8,0:0:0:0:
156,132,29999,6,0,P|104:136|40:116,1,115.50000352478,2|0,0:0|0:0,0:0:0:0:
12,156,30681,2,0,P|20:196|16:252,1,77.0000023498536,8|0,0:0|0:0,0:0:0:0:
8,332,31363,1,0,0:0:0:0:
100,368,31704,2,0,L|148:372,1,38.5000011749268,4|0,0:0|0:0,0:0:0:0:
180,344,32045,2,0,P|192:316|228:276,1,77.0000023498536,8|0,0:0|0:0,0:0:0:0:
316,252,32727,6,0,P|308:216|328:136,1,115.50000352478,2|0,0:0|0:0,0:0:0:0:
360,104,33408,2,0,L|436:96,2,77.0000023498536,8|0|0,0:0|0:0|0:0,0:0:0:0:
260,84,34431,1,4,0:0:0:0:
168,40,34772,1,8,0:0:0:0:
172,240,35454,6,0,P|156:256|56:280,1,115.50000352478,2|0,0:0|0:0,0:0:0:0:
32,252,36136,2,0,P|48:216|52:172,1,77.0000023498536,8|0,0:0|0:0,0:0:0:0:
9,90,36817,2,0,P|-3:58|1:14,2,77.0000023498536,0|4|8,0:0|0:0|0:0,0:0:0:0:
180,192,38181,6,0,P|192:224|188:268,2,77.0000023498536,2|0|8,0:0|0:0|0:0,0:0:0:0:
108,120,39204,1,0,0:0:0:0:
188,60,39545,2,0,L|272:68,1,77.0000023498536,0|4,0:0|0:0,0:0:0:0:
360,32,40227,1,8,0:0:0:0:
472,200,40908,6,0,P|472:236|444:280,1,77.0000023498536,2|0,0:0|0:0,0:0:0:0:
355,298,41590,2,0,P|319:282|285:241,2,77.0000023498536,8|0|0,0:0|0:0|0:0,0:0:0:0:
372,200,42613,2,0,L|376:148,2,38.5000011749268,4|0|8,0:0|0:0|0:0,0:0:0:0:
280,164,43295,2,0,L|276:120,1,38.5000011749268
232,100,43636,6,0,L|240:16,2,77.0000023498536,2|0|8,0:0|0:0|0:0,0:0:0:0:
176,184,44658,2,0,L|180:260,2,77.0000023498536,0|0|4,0:0|0:0|0:0,0:0:0:0:
96,120,45681,2,0,L|104:40,1,77.0000023498536,8|0,0:0|0:0,0:0:0:0:
186,100,46363,6,0,P|265:127|329:97,1,154.000004699707,6|8,0:0|0:0,0:0:0:0:
400,32,47386,1,0,0:0:0:0:
472,100,47727,2,0,P|492:140|492:180,2,77.0000023498536,0|4|8,0:0|0:0|0:0,0:0:0:0:
400,32,48749,1,0,0:0:0:0:
324,100,49090,6,0,B|284:120|248:104|248:104|212:88|160:112,1,154.000004699707,2|8,0:0|0:0,0:0:0:0:
92,164,50113,1,0,0:0:0:0:
68,260,50454,2,0,B|116:264|144:244|144:244|168:272|220:276,1,154.000004699707,0|8,0:0|0:0,0:0:0:0:
404,260,51817,6,0,P|456:268|476:284,2,77.0000023498536,2|0|8,0:0|0:0|0:0,0:0:0:0:
308,292,52840,1,0,0:0:0:0:
240,220,53181,2,0,P|216:144|264:68,1,154.000004699707,0|8,0:0|0:0,0:0:0:0:
448,80,54545,6,0,P|479:148|455:219,1,154.000004699707,2|8,0:0|0:0,0:0:0:0:
364,264,55567,1,0,0:0:0:0:
264,248,55908,2,0,P|220:252|176:276,1,77.0000023498536,0|4,0:0|0:0,0:0:0:0:
120,340,56590,1,8,0:0:0:0:
36,156,57272,5,2,0:0:0:0:
104,84,57613,1,0,0:0:0:0:
200,53,57954,2,0,B|212:103|188:138|188:138|168:171|180:200,2,154.000004699707,8|0|8,0:0|0:0|0:0,0:0:0:0:
104,84,59658,1,0,0:0:0:0:
80,180,59999,6,0,P|80:220|104:268,1,77.0000023498536,2|0,0:0|0:0,0:0:0:0:
172,320,60681,2,0,P|240:320|308:248,2,154.000004699707,8|0|8,0:0|0:0|0:0,0:0:0:0:
36,172,62727,6,0,L|12:92,1,77.0000023498536,2|0,0:0|0:0,0:0:0:0:
88,32,63408,2,0,L|140:200,1,154.000004699707,8|0,0:0|0:0,0:0:0:0:
176,272,64431,1,4,0:0:0:0:
252,340,64772,2,0,P|308:352|348:336,1,77.0000023498536,8|0,0:0|0:0,0:0:0:0:
392,272,65454,6,0,L|400:104,1,154.000004699707,2|8,0:0|0:0,0:0:0:0:
348,32,66477,2,0,P|320:68|161:27,1,231.000007049561,0|8,0:0|0:0,0:0:0:0:
64,40,67840,1,2,0:0:0:0:
20,128,68181,6,0,B|16:172|36:200|36:200|64:240|48:280,2,154.000004699707,6|8|0,0:0|0:0|0:0,0:0:0:0:
64,40,69886,2,0,P|116:28|168:44,1,77.0000023498536,4|8,0:0|0:0,0:0:0:0:
232,64,70567,1,0,0:0:0:0:
320,112,70908,6,0,P|376:120|488:92,2,154.000004699707,2|8|0,0:0|0:0|0:0,0:0:0:0:
232,64,72613,2,0,P|220:112|228:152,1,77.0000023498536,4|8,0:0|0:0,0:0:0:0:
264,232,73295,1,0,0:0:0:0:
332,304,73636,6,0,P|396:328|480:288,1,154.000004699707,2|8,0:0|0:0,0:0:0:0:
492,200,74658,1,0,0:0:0:0:
428,120,74999,2,0,P|396:112|344:124,2,77.0000023498536,0|4|8,0:0|0:0|0:0,0:0:0:0:
492,200,76022,1,0,0:0:0:0:
440,284,76363,6,0,B|388:284|388:284|344:268|344:268|288:268,1,154.000004699707,2|8,0:0|0:0,0:0:0:0:
192,264,77386,1,0,0:0:0:0:
112,204,77727,2,0,B|72:164|72:164|60:52,1,154.000004699707,0|8,0:0|0:0,0:0:0:0:
260,32,79090,6,0,P|304:68|324:132,1,115.50000352478,2|0,0:0|0:0,0:0:0:0:
320,172,79772,2,0,P|332:240|344:256,1,77.0000023498536,8|0,0:0|0:0,0:0:0:0:
420,296,80454,1,0,0:0:0:0:
484,220,80795,1,4,0:0:0:0:
456,124,81136,1,8,0:0:0:0:
264,68,81817,6,0,L|132:64,1,115.50000352478,2|0,0:0|0:0,0:0:0:0:
104,88,82499,2,0,P|80:128|76:164,1,77.0000023498536,8|0,0:0|0:0,0:0:0:0:
143,231,83181,2,0,P|167:191|171:155,2,77.0000023498536,0|4|8,0:0|0:0|0:0,0:0:0:0:
48,264,84204,1,0,0:0:0:0:
48,312,84374,1,0,0:0:0:0:
76,352,84545,6,0,P|152:372|232:348,1,154.000004699707,2|8,0:0|0:0,0:0:0:0:
292,280,85567,1,0,0:0:0:0:
388,300,85908,2,0,L|424:376,2,77.0000023498536,0|4|8,0:0|0:0|0:0,0:0:0:0:
280,132,87272,6,0,P|200:108|136:132,1,154.000004699707,2|8,0:0|0:0,0:0:0:0:
64,200,88295,1,0,0:0:0:0:
108,292,88636,2,0,P|168:308|204:300,1,77.0000023498536
232,292,89147,1,0,0:0:0:0:
276,272,89317,2,0,P|332:260|412:292,1,115.50000352478,2|0,0:0|0:0,0:0:0:0:
428,300,89999,6,0,L|440:144,1,154.000004699707,6|8,0:0|0:0,0:0:0:0:
368,76,91022,1,0,0:0:0:0:
288,140,91363,2,0,P|272:148|204:140,1,77.0000023498536,0|4,0:0|0:0,0:0:0:0:
136,80,92045,1,8,0:0:0:0:
64,152,92386,2,0,L|72:196,1,38.5000011749268
60,240,92727,6,0,P|52:272|60:320,2,77.0000023498536,2|0|8,0:0|0:0|0:0,0:0:0:0:
152,276,93749,1,0,0:0:0:0:
240,328,94090,1,0,0:0:0:0:
336,296,94431,1,4,0:0:0:0:
304,200,94772,2,0,P|296:160|304:124,1,77.0000023498536,8|0,0:0|0:0,0:0:0:0:
236,52,95454,6,0,P|200:68|108:56,1,115.50000352478,2|0,0:0|0:0,0:0:0:0:
80,84,96136,2,0,P|76:120|48:168,1,77.0000023498536,8|0,0:0|0:0,0:0:0:0:
108,244,96817,2,0,P|140:260|176:296,1,77.0000023498536,0|4,0:0|0:0,0:0:0:0:
232,364,97499,1,8,0:0:0:0:
284,276,97840,1,0,0:0:0:0:
376,236,98181,6,0,P|420:228|460:204,1,77.0000023498536,2|0,0:0|0:0,0:0:0:0:
512,292,98863,2,0,P|512:324|491:369,2,77.0000023498536,8|0|0,0:0|0:0|0:0,0:0:0:0:
416,320,99886,1,4,0:0:0:0:
320,296,100227,2,0,P|309:269|314:219,1,77.0000023498536,8|0,0:0|0:0,0:0:0:0:
280,128,100908,6,0,P|236:108|200:48,1,115.50000352478,2|0,0:0|0:0,0:0:0:0:
156,32,101590,2,0,P|124:32|72:16,1,77.0000023498536,8|0,0:0|0:0,0:0:0:0:
20,100,102272,2,0,P|32:132|36:180,1,77.0000023498536,0|4,0:0|0:0,0:0:0:0:
12,272,102954,1,8,0:0:0:0:
108,252,103295,1,0,0:0:0:0:
196,208,103636,6,0,P|236:208|280:228,1,77.0000023498536,2|0,0:0|0:0,0:0:0:0:
304,260,104147,1,0,0:0:0:0:
340,292,104317,2,0,P|375:305|414:305,1,77.0000023498536,8|0,0:0|0:0,0:0:0:0:
484,232,104999,1,0,0:0:0:0:
392,204,105340,1,4,0:0:0:0:
328,128,105681,2,0,P|328:92|340:52,1,77.0000023498536,8|0,0:0|0:0,0:0:0:0:
248,12,106363,6,0,P|224:32|160:44,1,77.0000023498536,2|0,0:0|0:0,0:0:0:0:
132,40,106874,1,0,0:0:0:0:
84,24,107045,2,0,L|0:20,2,77.0000023498536,8|0|0,0:0|0:0|0:0,0:0:0:0:
128,112,108067,1,4,0:0:0:0:
208,172,108408,2,0,L|284:168,1,77.0000023498536,8|0,0:0|0:0,0:0:0:0:
376,124,109090,5,2,0:0:0:0:
368,224,109431,2,0,L|360:312,2,77.0000023498536,0|8|0,0:0|0:0|0:0,0:0:0:0:
456,176,110454,2,0,L|448:92,1,77.0000023498536,0|4,0:0|0:0,0:0:0:0:
424,56,110965,1,8,0:0:0:0:
376,64,111136,2,0,L|324:56,1,38.5000011749268,8|0,0:0|0:0,0:0:0:0:
288,72,111477,2,0,L|240:64,1,38.5000011749268
204,44,111817,6,0,L|180:220,1,154.000004699707,6|8,0:0|0:0,0:0:0:0:
160,296,112840,1,0,0:0:0:0:
72,340,113181,2,0,P|32:336|-12:300,2,77.0000023498536,0|4|8,0:0|0:0|0:0,0:0:0:0:
160,296,114204,1,0,0:0:0:0:
256,268,114545,6,0,P|300:260|376:276,1,115.50000352478,2|0,0:0|0:0,0:0:0:0:
416,296,115227,2,0,L|432:200,1,77.0000023498536,8|0,0:0|0:0,0:0:0:0:
436,120,115908,1,0,0:0:0:0:
372,40,116249,2,0,P|328:36|284:40,1,77.0000023498536,4|8,0:0|0:0,0:0:0:0:
140,164,117272,6,0,P|101:166|63:162,2,77.0000023498536,2|0|8,0:0|0:0|0:0,0:0:0:0:
228,112,118295,1,0,0:0:0:0:
324,138,118636,2,0,B|310:179|275:198|275:198|232:216|225:274,1,154.000004699707,0|8,0:0|0:0,0:0:0:0:
268,348,119658,1,0,0:0:0:0:
330,269,119999,6,0,P|378:257|422:265,1,77.0000023498536,2|0,0:0|0:0,0:0:0:0:
496,308,120681,2,0,L|504:148,2,154.000004699707,8|0|8,0:0|0:0|0:0,0:0:0:0:
300,352,122727,6,0,L|208:336,1,77.0000023498536,2|0,0:0|0:0,0:0:0:0:
136,292,123408,2,0,P|128:244|144:204,1,77.0000023498536,8|0,0:0|0:0,0:0:0:0:
183,129,124090,2,0,B|222:121|256:147|256:147|291:120|327:128,1,154.000004699707,0|8,0:0|0:0,0:0:0:0:
420,164,125113,1,0,0:0:0:0:
484,244,125454,5,2,0:0:0:0:
480,344,125795,2,0,L|504:380,2,38.5000011749268,0|0|8,0:0|0:0|0:0,0:0:0:0:
396,288,126477,1,0,0:0:0:0:
324,220,126817,2,0,P|267:213|240:221,1,77.0000023498536,0|4,0:0|0:0,0:0:0:0:
164,271,127499,2,0,P|126:278|89:270,1,77.0000023498536,8|0,0:0|0:0,0:0:0:0:
32,188,128181,6,0,P|60:144|180:124,1,154.000004699707,2|8,0:0|0:0,0:0:0:0:
248,156,129204,2,0,P|296:132|324:96,1,77.0000023498536
364,28,129886,1,4,0:0:0:0:
440,96,130227,2,0,L|456:184,1,77.0000023498536,8|0,0:0|0:0,0:0:0:0:
456,268,130908,6,0,P|412:300|360:300,1,77.0000023498536,2|0,0:0|0:0,0:0:0:0:
340,296,131420,1,0,0:0:0:0:
292,292,131590,2,0,L|236:364,1,77.0000023498536,8|0,0:0|0:0,0:0:0:0:
256,192,132272,12,6,133636,0:0:0:0:
256,192,149999,12,0,154090,0:0:0:0:
132,164,155454,6,0,L|256:176,1,115.50000352478,6|0,0:0|0:0,0:0:0:0:
292,156,156136,2,0,P|304:124|292:76,2,77.0000023498536,8|0|0,0:0|0:0|0:0,0:0:0:0:
220,224,157158,1,4,0:0:0:0:
140,164,157499,2,0,L|60:168,1,77.0000023498536,8|0,0:0|0:0,0:0:0:0:
20,260,158181,6,0,L|100:256,1,77.0000023498536,2|0,0:0|0:0,0:0:0:0:
196,248,158863,1,8,0:0:0:0:
280,304,159204,2,0,L|276:344,2,38.5000011749268,0|0|0,0:0|0:0|0:0,0:0:0:0:
284,204,159886,1,4,0:0:0:0:
320,112,160227,2,0,P|344:88|384:72,1,77.0000023498536,8|0,0:0|0:0,0:0:0:0:
468,124,160908,6,0,P|444:148|404:164,1,77.0000023498536,2|0,0:0|0:0,0:0:0:0:
320,112,161590,1,8,0:0:0:0:
236,56,161931,1,0,0:0:0:0:
160,120,162272,2,0,P|120:120|80:104,2,77.0000023498536,0|4|8,0:0|0:0|0:0,0:0:0:0:
236,56,163295,1,0,0:0:0:0:
288,140,163636,6,0,P|276:184|248:216,1,77.0000023498536,2|0,0:0|0:0,0:0:0:0:
300,300,164317,2,0,P|344:304|380:324,1,77.0000023498536,8|0,0:0|0:0,0:0:0:0:
464,276,164999,2,0,P|468:240|488:200,2,77.0000023498536,0|4|8,0:0|0:0|0:0,0:0:0:0:
456,376,166022,1,0,0:0:0:0:
372,320,166363,6,0,L|256:328,1,115.50000352478,6|0,0:0|0:0,0:0:0:0:
208,312,167045,2,0,P|196:276|204:236,1,77.0000023498536,8|0,0:0|0:0,0:0:0:0:
224,140,167727,1,0,0:0:0:0:
128,160,168067,1,4,0:0:0:0:
35,125,168408,2,0,P|30:86|39:47,1,77.0000023498536,8|0,0:0|0:0,0:0:0:0:
124,88,169090,6,0,P|127:152|63:217,1,154.000004699707,2|8,0:0|0:0,0:0:0:0:
108,308,170113,2,0,P|112:348|92:384,2,77.0000023498536,0|0|4,0:0|0:0|0:0,0:0:0:0:
68,216,171136,2,0,L|160:224,1,77.0000023498536,8|0,0:0|0:0,0:0:0:0:
180,260,171647,1,0,0:0:0:0:
224,236,171817,6,0,P|248:208|252:156,1,77.0000023498536,2|0,0:0|0:0,0:0:0:0:
236,120,172329,1,0,0:0:0:0:
212,76,172499,2,0,L|132:80,2,77.0000023498536,8|0|0,0:0|0:0|0:0,0:0:0:0:
292,16,173522,1,4,0:0:0:0:
348,100,173863,2,0,L|424:108,1,77.0000023498536,8|0,0:0|0:0,0:0:0:0:
496,176,174545,6,0,P|500:212|476:256,1,77.0000023498536,2|0,0:0|0:0,0:0:0:0:
436,268,175056,1,0,0:0:0:0:
388,248,175227,2,0,L|296:240,1,77.0000023498536,8|0,0:0|0:0,0:0:0:0:
232,300,175908,1,0,0:0:0:0:
164,228,176249,2,0,L|164:188,1,38.5000011749268,4|8,0:0|0:0,0:0:0:0:
180,140,176590,2,0,L|188:92,2,38.5000011749268,8|8|2,0:0|0:0|0:0,0:0:0:0:
88,168,177272,6,0,P|48:160|12:128,1,77.0000023498536,6|0,0:0|0:0,0:0:0:0:
4,92,177783,1,0,0:0:0:0:
28,48,177954,2,0,P|80:24|192:56,1,154.000004699707,8|0,0:0|0:0,0:0:0:0:
244,112,178977,1,4,0:0:0:0:
324,172,179317,2,0,P|368:184|412:172,1,77.0000023498536,8|0,0:0|0:0,0:0:0:0:
488,136,179999,6,0,L|480:272,1,115.50000352478,2|0,0:0|0:0,0:0:0:0:
452,292,180681,2,0,P|408:300|364:288,1,77.0000023498536,8|0,0:0|0:0,0:0:0:0:
292,240,181363,1,0,0:0:0:0:
200,280,181704,1,4,0:0:0:0:
108,240,182045,2,0,P|88:176|92:144,1,77.0000023498536,8|0,0:0|0:0,0:0:0:0:
100,120,182556,1,0,0:0:0:0:
140,92,182727,6,0,P|204:72|236:76,1,77.0000023498536,2|0,0:0|0:0,0:0:0:0:
312,88,183408,2,0,P|392:72|424:8,2,154.000004699707,8|0|8,0:0|0:0|0:0,0:0:0:0:
216,56,185113,1,0,0:0:0:0:
128,108,185454,6,0,L|104:204,1,77.0000023498536,2|0,0:0|0:0,0:0:0:0:
100,232,185965,1,0,0:0:0:0:
120,280,186136,2,0,P|172:292|208:284,1,77.0000023498536,8|0,0:0|0:0,0:0:0:0:
292,264,186817,2,0,L|312:340,2,77.0000023498536,0|4|8,0:0|0:0|0:0,0:0:0:0:
156,116,188181,6,0,P|100:136|84:160,1,77.0000023498536,2|0,0:0|0:0,0:0:0:0:
104,248,188863,2,0,B|139:280|176:272|176:272|200:248|256:244,2,154.000004699707,8|0|8,0:0|0:0|0:0,0:0:0:0:
56,160,190567,1,0,0:0:0:0:
96,68,190908,6,0,P|140:40|244:76,1,154.000004699707,2|8,0:0|0:0,0:0:0:0:
296,140,191931,2,0,P|365:167|433:135,1,154.000004699707,0|4,0:0|0:0,0:0:0:0:
488,52,192954,1,8,0:0:0:0:
456,248,193636,5,2,0:0:0:0:
384,320,193977,1,0,0:0:0:0:
284,304,194317,2,0,P|236:264|228:240,1,77.0000023498536,8|0,0:0|0:0,0:0:0:0:
228,152,194999,2,0,P|268:104|292:96,2,77.0000023498536,0|4|8,0:0|0:0|0:0,0:0:0:0:
230,252,196022,1,0,0:0:0:0:
296,328,196363,6,0,B|341:344|375:332|375:332|407:320|448:332,2,154.000004699707,2|8|0,0:0|0:0|0:0,0:0:0:0:
207,281,198067,2,0,L|156:316,2,38.5000011749268,4|8|8,0:0|0:0|0:0,0:0:0:0:
292,227,198749,1,2,0:0:0:0:
376,280,199090,6,0,P|391:241|387:199,1,77.0000023498536,6|0,0:0|0:0,0:0:0:0:
360,164,199602,1,0,0:0:0:0:
324,128,199772,2,0,P|304:104|292:56,1,77.0000023498536,8|0,0:0|0:0,0:0:0:0:
192,44,200454,2,0,P|172:64|124:84,1,77.0000023498536,0|4,0:0|0:0,0:0:0:0:
36,44,201136,1,8,0:0:0:0:
112,228,201817,6,0,P|116:268|104:316,1,77.0000023498536,2|0,0:0|0:0,0:0:0:0:
184,372,202499,2,0,P|216:360|264:360,1,77.0000023498536,8|0,0:0|0:0,0:0:0:0:
308,368,203011,1,0,0:0:0:0:
340,332,203181,2,0,P|352:296|384:264,1,77.0000023498536,0|4,0:0|0:0,0:0:0:0:
472,228,203863,2,0,P|496:196|504:156,1,77.0000023498536,8|0,0:0|0:0,0:0:0:0:
444,80,204545,6,0,P|408:84|360:72,1,77.0000023498536,2|0,0:0|0:0,0:0:0:0:
332,44,205056,1,0,0:0:0:0:
288,64,205227,2,0,L|292:144,1,77.0000023498536,8|0,0:0|0:0,0:0:0:0:
244,228,205908,1,0,0:0:0:0:
144,240,206249,1,4,0:0:0:0:
60,188,206590,1,8,0:0:0:0:
252,128,207272,6,0,P|288:140|320:188,1,77.0000023498536,2|0,0:0|0:0,0:0:0:0:
328,268,207954,1,8,0:0:0:0:
240,316,208295,1,0,0:0:0:0:
168,248,208636,2,0,L|160:160,1,77.0000023498536,0|4,0:0|0:0,0:0:0:0:
76,120,209317,2,0,L|68:208,1,77.0000023498536,8|0,0:0|0:0,0:0:0:0:
72,296,209999,6,0,P|96:328|140:344,1,77.0000023498536,6|0,0:0|0:0,0:0:0:0:
176,328,210511,1,0,0:0:0:0:
212,360,210681,2,0,L|292:368,1,77.0000023498536,8|0,0:0|0:0,0:0:0:0:
340,284,211363,2,0,L|260:288,1,77.0000023498536,0|4,0:0|0:0,0:0:0:0:
216,200,212045,2,0,L|296:208,1,77.0000023498536,8|0,0:0|0:0,0:0:0:0:
384,164,212727,5,2,0:0:0:0:
372,64,213067,1,0,0:0:0:0:
292,124,213408,2,0,P|263:130|211:122,1,77.0000023498536,8|0,0:0|0:0,0:0:0:0:
140,60,214090,1,0,0:0:0:0:
128,164,214430,1,4,0:0:0:0:
110,265,214772,2,0,P|74:249|42:201,1,77.0000023498536,8|0,0:0|0:0,0:0:0:0:
128,164,215454,6,0,P|172:188|192:228,1,77.0000023498536,2|0,0:0|0:0,0:0:0:0:
200,256,215965,1,0,0:0:0:0:
248,272,216136,2,0,P|280:268|324:244,1,77.0000023498536,8|0,0:0|0:0,0:0:0:0:
328,148,216817,2,0,P|316:112|324:60,2,77.0000023498536,0|4|8,0:0|0:0|0:0,0:0:0:0:
412,200,217840,1,0,0:0:0:0:
484,272,218181,6,0,P|492:316|476:356,1,77.0000023498536,2|0,0:0|0:0,0:0:0:0:
384,376,218863,1,8,0:0:0:0:
300,320,219204,1,0,0:0:0:0:
208,356,219545,2,0,L|124:352,1,77.0000023498536,0|4,0:0|0:0,0:0:0:0:
104,312,220056,1,8,0:0:0:0:
128,268,220227,2,0,L|180:272,2,38.5000011749268,8|8|2,0:0|0:0|0:0,0:0:0:0:
84,180,220908,6,0,B|71:144|84:104|84:104|119:81|169:83,1,154.000004699707,6|8,0:0|0:0,0:0:0:0:
256,96,221931,1,0,0:0:0:0:
352,124,222272,2,0,P|440:104|460:24,2,154.000004699707,0|8|2,0:0|0:0|0:0,0:0:0:0:
256,96,223977,5,0,0:0:0:0:
212,120,224147,1,0,0:0:0:0:
188,164,224317,2,0,L|176:248,1,77.0000023498536,8|0,0:0|0:0,0:0:0:0:
88,284,224999,2,0,L|76:368,2,77.0000023498536,0|4|8,0:0|0:0|0:0,0:0:0:0:
164,96,226363,6,0,P|224:80|288:88,1,115.50000352478,2|0,0:0|0:0,0:0:0:0:
316,112,227045,2,0,P|336:172|336:204,1,77.0000023498536,8|0,0:0|0:0,0:0:0:0:
260,252,227727,2,0,P|240:192|240:160,1,77.0000023498536,0|4,0:0|0:0,0:0:0:0:
260,80,228408,1,8,0:0:0:0:
352,44,228749,2,0,L|408:36,1,38.5000011749268,0|0,0:0|0:0,0:0:0:0:
440,28,229090,6,0,L|448:104,1,77.0000023498536,2|0,0:0|0:0,0:0:0:0:
456,204,229772,1,8,0:0:0:0:
420,296,230113,1,0,0:0:0:0:
352,368,230454,2,0,P|300:376|252:364,2,77.0000023498536,0|4|8,0:0|0:0|0:0,0:0:0:0:
484,220,231817,5,2,0:0:0:0:
456,124,232158,1,0,0:0:0:0:
418,32,232499,2,0,P|365:85|363:160,1,154.000004699707,8|0,0:0|0:0,0:0:0:0:
400,256,233522,2,0,P|380:296|328:332,1,77.0000023498536,4|8,0:0|0:0,0:0:0:0:
258,339,234204,1,0,0:0:0:0:
188,268,234545,5,2,0:0:0:0:
128,187,234886,2,0,L|124:83,1,77.0000023498536,0|8,0:0|0:0,0:0:0:0:
33,71,235567,2,0,L|41:243,1,154.000004699707,0|4,0:0|0:0,0:0:0:0:
47,325,236590,1,8,0:0:0:0:
144,352,236931,1,0,0:0:0:0:
228,300,237272,6,0,P|288:288|344:312,1,115.50000352478,2|0,0:0|0:0,0:0:0:0:
380,332,237954,2,0,L|432:252,1,77.0000023498536,8|0,0:0|0:0,0:0:0:0:
476,184,238636,1,0,0:0:0:0:
460,84,238977,1,4,0:0:0:0:
372,32,239317,2,0,P|308:28|284:36,1,77.0000023498536,8|0,0:0|0:0,0:0:0:0:
212,88,239999,6,0,P|188:116|188:172,1,77.0000023498536,2|0,0:0|0:0,0:0:0:0:
204,200,240511,1,0,0:0:0:0:
252,220,240681,2,0,P|289:215|318:190,1,77.0000023498536,8|0,0:0|0:0,0:0:0:0:
256,192,241363,12,6,242727,0:0:0:0:
