osu file format v13

[General]
AudioFilename: Receptor_-_Beautiful_Lie.mp3
AudioLeadIn: 0
PreviewTime: 46372
Countdown: 0
SampleSet: Soft
StackLeniency: 0.7
Mode: 0
LetterboxInBreaks: 0
EpilepsyWarning: 1
WidescreenStoryboard: 1

[Editor]
Bookmarks: 24554,68190,79099,90008,109099,133645,155463,174554,177281,220917,242736
DistanceSpacing: 1.3
BeatDivisor: 3
GridSize: 32
TimelineZoom: 1.2

[Metadata]
Title:Beautiful Lie
TitleUnicode:Beautiful Lie
Artist:Receptor
ArtistUnicode:Receptor
Creator:fergas
Version:Hard
Source:
Tags:downtempo drum and base dnb enclave 61 electronic glitch hop collab collaboration -bakari- alexabm aka
BeatmapID:460185
BeatmapSetID:193722

[Difficulty]
HPDrainRate:5
CircleSize:5
OverallDifficulty:6
ApproachRate:8
SliderMultiplier:2
SliderTickRate:2

[Events]
//Background and Video events
0,0,"lie.jpg",0,0
//Break Periods
2,133836,149249
//Storyboard Layer 0 (Background)
//Storyboard Layer 1 (Fail)
//Storyboard Layer 2 (Pass)
//Storyboard Layer 3 (Foreground)
//Storyboard Sound Samples
//Background Colour Transformations
3,100,163,162,255

[TimingPoints]
2727,681.818181818182,4,2,1,47,1,0
21817,-100,4,2,1,50,0,0
24545,-90.9090909090909,4,1,1,52,0,0
46363,-90.9090909090909,4,1,1,52,0,1
47045,-90.9090909090909,4,1,2,52,0,1
47386,-90.9090909090909,4,1,1,52,0,1
50795,-90.9090909090909,4,1,3,52,0,1
51136,-90.9090909090909,4,1,1,52,0,1
61704,-90.9090909090909,4,1,3,52,0,1
62045,-90.9090909090909,4,1,1,52,0,1
66817,-90.9090909090909,4,1,1,52,0,0
67329,-90.9090909090909,4,1,1,50,0,0
67670,-90.9090909090909,4,1,1,30,0,0
67840,-90.9090909090909,4,1,1,40,0,0
68181,-90.9090909090909,4,1,1,45,0,0
89829,-90.9090909090909,4,1,1,30,0,0
89999,-90.9090909090909,4,1,1,52,0,1
90681,-90.9090909090909,4,1,2,52,0,1
91022,-90.9090909090909,4,1,1,52,0,1
94431,-90.9090909090909,4,1,3,52,0,1
94772,-90.9090909090909,4,1,1,52,0,1
105340,-90.9090909090909,4,1,3,52,0,1
105681,-90.9090909090909,4,1,1,52,0,1
110454,-90.9090909090909,4,1,1,52,0,0
110965,-90.9090909090909,4,1,1,30,0,0
111136,-90.9090909090909,4,1,1,52,0,0
111817,-90.9090909090909,4,1,1,52,0,1
112499,-90.9090909090909,4,1,2,52,0,1
112840,-90.9090909090909,4,1,1,52,0,1
116249,-90.9090909090909,4,1,3,52,0,1
116590,-90.9090909090909,4,1,1,52,0,1
127158,-90.9090909090909,4,1,3,52,0,1
127499,-90.9090909090909,4,1,1,52,0,1
132272,-90.9090909090909,4,1,1,52,0,0
133124,-90.9090909090909,4,1,1,30,0,0
133295,-90.9090909090909,4,1,1,40,0,0
133636,-90.9090909090909,4,1,1,55,0,0
154772,-90.9090909090909,4,1,1,40,0,0
155454,-90.9090909090909,4,1,1,55,0,0
176761,-90.9090909090909,4,1,1,30,0,0
176931,-90.9090909090909,4,1,1,40,0,0
177272,-90.9090909090909,4,1,1,52,0,1
177954,-90.9090909090909,4,1,2,52,0,1
178295,-90.9090909090909,4,1,1,52,0,1
181704,-90.9090909090909,4,1,3,52,0,1
182045,-90.9090909090909,4,1,1,52,0,1
192613,-90.9090909090909,4,1,3,52,0,1
192954,-90.9090909090909,4,1,1,52,0,1
197727,-90.9090909090909,4,1,1,52,0,0
198579,-90.9090909090909,4,1,1,30,0,0
198749,-90.9090909090909,4,1,1,40,0,0
199090,-90.9090909090909,4,1,1,55,0,0
220397,-90.9090909090909,4,1,1,30,0,0
220567,-90.9090909090909,4,1,1,40,0,0
220908,-90.9090909090909,4,1,1,52,0,1
221590,-90.9090909090909,4,1,2,52,0,1
221931,-90.9090909090909,4,1,1,52,0,1
225340,-90.9090909090909,4,1,3,52,0,1
225681,-90.9090909090909,4,1,1,52,0,1
236249,-90.9090909090909,4,1,3,52,0,1
236590,-90.9090909090909,4,1,1,52,0,1
241363,-90.9090909090909,4,1,1,60,0,0
242215,-90.9090909090909,4,1,1,30,0,0
242386,-90.9090909090909,4,1,1,40,0,0
242727,-90.9090909090909,4,1,1,47,0,1
242897,-90.9090909090909,4,1,1,60,0,0

[Colours]
Combo1 : 128,128,128
Combo2 : 128,128,64
Combo3 : 149,74,64

[HitObjects]
160,64,2727,5,4,0:0:0:0:
276,220,3238,1,4,0:0:0:0:
276,220,3408,2,0,L|179:247,2,100,8|0|0,0:0|0:0|0:0,0:0:0:0:
400,105,4431,1,4,0:0:0:0:
376,110,4602,1,4,0:0:0:0:
352,116,4772,2,0,L|448:142,1,100,8|0,0:0|0:0,0:0:0:0:
248,228,5454,6,0,P|228:148|256:64,1,150,4|4,0:0|0:0,0:0:0:0:
244,83,6136,1,8,0:0:0:0:
48,92,6477,1,0,0:0:0:0:
48,92,7158,1,4,0:0:0:0:
80,238,7499,2,0,P|113:200|130:154,1,100,8|0,0:0|0:0,0:0:0:0:
196,19,8181,6,0,P|212:91|260:148,1,150,4|4,0:0|0:0,0:0:0:0:
260,149,8863,2,0,P|211:144|161:143,1,100,8|0,0:0|0:0,0:0:0:0:
355,68,9886,1,4,0:0:0:0:
355,68,10056,1,4,0:0:0:0:
355,68,10227,2,0,P|404:62|454:63,1,100,8|0,0:0|0:0,0:0:0:0:
228,92,10908,5,4,0:0:0:0:
392,196,11420,1,4,0:0:0:0:
392,196,11590,1,8,0:0:0:0:
264,204,11931,2,0,L|312:300,1,100
180,272,12613,1,4,0:0:0:0:
180,272,12954,2,0,L|148:366,1,100,8|0,0:0|0:0,0:0:0:0:
211,176,13636,5,4,0:0:0:0:
400,220,14147,1,4,0:0:0:0:
400,220,14317,2,0,P|400:276|376:324,2,100,8|0|0,0:0|0:0|0:0,0:0:0:0:
176,220,15340,1,4,0:0:0:0:
176,220,15511,1,4,0:0:0:0:
176,220,15681,2,0,L|272:247,1,100,8|0,0:0|0:0,0:0:0:0:
272,247,16363,6,0,P|252:167|280:83,1,150,4|4,0:0|0:0,0:0:0:0:
288,71,17045,1,8,0:0:0:0:
93,135,17386,2,0,P|139:117|172:80,1,100
124,268,18067,1,4,0:0:0:0:
124,268,18408,2,0,L|91:362,1,100,8|0,0:0|0:0,0:0:0:0:
252,300,19090,6,0,L|311:128,1,150,4|4,0:0|0:0,0:0:0:0:
320,188,19772,2,0,P|354:221|418:237,2,100,8|0|0,0:0|0:0|0:0,0:0:0:0:
172,240,20795,1,4,0:0:0:0:
167,245,20965,1,4,0:0:0:0:
162,250,21136,2,0,P|127:216|63:200,1,100,8|0,0:0|0:0,0:0:0:0:
204,160,21817,5,4,0:0:0:0:
311,13,22329,1,4,0:0:0:0:
311,13,22499,1,8,0:0:0:0:
336,152,22840,2,0,P|360:204|396:240,1,100
260,232,23522,1,4,0:0:0:0:
260,232,23863,2,0,P|223:276|179:301,1,100,8|0,0:0|0:0,0:0:0:0:
27,179,24545,6,0,L|44:288,1,110.000003356934,6|0,0:0|0:0,0:0:0:0:
52,324,25056,1,0,0:0:0:0:
60,364,25227,2,0,P|112:336|184:320,2,110.000003356934,8|0|0,0:0|0:0|0:0,0:0:0:0:
108,228,26249,1,4,0:0:0:0:
156,92,26590,1,8,0:0:0:0:
183,97,26761,1,0,0:0:0:0:
207,107,26931,1,0,0:0:0:0:
226,129,27102,1,0,0:0:0:0:
239,153,27272,6,0,L|124:196,1,110.000003356934,2|0,0:0|0:0,0:0:0:0:
108,200,27783,1,0,0:0:0:0:
80,208,27954,2,0,P|168:232|192:256,1,110.000003356934,8|0,0:0|0:0,0:0:0:0:
264,360,28636,2,0,L|288:224,1,110.000003356934,0|4,0:0|0:0,0:0:0:0:
443,167,29317,2,0,L|424:276,1,110.000003356934,8|0,0:0|0:0,0:0:0:0:
336,164,29999,6,0,P|284:108|228:84,1,110.000003356934,2|0,0:0|0:0,0:0:0:0:
227,86,30511,1,0,0:0:0:0:
199,81,30681,1,8,0:0:0:0:
52,97,31022,1,0,0:0:0:0:
120,45,31363,1,0,0:0:0:0:
72,185,31704,1,4,0:0:0:0:
206,167,32045,1,8,0:0:0:0:
234,171,32215,1,0,0:0:0:0:
258,179,32386,1,0,0:0:0:0:
282,195,32556,1,0,0:0:0:0:
298,214,32727,6,0,P|306:160|322:108,1,110.000003356934,2|0,0:0|0:0,0:0:0:0:
330,83,33238,1,0,0:0:0:0:
338,59,33408,1,8,0:0:0:0:
424,171,33749,2,0,P|439:224|439:279,2,110.000003356934,0|0|4,0:0|0:0|0:0,3:0:0:0:
309,261,34772,1,8,0:0:0:0:
172,308,35113,1,0,0:0:0:0:
172,308,35283,1,0,0:0:0:0:
172,308,35454,6,0,P|201:268|225:200,1,110.000003356934,2|0,0:0|0:0,0:0:0:0:
228,172,35965,1,0,0:0:0:0:
224,132,36136,2,0,L|281:225,1,110.000003356934,8|0,0:0|0:0,0:0:0:0:
465,249,36817,2,0,L|408:156,1,110.000003356934,0|4,0:0|0:0,0:0:0:0:
320,44,37499,1,8,0:0:0:0:
316,72,37670,1,0,0:0:0:0:
304,96,37840,1,0,0:0:0:0:
288,116,38011,1,0,0:0:0:0:
264,128,38181,5,2,0:0:0:0:
132,180,38522,1,0,0:0:0:0:
132,180,38692,1,0,0:0:0:0:
132,180,38863,2,0,P|60:156|4:156,2,110.000003356934,8|0|0,0:0|0:0|0:0,0:0:0:0:
52,60,39886,1,4,0:0:0:0:
100,268,40227,1,8,0:0:0:0:
252,256,40567,1,0,0:0:0:0:
292,260,40738,1,0,0:0:0:0:
328,272,40908,5,2,0:0:0:0:
440,360,41249,2,0,L|452:304,1,55.0000016784668
415,198,41590,2,0,L|404:252,1,55.0000016784668,8|0,0:0|0:0,0:0:0:0:
392,288,41931,1,0,0:0:0:0:
352,120,42272,1,0,0:0:0:0:
216,72,42613,2,0,L|176:136,1,55.0000016784668,4|0,0:0|0:0,0:0:0:0:
116,116,42954,2,0,L|132:189,1,55.0000016784668,8|0,0:0|0:0,0:0:0:0:
116,240,43295,2,0,L|69:210,2,55.0000016784668,0|0|2,0:0|0:0|0:0,0:0:0:0:
228,332,43977,6,0,L|256:280,1,55.0000016784668
316,324,44317,2,0,L|372:307,1,55.0000016784668,8|0,0:0|0:0,0:0:0:0:
404,296,44658,1,0,0:0:0:0:
288,116,44999,1,0,0:0:0:0:
420,168,45340,1,4,0:0:0:0:
172,200,45681,1,8,0:0:0:0:
148,60,46022,1,2,0:0:0:0:
148,60,46192,1,2,0:0:0:0:
148,60,46363,6,0,B|232:40|232:40|272:44|272:44|312:32,2,165.000005035401,6|0|0,0:0|0:0|0:0,0:0:0:0:
360,92,47727,2,0,L|255:126,1,110.000003356934,0|4,0:0|0:0,0:0:0:0:
160,320,48408,1,8,0:0:0:0:
123,180,48749,2,0,P|178:177|229:197,1,110.000003356934,0|2,0:0|0:0,0:0:0:0:
384,348,49431,5,0,0:0:0:0:
372,312,49602,1,0,0:0:0:0:
372,272,49772,1,8,0:0:0:0:
416,136,50113,2,0,B|304:148|304:148|240:124,2,165.000005035401,0|0|8,0:0|2:0|0:0,0:0:0:0:
227,243,51477,1,0,0:0:0:0:
227,243,51818,6,0,B|160:256|160:256|121:273,1,110.000003356934,2|0,0:0|0:0,0:0:0:0:
56,68,52499,1,8,0:0:0:0:
192,112,52840,2,0,P|252:116|312:96,2,110.000003356934,0|0|4,0:0|0:0|0:0,0:0:0:0:
62,80,53863,1,8,0:0:0:0:
128,208,54204,2,0,P|167:253|224:281,1,110.000003356934,0|2,0:0|0:0,0:0:0:0:
364,312,54886,6,0,L|248:360,1,110.000003356934,0|8,0:0|0:0,0:0:0:0:
440,352,55567,2,0,L|476:128,1,220.000006713867,0|4,0:0|0:0,0:0:0:0:
260,128,56590,1,8,0:0:0:0:
402,142,56931,2,0,P|389:170|369:192,1,55.0000016784668
340,207,57272,5,2,0:0:0:0:
202,246,57613,1,0,0:0:0:0:
60,226,57954,2,0,L|67:335,1,110.000003356934,8|0,0:0|0:0,0:0:0:0:
193,172,58636,2,0,L|185:52,1,110.000003356934,0|4,0:0|0:0,0:0:0:0:
284,164,59317,1,8,0:0:0:0:
304,184,59488,1,0,0:0:0:0:
328,200,59658,1,0,0:0:0:0:
356,208,59829,1,0,0:0:0:0:
384,208,59999,6,0,P|324:224|275:252,1,110.000003356934,2|0,0:0|0:0,0:0:0:0:
231,380,60681,1,8,0:0:0:0:
160,260,61022,2,0,B|232:168|232:168|280:144,2,165.000005035401,0|0|8,0:0|2:0|0:0,0:0:0:0:
308,232,62386,1,0,0:0:0:0:
471,184,62727,5,2,0:0:0:0:
442,352,63067,1,0,0:0:0:0:
300,360,63408,2,0,L|168:368,2,110.000003356934,8|0|0,0:0|0:0|0:0,0:0:0:0:
212,248,64431,2,0,L|102:254,1,110.000003356934,4|8,0:0|0:0,0:0:0:0:
196,148,65113,2,0,L|305:141,1,110.000003356934,0|2,0:0|0:0,0:0:0:0:
448,136,65795,5,0,0:0:0:0:
368,336,66136,1,8,0:0:0:0:
296,212,66477,2,0,P|216:248|192:276,1,110.000003356934
68,312,67158,1,4,0:0:0:0:
72,272,67329,1,8,0:0:0:0:
76,236,67499,1,8,0:0:0:0:
80,196,67670,1,0,0:0:0:0:
84,160,67840,1,8,0:3:0:0:
100,16,68181,6,0,P|144:76|200:104,1,110.000003356934,6|0,0:0|0:0,0:0:0:0:
208,108,68692,1,0,0:0:0:0:
248,116,68863,2,0,L|196:196,2,73.3333355712891,8|0|0,0:0|0:0|0:0,0:0:0:0:
360,184,69545,2,0,L|388:304,1,110.000003356934,0|4,0:0|0:0,0:0:0:0:
228,204,70227,1,8,0:0:0:0:
204,188,70397,1,0,0:0:0:0:
176,180,70567,1,0,0:0:0:0:
148,176,70738,1,0,0:0:0:0:
120,176,70908,6,0,L|209:111,1,110.000003356934,2|0,0:0|0:0,0:0:0:0:
232,97,71419,1,0,0:0:0:0:
256,85,71590,2,0,P|284:107|320:112,2,73.3333355712891,8|0|0,0:0|0:0|0:0,0:0:0:0:
415,111,72272,2,0,P|440:160|448:214,1,110.000003356934,0|4,0:0|0:0,3:0:0:0:
320,218,72954,2,0,P|289:263|247:298,1,110.000003356934,8|0,0:0|0:0,3:0:0:0:
232,156,73636,6,0,P|172:152|107:122,1,110.000003356934,2|0,0:0|0:0,0:0:0:0:
92,112,74147,1,0,0:0:0:0:
64,84,74317,2,0,L|67:157,2,73.3333355712891,8|0|0,0:0|0:0|0:0,0:0:0:0:
72,252,74999,1,0,0:0:0:0:
276,184,75340,1,4,0:0:0:0:
184,292,75681,1,8,0:0:0:0:
208,308,75851,1,0,0:0:0:0:
236,316,76022,1,0,0:0:0:0:
264,320,76192,1,0,0:0:0:0:
292,320,76363,6,0,P|352:300|396:240,1,110.000003356934,2|0,0:0|0:0,0:0:0:0:
396,244,76874,1,0,0:0:0:0:
404,216,77045,2,0,L|435:298,2,73.3333355712891,8|0|0,0:0|0:0|0:0,0:0:0:0:
310,194,77727,2,0,P|295:138|328:68,1,110.000003356934,0|4,0:0|0:0,0:0:0:0:
170,57,78408,1,8,0:0:0:0:
112,188,78749,1,0,0:0:0:0:
112,188,78919,1,0,0:0:0:0:
112,188,79090,6,0,P|132:252|128:308,1,110.000003356934,2|0,0:0|0:0,0:0:0:0:
120,332,79601,1,0,0:0:0:0:
100,364,79772,2,0,L|171:348,2,73.3333355712891,8|0|0,0:0|0:0|0:0,0:0:0:0:
220,256,80454,2,0,L|224:128,1,110.000003356934,0|4,0:0|0:0,0:0:0:0:
324,32,81135,1,8,0:0:0:0:
332,60,81306,1,0,0:0:0:0:
348,84,81476,1,0,0:0:0:0:
368,104,81647,1,0,0:0:0:0:
392,116,81817,5,2,0:0:0:0:
253,151,82158,1,0,0:0:0:0:
219,170,82328,1,0,0:0:0:0:
193,199,82499,2,0,P|176:239|182:276,2,73.3333355712891,8|0|0,0:0|0:0|0:0,0:0:0:0:
47,169,83181,1,0,0:0:0:0:
64,312,83522,1,4,0:0:0:0:
124,136,83863,1,8,0:0:0:0:
248,64,84203,1,0,0:0:0:0:
284,56,84374,1,0,0:0:0:0:
323,56,84545,6,0,P|377:64|424:93,1,110.000003356934,2|0,0:0|0:0,0:0:0:0:
452,120,85056,1,0,0:0:0:0:
476,152,85227,2,0,L|496:64,2,73.3333355712891,8|0|0,0:0|0:0|0:0,0:0:0:0:
384,184,85908,2,0,L|359:291,1,110.000003356934,0|4,0:0|0:0,0:0:0:0:
244,228,86590,1,8,0:0:0:0:
216,236,86762,1,0,0:0:0:0:
188,236,86931,1,0,0:0:0:0:
160,228,87102,1,0,0:0:0:0:
140,212,87272,6,0,P|81:233|48:273,1,110.000003356934,2|0,0:0|0:0,0:0:0:0:
41,293,87783,1,0,0:0:0:0:
37,320,87954,2,0,L|0:256,2,73.3333355712891,8|0|0,0:0|0:0|0:0,0:0:0:0:
9,161,88636,1,0,0:0:0:0:
124,42,88977,1,4,0:0:0:0:
143,60,89147,1,0,0:0:0:0:
146,87,89317,1,2,0:0:0:0:
140,114,89488,2,0,P|111:115|85:122,1,55.0000016784668
72,160,89829,1,2,0:0:0:0:
72,160,89999,6,0,B|92:244|92:244|88:284|88:284|100:324,2,165.000005035401,6|0|0,0:0|0:0|0:0,0:0:0:0:
188,296,91363,2,0,L|201:186,1,110.000003356934,0|4,0:0|0:0,0:0:0:0:
380,236,92045,1,8,0:0:0:0:
380,236,92386,2,0,L|337:134,1,110.000003356934,0|2,0:0|0:0,0:0:0:0:
264,256,93067,5,0,0:0:0:0:
228,240,93237,1,0,0:0:0:0:
188,232,93408,1,8,0:0:0:0:
44,240,93749,2,0,B|68:180|36:136|36:136|64:72,2,165.000005035401,0|0|8,0:0|2:0|0:0,0:0:0:0:
168,156,95113,1,0,0:0:0:0:
168,156,95454,6,0,P|208:112|260:88,1,110.000003356934,2|0,0:0|0:0,0:0:0:0:
120,33,96136,1,4,0:0:0:0:
292,92,96477,2,0,L|420:112,2,110.000003356934,0|0|4,0:0|0:0|0:0,0:0:0:0:
156,112,97499,1,8,0:0:0:0:
64,212,97840,2,0,P|100:264|108:328,1,110.000003356934,0|2,0:0|0:0,0:0:0:0:
240,252,98522,6,0,P|302:263|353:302,1,110.000003356934,0|8,0:0|0:0,0:0:0:0:
460,368,99204,2,0,L|496:144,1,220.000006713867,0|4,0:0|0:0,0:0:0:0:
360,100,100227,1,8,0:0:0:0:
360,100,100568,2,0,L|316:160,1,55.0000016784668
304,176,100908,5,2,0:0:0:0:
396,256,101249,1,0,0:0:0:0:
184,275,101590,2,0,P|131:289|85:320,1,110.000003356934,8|0,0:0|0:0,0:0:0:0:
184,187,102272,2,0,P|193:133|178:80,1,110.000003356934,0|4,3:0|0:0,0:0:0:0:
328,151,102953,1,8,0:0:0:0:
355,142,103124,1,0,0:0:0:0:
372,121,103295,1,0,0:0:0:0:
377,95,103465,1,0,0:0:0:0:
372,68,103636,6,0,L|262:60,1,110.000003356934,2|0,0:0|0:0,0:0:0:0:
400,196,104317,1,8,0:0:0:0:
218,304,104658,2,0,B|305:314|305:314|338:333|338:333|380:336,2,165.000005035401,0|0|8,0:0|2:0|0:0,0:0:0:0:
76,296,106022,1,0,0:0:0:0:
272,204,106363,5,2,0:0:0:0:
136,164,106704,1,0,0:0:0:0:
271,119,107045,2,8,P|325:126|376:161,2,110.000003356934,0|0|0,0:0|0:0|0:0,0:0:0:0:
400,320,108067,2,0,L|451:222,1,110.000003356934,4|8,0:0|0:0,0:0:0:0:
316,267,108749,2,0,P|272:301|219:312,1,110.000003356934,0|2,0:0|0:0,0:0:0:0:
392,144,109431,5,0,0:0:0:0:
400,320,109772,1,8,0:0:0:0:
320,147,110113,2,0,P|267:158|224:192,1,110.000003356934,0|0,0:0|0:0,0:0:0:0:
120,288,110794,1,4,0:0:0:0:
116,248,110965,1,8,0:0:0:0:
108,212,111135,1,8,0:0:0:0:
60,76,111476,1,2,0:0:0:0:
60,76,111647,1,2,0:0:0:0:
60,76,111817,6,0,B|156:88|156:88|180:80|180:80|222:86,2,165.000005035401,6|0|0,0:0|0:0|0:0,0:0:0:0:
290,23,113181,2,0,P|313:73|303:126,1,110.000003356934,0|4,0:0|0:0,0:0:0:0:
240,260,113862,1,8,0:0:0:0:
445,207,114204,2,0,L|356:272,1,110.000003356934,0|2,0:0|0:0,0:0:0:0:
220,232,114885,5,0,0:0:0:0:
204,196,115056,1,0,0:0:0:0:
200,156,115226,1,8,0:0:0:0:
344,172,115567,2,0,B|452:192|452:192|520:168,2,165.000005035401,0|0|8,0:0|2:0|0:0,0:0:0:0:
172,93,116931,1,0,0:0:0:0:
152,72,117272,6,0,P|143:134|112:176,1,110.000003356934,2|0,0:0|0:0,0:0:0:0:
8,80,117953,1,8,0:0:0:0:
80,204,118295,2,0,P|133:192|175:158,2,110.000003356934,0|0|4,0:0|0:0|0:0,0:0:0:0:
192,80,119317,1,8,0:0:0:0:
288,184,119658,2,0,L|313:290,1,110.000003356934,0|2,0:0|0:0,0:0:0:0:
416,116,120340,6,0,L|388:0,1,110.000003356934,0|8,0:0|0:0,0:0:0:0:
280,100,121022,2,0,P|176:172|80:180,1,220.000006713867,0|4,0:0|0:0,0:0:0:0:
312,200,122045,1,8,0:0:0:0:
120,216,122385,2,0,L|176:256,1,55.0000016784668
200,272,122727,5,2,0:0:0:0:
340,296,123067,1,0,0:0:0:0:
472,244,123408,2,0,P|479:189|475:135,1,110.000003356934,8|0,0:0|0:0,0:0:0:0:
332,156,124090,2,0,P|299:111|257:76,1,110.000003356934,0|4,0:0|0:0,0:0:0:0:
376,76,124771,1,8,0:0:0:0:
404,80,124942,1,0,0:0:0:0:
432,80,125113,1,0,0:0:0:0:
460,76,125283,1,0,0:0:0:0:
480,60,125454,6,0,L|464:192,1,110.000003356934,2|0,0:0|0:0,0:0:0:0:
256,220,126136,1,8,0:0:0:0:
388,276,126477,2,0,B|280:300|280:300|224:348,2,165.000005035401,0|0|8,0:0|2:0|0:0,0:0:0:0:
416,136,127840,1,0,0:0:0:0:
312,40,128181,5,2,0:0:0:0:
184,104,128521,1,0,0:0:0:0:
216,244,128863,2,0,L|88:272,2,110.000003356934,8|0|0,0:0|0:0|0:0,0:0:0:0:
360,232,129886,2,0,L|337:339,1,110.000003356934,4|8,0:0|0:0,0:0:0:0:
460,268,130567,2,0,L|482:160,1,110.000003356934,0|2,0:0|0:0,0:0:0:0:
375,256,131249,5,0,0:0:0:0:
232,263,131590,1,8,0:0:0:0:
224,120,131931,2,0,P|252:72|300:40,1,110.000003356934
440,40,132613,1,4,0:0:0:0:
436,80,132783,1,8,0:0:0:0:
432,120,132953,1,8,0:0:0:0:
428,160,133124,1,8,0:0:0:0:
424,200,133295,1,8,0:3:0:0:
412,344,133636,5,4,0:0:0:0:
256,192,149999,12,8,154772,0:0:0:0:
112,104,155454,5,6,0:0:0:0:
244,156,155795,1,0,0:0:0:0:
244,156,155965,1,0,0:0:0:0:
244,156,156136,2,0,P|214:200|157:237,1,110.000003356934,8|0,0:0|0:0,0:0:0:0:
360,240,156817,2,0,P|406:196|432:136,1,110.000003356934,0|4,0:0|0:0,0:0:0:0:
444,294,157499,2,0,P|397:323|344:335,1,110.000003356934,8|0,0:0|0:0,0:0:0:0:
216,272,158181,6,0,P|191:218|128:168,1,110.000003356934,2|0,0:0|0:0,0:0:0:0:
296,212,158863,2,0,P|344:112|408:84,1,165.000005035401,8|0,0:0|0:0,0:0:0:0:
428,84,159545,2,0,L|288:64,1,110.000003356934,0|4,0:0|0:0,0:0:0:0:
176,56,160227,2,0,L|180:132,1,55.0000016784668,8|0,0:0|0:0,0:0:0:0:
236,152,160567,2,0,L|185:208,1,55.0000016784668
140,236,160908,5,2,0:0:0:0:
284,232,161249,1,0,0:0:0:0:
428,228,161590,1,8,0:0:0:0:
143,198,162272,6,0,L|250:221,1,110.000003356934,0|4,0:0|0:0,0:0:0:0:
392,252,162954,1,8,0:0:0:0:
157,163,163636,6,0,P|152:108|172:40,2,110.000003356934,2|0|8,0:0|0:0|0:0,0:0:0:0:
256,268,164658,1,0,0:0:0:0:
392,232,164999,1,0,0:0:0:0:
336,100,165340,1,4,0:0:0:0:
239,203,165681,2,0,P|274:245|325:265,1,110.000003356934,8|0,0:0|0:0,0:0:0:0:
112,268,166363,5,6,0:0:0:0:
220,176,166704,1,0,0:0:0:0:
220,176,166874,1,0,0:0:0:0:
220,176,167045,2,0,P|240:112|236:40,1,110.000003356934,8|0,0:0|0:0,0:0:0:0:
432,124,167727,2,0,P|380:112|332:68,1,110.000003356934,0|4,0:0|0:0,0:0:0:0:
380,212,168408,2,0,P|340:248|321:310,1,110.000003356934,8|0,0:0|0:0,0:0:0:0:
178,308,169090,6,0,L|166:180,1,110.000003356934,2|0,0:0|0:0,0:0:0:0:
24,35,169772,2,0,L|40:200,1,165.000005035401,8|0,0:0|0:0,0:0:0:0:
48,240,170454,2,0,P|80:192|124:164,1,110.000003356934,0|4,0:0|0:0,0:0:0:0:
264,144,171136,2,0,L|221:109,1,55.0000016784668,8|0,0:0|0:0,0:0:0:0:
316,96,171477,2,0,L|361:157,1,55.0000016784668
380,204,171817,5,2,0:0:0:0:
268,292,172158,1,0,0:0:0:0:
124,284,172499,1,8,0:0:0:0:
372,132,173181,5,0,0:0:0:0:
252,208,173522,1,4,0:0:0:0:
108,184,173863,1,8,0:0:0:0:
372,132,174545,6,0,P|416:188|428:236,2,110.000003356934,2|0|8,0:0|0:0|0:0,0:0:0:0:
53,91,175908,6,0,P|71:143|108:184,1,110.000003356934,0|4,0:0|0:0,0:0:0:0:
140,208,176420,1,8,0:0:0:0:
176,224,176590,1,8,0:0:0:0:
212,232,176761,1,8,0:0:0:0:
252,232,176931,1,8,0:3:0:0:
396,216,177272,6,0,B|344:312|344:312|284:324,2,165.000005035401,6|0|0,0:0|0:0|0:0,0:0:0:0:
356,76,178636,2,0,P|304:28|240:28,1,110.000003356934,0|4,0:0|0:0,0:0:0:0:
140,84,179317,1,8,0:0:0:0:
280,240,179658,2,0,L|264:132,1,110.000003356934,0|2,0:0|0:0,0:0:0:0:
368,228,180340,5,0,0:0:0:0:
372,268,180511,1,0,0:0:0:0:
376,308,180681,1,8,0:0:0:0:
236,340,181022,2,0,B|152:356|152:356|112:343|112:343|52:352,2,165.000005035401,0|0|8,0:0|2:0|0:0,0:0:0:0:
160,262,182386,1,0,0:0:0:0:
124,160,182727,6,0,B|116:92|160:48,1,110.000003356934,2|0,0:0|0:0,0:0:0:0:
30,25,183408,1,8,0:0:0:0:
224,44,183749,2,0,L|344:28,2,110.000003356934,0|0|4,0:0|0:0|0:0,0:0:0:0:
124,160,184772,1,8,0:0:0:0:
124,160,185113,2,0,L|244:144,1,110.000003356934,0|2,0:0|0:0,0:0:0:0:
376,136,185795,6,0,P|344:188|336:252,1,110.000003356934,0|8,0:0|0:0,0:0:0:0:
264,360,186476,2,0,P|212:264|100:216,1,220.000006713867,0|4,0:0|0:0,0:0:0:0:
212,112,187499,1,8,0:0:0:0:
344,60,187840,2,0,L|324:124,1,55.0000016784668
316,148,188181,5,2,0:0:0:0:
268,284,188522,1,0,0:0:0:0:
212,156,188863,2,0,P|180:104|144:68,1,110.000003356934,8|0,0:0|0:0,0:0:0:0:
336,104,189545,2,0,P|402:112|459:90,1,110.000003356934,0|4,0:0|0:0,0:0:0:0:
392,236,190227,1,8,0:0:0:0:
380,260,190397,1,0,0:0:0:0:
368,284,190567,1,0,0:0:0:0:
356,308,190738,1,0,0:0:0:0:
344,332,190908,6,0,P|320:280|272:248,1,110.000003356934,2|0,0:0|0:0,0:0:0:0:
68,214,191590,1,8,0:0:0:0:
212,212,191931,2,0,B|284:116|284:116|332:96,2,165.000005035401,0|0|8,0:0|2:0|0:0,0:0:0:0:
132,332,193295,1,0,0:0:0:0:
332,252,193636,5,2,0:0:0:0:
204,80,193977,1,0,0:0:0:0:
328,128,194317,2,0,L|437:121,2,110.000003356934,8|0|0,0:0|0:0|0:0,0:0:0:0:
122,238,195340,2,0,L|232:232,1,110.000003356934,4|8,0:0|0:0,0:0:0:0:
376,224,196022,2,0,P|325:203|287:163,1,110.000003356934,0|2,0:0|0:0,0:0:0:0:
240,28,196704,5,0,0:0:0:0:
192,236,197045,1,8,0:0:0:0:
212,96,197386,2,0,P|152:148|108:160,1,110.000003356934
48,264,198067,1,4,0:0:0:0:
84,268,198237,1,8,0:0:0:0:
124,272,198408,1,8,0:0:0:0:
160,276,198578,1,8,0:0:0:0:
200,280,198749,1,4,0:3:0:0:
112,138,199090,5,6,0:0:0:0:
348,132,199431,1,0,0:0:0:0:
348,132,199601,1,0,0:0:0:0:
348,132,199772,2,0,L|242:163,1,110.000003356934,8|0,0:0|0:0,0:0:0:0:
444,136,200454,2,0,P|416:192|420:260,1,110.000003356934,0|4,0:0|0:0,0:0:0:0:
332,356,201136,2,0,L|288:240,1,110.000003356934,8|0,0:0|0:0,0:0:0:0:
224,128,201817,6,0,P|200:188|156:228,1,110.000003356934,2|0,0:0|0:0,3:0:0:0:
72,324,202499,2,0,L|240:300,1,165.000005035401,8|0,0:0|0:0,0:0:0:0:
276,288,203181,2,0,L|168:268,1,110.000003356934,0|4,0:0|0:0,0:0:0:0:
76,156,203863,2,0,L|44:110,1,55.0000016784668,8|0,0:0|0:0,0:0:0:0:
148,144,204204,2,0,L|159:81,1,55.0000016784668
176,20,204544,5,2,0:0:0:0:
312,64,204885,1,0,0:0:0:0:
392,184,205226,1,8,0:0:0:0:
116,260,205908,2,0,L|200:180,1,110.000003356934,0|4,0:0|0:0,0:0:0:0:
296,80,206590,1,8,0:0:0:0:
236,304,207272,6,0,P|200:352|156:380,2,110.000003356934,2|0|8,0:0|0:0|0:0,0:0:0:0:
288,172,208294,1,0,0:0:0:0:
408,352,208636,1,0,0:0:0:0:
416,208,208976,1,4,0:0:0:0:
220,244,209317,2,0,L|88:232,1,110.000003356934,8|0,0:0|0:0,0:0:0:0:
112,104,209999,5,6,0:0:0:0:
244,52,210340,1,0,0:0:0:0:
244,52,210510,1,0,0:0:0:0:
244,52,210681,2,0,P|213:93|196:184,1,110.000003356934,8|0,0:0|0:0,0:0:0:0:
340,140,211363,2,0,P|347:190|399:267,1,110.000003356934,0|4,0:0|0:0,0:0:0:0:
440,344,212045,2,0,L|332:365,1,110.000003356934,8|0,0:0|0:0,0:0:0:0:
191,336,212726,6,0,P|211:284|211:230,1,110.000003356934,2|0,0:0|0:0,0:0:0:0:
340,300,213408,2,0,P|304:200|336:120,1,165.000005035401,8|0,0:0|0:0,0:0:0:0:
336,112,214090,2,0,L|248:180,1,110.000003356934,0|4,0:0|0:0,3:0:0:0:
104,176,214772,2,0,L|65:137,1,55.0000016784668,8|0,0:0|0:0,0:0:0:0:
132,112,215113,2,0,L|117:58,1,55.0000016784668,0|0,3:0|0:0,0:0:0:0:
188,64,215453,5,2,0:0:0:0:
276,176,215794,1,0,0:0:0:0:
424,188,216135,1,8,0:0:0:0:
140,156,216817,6,0,L|220:252,1,110.000003356934,0|4,0:0|0:0,0:0:0:0:
304,348,217499,1,8,0:0:0:0:
304,348,218181,6,0,P|324:296|384:256,2,110.000003356934,2|0|8,0:0|0:0|0:0,0:0:0:0:
204,244,219203,1,0,0:0:0:0:
72,184,219544,1,0,0:0:0:0:
288,184,219886,1,4,0:0:0:0:
324,176,220056,1,8,0:0:0:0:
360,156,220227,1,8,0:0:0:0:
388,128,220397,1,8,0:0:0:0:
408,96,220567,1,8,0:3:0:0:
480,200,220908,6,0,B|473:286|473:286|456:322|456:322|455:364,2,165.000005035401,6|0|0,0:0|0:0|0:0,3:0:0:0:
376,312,222272,2,0,L|340:204,1,110.000003356934,0|4,0:0|0:0,0:0:0:0:
256,92,222953,1,8,0:0:0:0:
256,92,223295,2,0,P|312:108|396:100,1,110.000003356934,0|2,0:0|0:0,0:0:0:0:
156,156,223977,5,0,0:0:0:0:
120,164,224148,1,0,0:0:0:0:
84,172,224317,1,4,0:0:0:0:
284,220,224658,2,0,B|393:197|393:197|446:204,2,165.000005035401,0|0|8,0:0|2:0|0:0,0:0:0:0:
96,179,226022,1,0,0:0:0:0:
84,164,226363,6,0,P|68:88|84:32,1,110.000003356934,2|0,0:0|0:0,0:0:0:0:
288,32,227045,1,8,0:0:0:0:
212,152,227386,2,0,P|160:172|92:168,2,110.000003356934,0|0|4,0:0|0:0|0:0,0:0:0:0:
336,84,228408,1,8,0:0:0:0:
464,20,228749,2,0,P|448:84|452:140,1,110.000003356934,0|2,0:0|0:0,0:0:0:0:
452,272,229431,6,0,P|416:232|356:192,1,110.000003356934,0|8,0:0|0:0,0:0:0:0:
284,88,230113,2,0,L|501:122,1,220.000006713867,0|4,0:0|0:0,0:0:0:0:
384,204,231135,1,8,0:0:0:0:
272,292,231476,2,0,P|248:312|232:332,1,55.0000016784668
216,364,231817,5,2,0:0:0:0:
192,224,232158,1,0,0:0:0:0:
168,84,232499,2,0,P|144:128|76:176,1,110.000003356934,8|0,0:0|0:0,0:0:0:0:
244,168,233181,2,0,P|286:194|369:201,1,110.000003356934,0|4,0:0|0:0,0:0:0:0:
472,140,233862,1,8,0:0:0:0:
468,112,234033,1,0,0:0:0:0:
456,88,234204,1,0,0:0:0:0:
436,68,234374,1,0,0:0:0:0:
412,52,234545,6,0,P|359:35|306:46,1,110.000003356934,2|0,0:0|0:0,0:0:0:0:
212,156,235226,1,8,0:0:0:0:
72,180,235567,2,0,B|55:61|55:61|12:4,2,165.000005035401,0|0|8,0:0|2:0|0:0,0:0:0:0:
176,368,236931,1,0,0:0:0:0:
200,112,237272,5,2,0:0:0:0:
276,232,237612,1,0,0:0:0:0:
364,344,237954,2,0,P|371:289|400:243,2,110.000003356934,8|0|0,0:0|0:0|0:0,0:0:0:0:
256,236,238977,2,0,L|146:242,1,110.000003356934,4|8,0:0|0:0,0:0:0:0:
276,92,239658,2,0,L|385:85,1,110.000003356934,0|2,0:0|0:0,0:0:0:0:
428,296,240340,5,0,0:0:0:0:
448,156,240681,1,8,0:0:0:0:
328,235,241022,2,0,P|277:257|223:261,1,110.000003356934
96,196,241703,1,4,0:0:0:0:
92,232,241873,1,8,0:0:0:0:
88,272,242044,1,8,0:0:0:0:
84,308,242214,1,8,0:0:0:0:
83,351,242385,1,8,0:3:0:0:
83,351,242727,5,6,0:0:0:0:
