osu file format v14

[General]
AudioFilename: Steven Universe - Intro Extended HD.mp3
AudioLeadIn: 0
PreviewTime: 117272
Countdown: 1
SampleSet: None
StackLeniency: 0.7
Mode: 0
LetterboxInBreaks: 1
WidescreenStoryboard: 1

[Editor]
DistanceSpacing: 0.8
BeatDivisor: 4
GridSize: 4
TimelineZoom: 1

[Metadata]
Title:Steven Universe Extended Theme Song
TitleUnicode:Steven Universe Extended Theme Song
Artist:Rebecca Sugar
ArtistUnicode:Rebecca Sugar
Creator:RdManebog
Version:Hard
Source:Cartoon Network
Tags:
BeatmapID:794299
BeatmapSetID:361528

[Difficulty]
HPDrainRate:5
CircleSize:4
OverallDifficulty:5
ApproachRate:5
SliderMultiplier:1.4
SliderTickRate:2

[Events]
//Background and Video events
0,0,"SU2.png",0,0
Video,0,"Steven_Universe_-_Intro_Extended_HD.avi"
//Break Periods
2,36816,47706
2,75362,95099
//Storyboard Layer 0 (Background)
//Storyboard Layer 1 (Fail)
//Storyboard Layer 2 (Pass)
//Storyboard Layer 3 (Foreground)
//Storyboard Sound Samples

[TimingPoints]
2444.68195590985,372.43947858473,4,1,0,100,1,0
23028,-100,4,2,0,100,0,0
23684,-100,4,1,0,100,0,0

[Colours]
Combo1 : 255,164,255
Combo2 : 155,0,78
Combo3 : 128,0,255
Combo4 : 255,218,168

[HitObjects]
160,64,2258,6,0,L|64:64,1,70
92,144,2630,1,0,0:0:0:0:
160,144,2816,1,0,0:0:0:0:
160,224,3003,2,0,L|76:224,1,70
88,304,3468,1,8,0:0:0:0:
172,304,3748,1,8,0:0:0:0:
260,304,4120,1,8,0:0:0:0:
260,212,4958,5,0,0:0:0:0:
336,188,5331,1,0,0:0:0:0:
368,104,5610,1,0,0:0:0:0:
288,60,5889,2,2,P|212:44|112:88,1,175
100,144,6448,2,8,P|76:184|104:236,1,105
172,232,6913,1,8,0:0:0:0:
260,228,7193,2,2,L|300:136,1,70
368,168,7565,2,8,L|336:256,1,70
448,112,8310,5,8,0:0:0:0:
400,48,8403,1,8,0:0:0:0:
312,48,8496,1,8,0:0:0:0:
216,56,8589,1,8,0:0:0:0:
128,88,8683,1,8,0:0:0:0:
72,168,8776,1,8,0:0:0:0:
104,248,8869,1,8,0:0:0:0:
192,260,9055,2,0,P|248:276|332:228,1,140
332,168,9707,2,2,P|416:132|464:156,1,140
444,244,10359,1,2,0:0:0:0:
360,284,10731,6,0,L|260:312,1,70
212,312,11197,2,2,L|140:280,1,70
116,216,11941,2,8,L|116:144,2,70
200,224,12593,1,8,0:0:0:0:
288,212,12872,2,8,P|324:160|312:72,1,140
248,80,13431,1,8,0:0:0:0:
164,80,13990,5,4,0:0:0:0:
72,88,15386,2,8,B|72:148|96:192|148:212,1,140
192,216,16038,2,0,P|236:184|280:224,1,105
296,288,16783,1,10,0:0:0:0:
300,280,18273,6,0,L|404:168,1,140
376,120,18832,2,0,P|296:84|252:128,1,140
176,140,19390,5,0,0:0:0:0:
144,100,19670,1,0,0:0:0:0:
100,108,21252,6,0,L|80:180,1,70
72,236,21625,2,0,L|152:252,1,70
208,264,22183,2,0,P|248:228|260:200,1,70
268,136,22742,1,0,0:0:0:0:
348,132,23301,6,4,P|404:156|416:200,1,105,4|2,0:0|0:0,0:0:0:0:
424,264,24139,6,8,L|340:312,1,70
272,284,24604,2,0,B|208:192|372:156|224:80,1,210
164,104,25535,1,0,0:0:0:0:
64,116,26653,6,8,P|80:188|136:208,1,140
188,216,27584,2,8,L|248:172,1,70
316,136,27956,1,8,0:0:0:0:
436,112,28608,6,4,B|372:192|476:240|336:316|296:240,2,245
396,84,31029,2,8,P|352:72|308:88,1,70
256,88,31401,2,8,L|272:172,7,70
448,136,32984,5,8,0:0:0:0:
424,220,33264,1,8,0:0:0:0:
388,292,33543,6,4,L|240:292,1,140
172,292,34102,1,4,0:0:0:0:
176,208,34753,6,2,P|136:144|164:72,1,140
216,84,35498,2,2,L|376:84,1,140
408,80,36243,6,8,L|456:168,1,70
436,216,36616,1,10,0:0:0:0:
112,136,48906,6,10,B|168:108|168:108|256:108,1,140
332,108,49465,2,0,P|416:112|468:60,1,140
468,152,50116,2,0,L|468:200,1,35
444,248,50489,2,0,P|364:280|200:240,1,245
164,228,52351,2,0,L|160:136,1,70
172,120,53003,2,0,L|236:112,4,35
232,56,54493,6,0,L|272:68,4,35
160,56,55144,1,0,0:0:0:0:
88,72,55703,6,0,P|88:148|144:208,1,140
240,196,56355,2,0,L|432:108,2,210
152,208,57658,2,0,P|128:152|156:72,1,140
212,60,58310,2,0,L|440:44,1,210
468,160,59800,6,0,P|400:256|248:268,1,280
204,204,60917,1,0,0:0:0:0:
144,152,61290,1,0,0:0:0:0:
124,80,61662,2,0,P|160:64|172:72,11,35
232,64,63059,6,0,P|268:88|312:88,1,70
352,88,63524,2,0,L|488:48,1,140
480,120,64176,2,0,L|452:164,8,35
400,104,65107,6,0,L|256:104,1,140
184,112,65666,2,0,L|184:184,1,70
180,236,66504,2,0,L|84:252,1,70
88,176,67062,2,0,L|84:128,8,35
96,252,68180,6,8,L|232:200,1,140
284,164,68832,2,2,P|336:96|328:64,1,105
332,48,69483,2,2,L|492:48,1,140
456,100,71066,6,8,P|452:136|432:152,7,35
376,160,72090,2,2,L|320:160,7,35
276,80,73859,6,0,P|152:68|56:104,1,210
220,316,74604,2,0,P|312:328|412:252,1,210
100,124,96299,6,0,P|228:72|392:88,1,280
468,248,97230,2,0,P|436:288|392:304,1,70
336,312,97882,2,0,P|284:328|272:328,8,35
216,336,98906,2,0,P|112:312|32:268,1,175
240,188,99651,2,0,P|224:128|264:56,1,140
228,136,100303,2,0,P|304:120|364:148,1,140
304,156,100954,2,0,P|308:212|232:264,1,140
124,40,101699,6,2,L|84:104,1,70
80,160,102258,2,2,P|168:168|236:136,1,140
212,84,102910,2,2,L|328:60,1,105
352,56,103655,1,8,0:0:0:0:
352,56,103748,1,8,0:0:0:0:
420,48,103934,2,2,P|456:136|436:204,1,140
412,240,104679,1,8,0:0:0:0:
340,288,104958,1,8,0:0:0:0:
248,296,105237,2,8,P|168:288|104:276,2,140
196,152,106727,6,0,P|280:120|392:164,1,210
476,228,107565,2,0,P|420:288|336:304,1,140
180,296,108217,2,0,P|92:196|80:76,1,245
156,92,109148,2,0,L|204:68,9,35
272,56,110452,2,8,P|352:60|408:112,1,140
396,180,111010,2,8,B|332:224|332:224|328:296,1,140
152,104,111941,6,2,B|72:156|168:208|168:208|88:268,1,210
188,296,112872,2,0,P|248:320|272:316,1,70
320,312,113245,2,8,L|320:168,1,140
348,116,114176,1,2,0:0:0:0:
360,116,114269,1,2,0:0:0:0:
372,116,114362,1,2,0:0:0:0:
388,116,114455,1,0,0:0:0:0:
400,116,114548,1,0,0:0:0:0:
408,116,114642,1,0,0:0:0:0:
464,188,114921,6,8,L|352:288,1,140
288,280,115666,2,8,P|208:248|140:200,1,140
152,128,116224,2,8,P|176:108|184:112,9,35
188,56,117621,6,0,P|272:88|340:196,1,210
424,176,118459,2,0,P|400:208|392:208,7,35
56,56,119483,5,0,0:0:0:0:
56,64,119576,1,0,0:0:0:0:
56,72,119670,1,0,0:0:0:0:
60,80,119763,1,0,0:0:0:0:
68,88,119856,1,0,0:0:0:0:
76,96,119949,1,0,0:0:0:0:
84,104,120042,1,0,0:0:0:0:
92,116,120135,1,0,0:0:0:0:
96,128,120228,1,0,0:0:0:0:
104,136,120321,1,0,0:0:0:0:
108,140,120414,1,0,0:0:0:0:
112,152,120507,1,0,0:0:0:0:
128,164,120601,1,0,0:0:0:0:
136,168,120694,1,0,0:0:0:0:
144,176,120787,1,0,0:0:0:0:
156,188,120880,2,0,P|192:208|216:204,11,35
156,72,122928,5,0,0:0:0:0:
240,72,123208,6,0,P|336:84|380:124,1,140
372,164,123859,6,0,P|312:196|232:208,1,140
264,148,124511,5,0,0:0:0:0:
184,192,125535,6,0,P|148:132|176:68,1,140
248,68,126094,2,0,L|420:72,1,140
452,80,126653,2,0,L|448:160,1,70
436,232,127211,2,8,P|372:252|296:260,3,140
280,184,128515,6,8,P|184:160|128:184,1,140
140,244,129074,2,2,P|160:276|188:280,5,35
208,308,130005,6,0,P|300:312|348:276,1,140
336,240,130656,2,8,P|340:152|268:108,1,175
208,116,131401,2,10,L|52:112,1,140
64,192,131960,2,10,L|120:248,1,70
160,248,133170,6,8,P|252:256|392:216,1,210
428,200,134102,2,8,B|468:148|468:148|456:116,1,70
420,104,134567,2,8,P|320:72|128:96,1,280
92,148,135498,2,4,B|60:224|120:308|308:320,1,315
408,308,137081,2,2,L|460:156,2,140
400,228,138757,6,8,P|320:188|256:184,1,140
180,188,139316,6,0,P|112:108|116:48,1,140
112,56,140154,1,0,0:0:0:0:
224,56,140712,6,2,B|340:80|364:168|316:224,1,210
440,168,142202,6,4,P|380:240|312:268,1,140
272,272,142761,1,4,0:0:0:0:
