osu file format v9

[General]
AudioFilename: Guide_You_Home.mp3
AudioLeadIn: 0
PreviewTime: 57945
Countdown: 0
SampleSet: Soft
StackLeniency: 0.7
Mode: 0
LetterboxInBreaks: 1
StoryFireInFront: 0

[Editor]
DistanceSpacing: 1.1
BeatDivisor: 4
GridSize: 8

[Metadata]
Title:Guide You Home
Artist:Rebecca Kneubuhl & Gabriel Mann
Creator:DragonSparta
Version:Guide You Home
Source:Legend of Spyro
Tags:i will die for you dawn of thedragon cynder malefor tracethekriken

[Difficulty]
HPDrainRate:7
CircleSize:5
OverallDifficulty:7
ApproachRate:7
SliderMultiplier:1.4
SliderTickRate:1

[Events]
//Background and Video events
0,0,"NoHItter Likes Pancakes XD.jpg"
//Break Periods
2,85519,89670
2,179645,187545
//Storyboard Layer 0 (Background)
//Storyboard Layer 1 (Fail)
//Storyboard Layer 2 (Pass)
//Storyboard Layer 3 (Foreground)
Sprite,Foreground,Centre,"SB\warning.png",320,240 F,0,56820,57007,0,1 M,0,57000,,320,184 F,0,57007,57195,1,0 F,0,57195,57382,0,1 F,0,57382,57570,1,0 F,0,57570,57757,0,1 F,0,57757,57945,1,0
Sprite,Foreground,Centre,"SB\warning.png",320,240 F,0,83820,84007,0,1 M,0,84007,,320,192 F,0,84007,84195,1,0 F,0,84195,84382,0,1 F,0,84382,84570,1,0 F,0,84570,84757,0,1 F,0,84757,84945,1,0
Sprite,Foreground,Centre,"SB\SPUP.png",320,240 F,0,56820,57007,0,1 M,0,57007,,320,300 F,0,57007,57195,1,0 F,0,57195,57382,0,1 F,0,57382,57570,1,0 F,0,57570,57757,0,1 F,0,57757,57945,1,0
Sprite,Foreground,Centre,"SB\SPDN.png",320,240 M,0,83820,,320,284 F,0,83820,84007,0,1 F,0,84007,84195,1,0 F,0,84195,84382,0,1 F,0,84382,84570,1,0 F,0,84570,84757,0,1 F,0,84757,84945,1,0
Sprite,Foreground,Centre,"SB\warning.png",320,240 F,0,121695,121882,0,1 F,0,121882,122070,1,0 M,0,122070,,320,346 F,0,122070,122257,0,1 F,0,122257,122445,1,0 F,0,122445,122632,0,1 F,0,122632,122820,1,0
Sprite,Foreground,Centre,"SB\SPUP.png",320,240 M,0,121695,,320,421 F,0,121695,121882,0,1 F,0,121882,122070,1,0 F,0,122070,122257,0,1 F,0,122257,122445,1,0 F,0,122445,122632,0,1 F,0,122632,122820,1,0
Sprite,Foreground,Centre,"SB\warning.png",320,240 M,0,168945,,320,388 F,0,168945,169132,0,1 F,0,169132,169320,1,0 F,0,169320,169507,0,1 F,0,169507,169695,1,0 F,0,169695,169882,0,1 F,0,169882,170070,1,0 F,0,170070,170257,0,1 F,0,170257,170445,1,0
Sprite,Foreground,Centre,"SB\SPDN.png",320,240 M,0,168945,,320,449 F,0,168945,169132,0,1 F,0,169132,169320,1,0 F,0,169320,169507,0,1 F,0,169507,169695,1,0 F,0,169695,169882,0,1 F,0,169882,170070,1,0 F,0,170070,170257,0,1 F,0,170257,170445,1,0
Sprite,Foreground,Centre,"SB\warning.png",320,240 M,0,186945,,320,209 F,0,186945,187132,0,1 F,0,187132,187320,1,0 F,0,187320,187507,0,1 F,0,187507,187695,1,0 F,0,187695,187882,0,1 F,0,187882,188070,1,0 F,0,188070,188257,0,1 F,0,188257,188445,1,0
Sprite,Foreground,Centre,"SB\SPUP.png",320,240 M,0,186945,,320,285 F,0,186945,187132,0,1 F,0,187132,187320,1,0 F,0,187320,187507,0,1 F,0,187507,187695,1,0 F,0,187695,187882,0,1 F,0,187882,188070,1,0 F,0,188070,188257,0,1 F,0,188257,188445,1,0
//Storyboard Sound Samples
//Background Colour Transformations
3,100,0,0,0

[TimingPoints]
570,375,3,2,0,51,1,0
55695,-100,3,2,0,29,0,0
57945,-66.6666666666667,3,1,0,73,0,1
84945,-133.333333333333,3,1,0,31,0,1
85320,-100,3,2,0,29,0,0
119820,-133.333333333333,3,2,0,29,0,0
123195,-133.333333333333,3,2,0,51,0,0
125445,-66.6666666666667,3,1,0,78,0,1
152445,-66.6666666666667,3,2,0,60,0,0
170445,-133.333333333333,3,2,0,32,0,0
188445,-66.6666666666667,3,1,0,70,0,1
233070,-66.6666666666667,3,2,0,77,0,0
241320,-133.333333333333,3,2,0,31,0,0
249195,428.571428571429,3,2,0,31,1,0
252195,-100,3,2,0,0,0,1
252302,-100,3,2,0,0,0,0

[Colours]
Combo1 : 128,0,0
Combo2 : 128,0,128
Combo3 : 0,0,128
Combo4 : 0,64,0

[HitObjects]
80,192,23070,5,2
160,192,23257,1,0
240,192,23445,1,2
320,192,23632,1,0
400,192,23820,1,2
480,192,24007,1,0
480,272,24195,6,2,B|448:352|344:352,1,140
336,280,24757,2,0,B|256:256|176:288,1,140
168,352,25320,2,2,B|96:344|48:264,1,140
56,200,25882,2,0,B|56:56,1,140
144,40,26445,5,2
224,64,26632,1,0
304,96,26820,1,2
224,120,27007,1,0
144,152,27195,1,2
224,184,27382,1,0
296,224,27570,1,2
256,352,27945,5,2
256,32,28320,1,2
24,192,28695,6,2,B|88:152|160:192,1,140
240,192,29257,1,0
328,192,29445,1,2
416,192,29632,1,0
496,192,29820,2,2,B|496:104|424:64,1,140
352,64,30382,2,0,B|280:104|192:64,1,140
136,72,30945,2,2,B|96:144|112:216,2,140
184,144,31882,5,0
184,144,31976,1,0
184,144,32070,2,2,B|184:240|280:256,2,140
256,144,33007,1,0
328,144,33195,2,2,B|328:232|416:256,1,140
432,192,33757,2,0,B|432:120|368:72,1,140
320,16,34320,2,2,B|256:64|256:144,1,140
256,208,34882,1,0
216,272,35070,1,2
152,320,35257,1,0
80,296,35445,2,2,B|120:160|96:8,1,280
32,192,36570,5,0
256,32,36945,1,0
480,192,37320,1,0
32,192,37695,2,2,B|112:160|176:208,1,140
216,128,38257,2,0,B|256:192|208:288,1,140
296,232,38820,2,2,B|320:152|288:72,2,140
256,352,39945,5,8
336,304,40132,1,0
400,240,40320,1,0
464,184,40507,2,0,B|504:184,2,35
408,120,40882,1,0
336,64,41070,1,8
256,32,41257,5,0
176,72,41445,1,0
104,128,41632,1,0
48,192,41820,2,0,B|8:192,2,35
104,256,42195,1,8
176,312,42382,1,0
256,360,42570,2,0,B|256:264,2,70
256,248,43132,5,0
256,248,43226,1,0
256,248,43320,2,0,B|256:160|336:128,2,140,8|0|0
256,248,44445,2,0,B|256:160|168:136,2,140,8|0|0
32,40,45570,5,0
480,40,45945,1,2
256,136,46320,2,2,B|224:184|304:240|240:280,1,140
256,192,46788,12,0,48570
32,192,48757,5,0
32,192,48851,1,0
32,192,48945,2,0,B|104:192|128:288,2,140,8|0|0
80,120,49882,1,0
144,64,50070,2,8,B|208:24|288:64,1,140
336,112,50632,1,0
384,184,50820,1,0
384,272,51007,5,0
384,272,51101,1,0
384,272,51195,2,0,B|320:320|240:280,2,140,8|0|0
320,208,52132,1,0
400,152,52320,2,0,B|432:88|400:8,1,140,8|0
336,88,52882,2,0,B|272:120|192:88,1,140
136,32,53445,2,2,B|104:112|152:192,2,140,10|2|10
352,344,54570,2,2,B|384:272|344:192,2,140
256,32,55695,5,8
32,192,56070,1,8
256,352,56445,1,8
480,192,56820,1,8
256,192,57195,1,8
256,192,57570,1,8
256,192,57945,1,4
40,32,58320,6,2,B|16:96|48:168,1,104.999996870756
128,104,58695,2,0,B|152:160|128:208,1,104.999996870756
216,144,59070,2,0,B|192:88|216:32,1,104.999996870756
304,72,59445,1,0
376,144,59632,1,0
424,232,59820,1,2
456,328,60007,2,0,B|440:344|400:328,2,52.4999984353781,0|0|4
424,232,60382,5,0
424,232,60476,1,0
424,232,60570,2,2,B|416:128|256:104,1,209.999993741512
176,112,61132,1,0
120,192,61320,1,0
112,288,61507,1,0
120,192,61695,2,8,B|248:208|304:312,2,209.999993741512,8|8|4
96,88,62632,5,0
208,88,62820,2,2,B|208:200|352:256,1,209.999993741512
424,176,63382,2,0,B|416:72|304:16,1,209.999993741512
312,128,63945,1,0
344,232,64132,1,0
288,320,64320,1,0
184,288,64507,1,0
112,200,64695,2,8,B|104:64|224:32,2,209.999993741512
256,192,65820,6,0,B|400:192,1,104.999996870756
256,192,66195,2,0,B|256:72,1,104.999996870756
256,192,66570,2,0,B|256:248,4,52.4999984353781,0|0|0|0|4
32,192,67320,5,0
32,192,67507,1,0
32,192,67695,1,0
256,32,68070,5,4
192,96,68257,2,2,B|136:112|144:224,1,104.999996870756
256,216,68632,2,2,B|320:176|288:80,1,104.999996870756
376,88,69007,6,4,B|376:152,1,52.4999984353781,0|0
376,208,69195,2,2,B|392:264|328:344,1,104.999996870756
264,280,69570,2,2,B|248:216|312:176,1,104.999996870756
216,80,69945,6,0,B|216:144,2,52.4999984353781
128,80,70320,2,2,B|56:80|48:168,1,104.999996870756
112,216,70695,2,2,B|96:280|176:296,1,104.999996870756
256,280,71070,1,2
256,280,71257,1,2
376,264,71445,6,8,B|432:216|432:88|352:40,2,209.999993741512
136,256,72570,2,8,B|88:208|88:88|152:32,2,209.999993741512
256,32,73695,5,0
344,80,73882,1,0
400,168,74070,1,0
360,256,74257,1,0
256,296,74445,1,4
256,296,74820,5,0
144,256,75007,1,0
104,168,75195,1,0
168,80,75382,1,0
256,40,75570,1,4
256,192,75945,12,0,78195
256,352,78570,5,0
176,288,78757,1,0
112,192,78945,1,0
104,88,79132,1,0
184,136,79320,1,0
256,184,79507,1,0
256,88,79695,1,0
256,184,79882,2,0,B|256:256,2,52.4999984353781
256,184,80257,1,4
256,88,80445,6,2,B|352:112|376:192|360:272,1,209.999993741512
288,304,81007,1,0
184,280,81195,1,0
112,200,81382,1,0
176,112,81570,6,2,B|264:0|408:32,1,209.999993741512
432,104,82132,1,0
464,192,82320,1,0
432,288,82507,1,0
336,232,82695,2,0,B|272:192|208:264|96:208,1,209.999993741512
144,104,83257,5,0
240,48,83445,1,0
344,72,83632,1,0
416,152,83820,1,0
384,256,84007,1,0
320,152,84195,1,4
272,256,84382,1,0
224,152,84570,1,0
176,256,84757,1,0
120,160,84945,2,2,B|120:56,1,104.999996870756
40,192,90570,6,2,B|40:112|120:80,1,140
184,128,91132,1,0
184,216,91320,1,2
232,288,91507,1,0
312,336,91695,2,0,B|368:320|360:200,1,140,4|0
360,136,92257,2,0,B|416:136|448:144|448:248,1,140
432,304,92820,1,6
360,248,93007,1,0
272,248,93195,1,2
184,248,93382,1,0
96,248,93570,1,2
96,336,93757,1,0
24,280,93945,2,6,B|24:192|80:176|256:176,1,280,6|2
360,176,94882,5,0
360,176,94976,1,0
360,176,95070,2,2,B|360:344,2,140,6|2|2
360,96,96007,1,0
320,32,96195,6,2,B|272:88|320:192,1,140
384,216,96757,2,0,B|312:256|224:208,1,140
192,160,97320,2,2,B|144:224|200:304,1,140
104,280,97882,1,0
64,208,98070,1,6
80,128,98257,1,4
256,32,98632,2,0,B|392:32|448:112,1,210
256,352,99570,5,0
24,192,99945,1,0
480,192,100320,1,0
256,232,100695,6,2,B|256:160,2,70
336,232,101257,1,0
416,232,101445,2,2,B|488:232,2,70
416,152,102007,1,0
392,72,102195,1,2
320,40,102382,1,0
240,32,102570,1,2
168,64,102757,1,0
256,192,102945,12,0,104070
32,32,104445,5,8
480,32,104820,1,8
256,352,105195,1,8
256,32,105570,2,0,B|256:120,1,70
256,184,105945,1,0
256,184,106320,1,0
256,352,106695,5,0
256,352,106882,1,0
256,352,107070,1,0
256,32,107445,5,8
192,64,107632,1,0
128,96,107820,1,0
64,128,108007,2,0,B|64:168,2,35
256,32,108570,5,8
320,64,108757,1,0
384,96,108945,1,0
448,128,109132,2,0,B|448:168,2,35
256,352,109695,5,8
312,304,109882,1,0
376,272,110070,1,0
440,232,110257,1,0
440,232,110351,1,0
440,232,110445,1,0
256,352,110820,5,8
200,304,111007,1,0
136,272,111195,1,0
88,216,111382,1,0
88,216,111476,1,0
88,216,111570,1,0
256,24,111945,6,0,B|256:112,1,70,8|0
256,352,112320,2,0,B|256:272,1,70
480,192,112695,2,0,B|408:192,1,70
32,192,113070,2,0,B|120:192,1,70,8|0
256,192,113445,2,0,B|328:192,1,70
256,192,113820,2,0,B|184:192,1,70
256,360,114195,2,0,B|304:288|224:184|280:64,1,280,8|0
32,40,115320,5,0
472,40,115695,1,0
256,352,116070,1,0
256,192,116445,12,0,117570
96,104,117945,5,0
96,176,118132,1,0
144,232,118320,1,0
216,248,118507,1,0
288,256,118695,2,0,B|400:296|480:192|464:96,1,280,8|0
424,56,119632,5,0
352,80,119820,1,8
288,48,120007,1,0
216,56,120195,1,0
144,56,120382,1,0
96,112,120570,5,2
96,184,120757,1,2
160,152,120945,2,2,B|256:80|400:320|488:48|280:40|208:160|248:272|376:328|464:296,1,524.999984353781,2|6
256,192,123195,12,0,125445
144,64,125820,6,0,B|256:32|384:64,1,209.999993741512
328,152,126382,2,2,B|224:208|80:160,1,209.999993741512
104,288,126945,1,0
208,328,127132,1,0
320,320,127320,1,0
416,264,127507,2,2,B|448:280|448:336,2,52.4999984353781
424,152,127882,5,0
424,152,128070,2,0,B|384:48,2,104.999996870756
304,152,128632,1,0
200,152,128820,1,2
96,152,129007,1,0
24,240,129195,2,2,B|24:304,4,52.4999984353781
136,240,129757,2,8,B|272:240,1,104.999996870756,8|4
256,32,130320,6,0,B|256:176,1,104.999996870756
160,112,130695,2,8,B|32:136|24:296,2,209.999993741512
192,208,131632,1,0
256,320,131820,1,0
304,208,132007,1,0
248,48,132195,2,0,B|248:168,1,104.999996870756
408,96,132570,6,0,B|408:248,1,104.999996870756
304,152,132945,2,2,B|304:24,1,104.999996870756
200,104,133320,2,0,B|200:216,1,104.999996870756
96,192,133695,2,2,B|96:80,1,104.999996870756
96,272,134070,2,0,B|32:272,4,52.4999984353781,0|0|0|0|4
256,24,134820,5,2
256,352,135195,1,2
32,192,135570,5,4
112,120,135757,2,0,B|256:120,1,104.999996870756
112,256,136132,2,0,B|264:256,1,104.999996870756
344,192,136507,2,0,B|400:192,1,52.4999984353781
456,192,136695,5,4
384,120,136882,2,0,B|256:120,1,104.999996870756
384,272,137257,2,0,B|256:272,1,104.999996870756
168,192,137632,2,0,B|80:192,1,52.4999984353781
48,192,137820,5,4
96,304,138007,1,0
200,352,138195,1,0
256,240,138382,1,0
312,352,138570,1,0
416,304,138757,1,0
496,192,138945,2,0,B|496:128,8,52.4999984353781
400,160,139882,5,0
304,88,140070,1,8
304,208,140257,1,8
208,176,140445,2,8,B|208:296|96:336,1,209.999993741512
40,128,141195,6,8,B|144:48|272:40,1,209.999993741512
480,192,141945,1,8
40,248,142320,2,8,B|96:336|248:352,1,209.999993741512
328,296,142882,1,2
328,184,143070,1,8
328,80,143257,1,0
224,88,143445,2,8,B|168:184|232:288,6,209.999993741512
32,328,146070,5,0
136,328,146257,1,0
240,328,146445,1,0
328,280,146632,1,0
368,192,146820,1,4
360,96,147007,1,4
280,32,147195,5,0
184,40,147382,1,4
120,120,147570,1,4
128,216,147757,1,4
224,272,147945,2,8,B|256:160|208:16,2,209.999993741512
392,272,149070,2,8,B|360:144|400:24,2,209.999993741512
40,32,150195,5,0
248,160,150570,1,0
360,176,150757,1,0
456,216,150945,1,0
432,320,151132,1,0
320,320,151320,2,0,B|272:304|184:320,1,104.999996870756
120,240,151695,2,0,B|144:176|120:104,1,104.999996870756
32,120,152070,5,0
96,40,152257,1,0
192,56,152445,2,0,B|184:128|264:152,1,104.999996870756
344,160,152820,2,0,B|344:240|264:256,1,104.999996870756
208,312,153195,2,0,B|128:288|128:208,1,104.999996870756
80,152,153570,2,8,B|144:96|224:168|272:80,3,209.999993741512
456,312,155070,5,0
456,256,155163,1,0
456,200,155257,1,8
400,104,155445,1,0
288,56,155632,1,0
176,80,155820,1,8
256,192,156007,5,0
256,192,156195,2,0,B|392:192,2,104.999996870756
136,192,156757,1,4
16,192,156945,5,4
256,32,157320,1,4
480,192,157695,1,4
256,352,158070,1,4
256,192,158445,5,0
256,192,158632,1,0
256,192,158820,2,0,B|256:96,2,52.4999984353781
368,192,159195,6,0,B|368:344,3,104.999996870756
32,192,160320,2,0,B|32:48,3,104.999996870756
120,48,161070,6,0,B|184:48,3,52.4999984353781
240,48,161445,2,0,B|304:40|352:112,1,104.999996870756
424,112,161820,2,0,B|424:176|336:200,1,104.999996870756
304,256,162195,2,0,B|304:328|416:336,1,104.999996870756
416,232,162570,2,8,B|416:104|272:104,3,209.999993741512
56,96,164070,6,0,B|56:232,1,104.999996870756
160,224,164445,2,0,B|160:88,1,104.999996870756
280,112,164820,2,8,B|416:112|440:280,1,209.999993741512
328,280,165382,1,0
240,208,165570,1,0
168,120,165757,1,0
256,32,165945,5,8
32,192,166320,1,8
256,352,166695,1,8
480,192,167070,1,8
256,192,167445,1,0
256,192,167632,1,0
256,192,167820,2,0,B|256:128,2,52.4999984353781
256,96,168195,1,0
160,96,168382,1,0
80,40,168570,6,2,B|24:144|88:288,1,209.999993741512
192,280,169132,2,0,B|224:184|184:32,1,209.999993741512
304,48,169695,2,2,B|264:160|312:280,1,209.999993741512
480,192,170445,1,4
32,192,170820,6,0,B|32:80,2,104.999996870756
112,192,171945,1,0
192,192,172320,1,2
480,192,173070,6,0,B|480:296,2,104.999996870756
400,192,174195,1,0
328,192,174570,1,2
144,64,175320,6,2,B|256:40|360:64,1,209.999993741512
352,136,176445,1,2
352,224,176820,1,2
352,296,177195,2,2,B|264:328|144:296,2,209.999993741512,2|0|2
416,296,179070,1,2
416,296,179445,1,4
256,360,188445,5,4
128,176,188820,2,2,B|128:24|248:16,1,209.999993741512
336,64,189382,1,0
416,144,189570,1,0
408,248,189757,1,0
320,312,189945,1,0
216,288,190132,1,0
216,176,190320,1,4
424,160,191070,6,0,B|424:320|272:320,1,209.999993741512
216,288,191632,1,0
96,240,191820,1,0
64,128,192007,1,0
144,48,192195,1,0
256,32,192382,1,0
256,144,192570,1,4
480,176,193320,6,0,B|480:48,2,104.999996870756
256,352,194070,1,0
32,192,194445,1,0
256,32,194820,1,0
352,80,195007,1,0
424,152,195195,2,2,B|312:208|200:144,3,209.999993741512
112,136,196507,1,0
152,40,196695,1,0
256,32,196882,1,0
360,40,197070,2,4,B|360:184,1,104.999996870756
360,240,197445,1,4
40,352,197820,5,2
480,40,198195,1,2
64,104,198570,6,2,B|160:48|296:80,1,209.999993741512
480,192,199320,1,0
72,288,199695,2,0,B|168:336|288:320,1,209.999993741512
480,192,200445,1,0
64,192,200820,2,2,B|272:192,1,209.999993741512
480,192,201570,1,2
448,40,201945,2,2,B|208:40,1,209.999993741512
136,96,202507,1,0
64,192,202695,1,0
136,288,202882,1,0
208,192,203070,2,8,B|256:152|368:240|424:160,2,209.999993741512
320,112,204007,5,0
328,256,204195,2,4,B|464:232|464:64,2,209.999993741512
152,320,205320,2,6,B|8:304|8:144,2,209.999993741512
256,32,206445,1,4
88,192,206820,6,0,B|256:0|448:200,1,419.999987483025
152,336,207945,1,0
32,336,208132,1,8
88,192,209070,6,0,B|264:384|448:184,1,419.999987483025
184,48,210195,1,0
80,48,210382,1,8
32,192,211320,5,2
488,192,211695,1,2
32,192,212070,1,2
488,192,212445,1,2
488,192,212538,1,2
488,192,212632,1,2
256,192,213570,12,0,216195
72,24,216570,6,0,B|48:144|160:216,1,209.999993741512
240,176,217132,1,0
272,272,217319,1,0
360,320,217507,1,8
448,288,217695,6,8,B|488:184|424:80,1,209.999993741512
328,72,218257,1,0
240,40,218445,1,0
152,72,218632,1,0
64,112,218820,2,8,B|64:224|152:240|240:224,2,209.999993741512
448,192,219945,6,2,B|248:24|64:200,1,419.999987483025
256,352,221070,1,4
480,352,221445,5,2
32,32,221820,1,2
256,184,222195,5,0
256,184,222382,1,0
256,184,222570,1,0
256,32,222945,1,4
256,184,223320,5,0
256,184,223507,1,0
256,184,223695,1,0
256,360,224070,1,4
48,192,224445,6,0,B|48:80|184:32,2,209.999993741512
48,192,225570,2,0,B|48:304|192:360,2,209.999993741512
144,192,226507,1,0
240,192,226695,5,0
240,192,226788,1,0
240,192,226882,2,0,B|240:72,2,104.999996870756
336,192,227445,1,2
336,96,227632,1,0
336,192,227820,1,2
432,192,228007,1,2
432,192,228195,1,2
432,192,228382,1,2
432,192,228570,2,0,B|432:56,2,104.999996870756
32,32,229320,5,2
480,32,229695,1,2
256,360,230070,1,2
256,32,230445,2,0,B|256:264,2,209.999993741512,0|0|4
256,32,232320,1,4
40,192,233445,6,2,B|32:288|168:304|160:176,1,209.999993741512,6|2
224,112,234007,1,0
312,40,234195,1,0
416,40,234382,1,0
496,112,234570,1,0
496,304,234945,5,0
392,280,235132,1,0
304,352,235320,1,0
232,256,235507,1,0
160,168,235695,1,0
256,368,236070,5,0
32,192,236445,1,0
256,32,236820,1,0
456,192,237195,2,0,B|520:200|480:304|440:336|504:376,1,209.999993741512
256,360,237945,6,0,B|256:216,1,104.999996870756
256,176,238320,2,0,B|256:108,2,52.4999984353781
352,184,238695,1,0
80,8,239070,6,0,B|80:144,1,104.999996870756
152,112,239445,2,0,B|152:176,2,52.4999984353781
248,112,239820,1,0
40,192,240195,6,2,B|64:288|192:328,1,209.999993741512
480,192,240945,1,0
40,192,241320,2,0,B|48:88|200:56,1,209.999993741512
288,24,242445,6,2,B|288:232,1,209.999993741512
168,136,243570,2,0,B|376:136,1,209.999993741512
416,280,244695,6,0,B|208:280,1,209.999993741512
272,128,245820,2,0,B|168:128,1,104.999996870756
48,128,246570,1,0
104,240,246945,6,2,B|104:32,1,209.999993741512
160,128,248070,2,0,B|376:128,1,209.999993741512
456,32,249195,6,0,B|504:208|448:344|264:344,2,420
256,192,252195,12,0,256909
