osu file format v9

[General]
AudioFilename: Guide_You_Home.mp3
AudioLeadIn: 0
PreviewTime: 57945
Countdown: 0
SampleSet: Soft
StackLeniency: 0.7
Mode: 0
LetterboxInBreaks: 1

[Editor]
DistanceSpacing: 0.8
BeatDivisor: 4
GridSize: 8

[Metadata]
Title:Guide You Home
Artist:Rebecca Kneubuhl & Gabriel Mann
Creator:DragonSparta
Version:Alliance
Source:Legend of Spyro
Tags:i will die for you dawn of the dragon cynder malefor tracethekriken

[Difficulty]
HPDrainRate:5
CircleSize:4
OverallDifficulty:5
ApproachRate:6
SliderMultiplier:1.4
SliderTickRate:1

[Events]
//Background and Video events
0,0,"NoHItter Likes Pancakes XD.jpg"
//Break Periods
2,85144,89520
2,179645,185145
//Storyboard Layer 0 (Background)
//Storyboard Layer 1 (Fail)
//Storyboard Layer 2 (Pass)
//Storyboard Layer 3 (Foreground)
Sprite,Foreground,Centre,"timex05.png",320,240
//Storyboard Sound Samples
//Background Colour Transformations
3,100,0,0,0

[TimingPoints]
570,375,3,2,0,40,1,0
57945,-100,3,1,0,51,0,1
84945,-100,3,2,0,31,0,0
125445,-100,3,1,0,59,0,1
152445,-100,3,2,0,64,0,0
170445,-133.333333333333,3,2,0,40,0,0
177195,-133.333333333333,3,2,0,29,0,0
188445,-100,3,1,0,68,0,1
233070,-100,3,1,0,60,0,0
242445,-100,3,2,0,8,0,0
249195,428.571428571429,3,2,0,8,1,0

[Colours]
Combo1 : 128,0,0
Combo2 : 128,0,128
Combo3 : 0,0,128
Combo4 : 0,64,0

[HitObjects]
64,192,23070,5,0
208,192,23445,1,2
336,192,23820,1,2
376,320,24195,2,2,B|456:320|440:208,1,140
448,88,24945,1,2
320,80,25320,2,2,B|264:48|248:128|176:72,1,140
56,80,26070,1,2
64,216,26445,2,2,B|144:184|264:248|360:192,1,280
352,80,27570,1,4
480,224,28695,5,0
416,352,29070,1,0
296,328,29445,1,0
225,208,29820,2,0,B|160:260|159:350,2,140
288,152,30757,1,2
336,88,30945,1,6
88,208,32070,6,0,B|88:376,1,140
216,344,32820,1,0
344,344,33195,2,0,B|344:264,1,70
344,184,33570,2,2,B|344:96,1,70
408,48,33945,2,2,B|464:96|392:112|472:184,2,140
320,48,34882,1,2
240,48,35070,1,2
160,48,35257,1,2
80,48,35445,1,12
24,192,36570,5,0
96,56,36945,1,0
184,192,37320,1,0
328,192,37695,2,2,B|360:160|432:208|472:168,3,140
256,352,39945,5,4
256,24,41070,1,8
256,192,41445,1,0
256,352,41820,1,0
456,192,42195,5,0
40,192,43320,1,8
256,192,43695,1,0
480,192,44070,1,0
480,192,44445,5,8
256,32,45570,1,8
256,192,45945,1,0
256,360,46320,1,0
128,272,46695,2,0,B|128:104,3,140,8|0|0|8
208,192,48945,6,0,B|152:176|112:208,1,70,8|0
256,120,49320,2,0,B|256:80|288:56,1,70
304,184,49695,2,0,B|344:176|376:184,1,70
256,256,50070,2,0,B|240:296|264:336,1,70,8|0
336,336,50445,1,0
416,328,50632,1,0
400,248,50820,1,0
384,168,51007,1,0
464,192,51195,5,8
40,192,52320,1,8
256,192,52695,1,0
464,192,53070,1,0
256,48,53445,6,0,B|256:336,1,280
376,312,54570,2,8,B|376:160,1,140
376,48,55320,1,8
256,192,55695,12,4,57945
488,104,58320,6,0,B|472:32|352:32,2,140
416,152,59257,1,0
352,192,59445,1,0
280,224,59632,1,0
256,32,60195,1,4
144,104,60570,5,0
24,168,60945,2,0,B|24:272|112:272,1,140
176,280,61507,1,0
256,280,61695,1,2
336,280,61882,1,2
336,200,62070,1,0
336,120,62257,1,2
336,40,62445,1,6
232,160,62820,6,2,B|232:240,2,70
232,160,63570,1,0
64,160,63945,1,0
144,24,64320,1,0
320,32,64695,2,0,B|416:32|448:112,5,140
480,168,66757,1,0
480,256,66945,1,4
40,192,67695,1,0
144,96,68070,6,2,B|144:8,1,70
224,128,68445,2,0,B|224:56,1,70
304,144,68820,2,2,B|304:216,1,70
384,216,69195,2,2,B|448:216|448:304|504:304,2,140
304,344,70320,2,0,B|320:328|320:328|296:320|296:320|320:304|320:304|296:288|296:288|320:280|320:280|296:264|296:264|320:256|320:256|296:240|296:240|320:232|320:232|304:224|304:224|304:192,1,280
256,192,71445,12,4,72570
32,192,73695,5,0
480,192,74820,1,0
40,256,75945,2,0,B|264:296|472:240,1,420,4|0
424,176,77257,1,0
504,176,77445,1,0
488,96,77632,2,2,B|400:96,3,70
224,64,78570,5,0
80,64,78945,1,0
48,192,79320,2,2,B|128:152|208:200,1,140
311,187,80070,1,0
464,304,80445,5,0
464,216,80632,1,0
464,128,80820,1,0
376,128,81007,1,0
288,128,81195,1,0
208,304,81570,5,0
288,304,81757,1,0
368,304,81945,1,0
368,224,82132,1,0
288,224,82320,1,0
128,96,82695,6,2,B|128:264,1,140,6|2
48,264,83257,1,0
112,320,83445,1,0
192,336,83632,1,0
272,336,83820,1,0
352,312,84007,2,2,B|400:256,5,70
32,192,90570,5,0
112,296,90945,1,0
192,192,91320,1,0
112,296,91695,2,2,B|112:144,1,140
112,80,92257,1,0
192,80,92445,2,0,B|192:224,1,140
192,296,93007,1,0
272,296,93195,2,0,B|344:296,2,70
272,216,93757,1,0
352,216,93945,2,2,B|352:48,1,140
272,80,94507,1,0
192,80,94695,2,2,B|40:80,1,140,0|4
256,360,96195,5,0
376,264,96570,1,0
256,160,96945,1,0
136,272,97320,1,0
256,360,97695,1,0
288,224,98070,1,0
208,224,98257,1,0
128,224,98445,1,0
48,224,98632,1,6
128,120,99570,5,0
248,64,99945,1,0
280,184,100320,1,0
328,312,100695,2,8,B|368:304|368:256,1,70
432,328,101070,2,0,B|433:275|489:275,1,70
432,208,101445,2,0,B|436:159|484:159,1,70
472,80,101820,2,10,B|472:0,1,70
392,40,102195,2,0,B|304:0,1,70
344,112,102570,2,0,B|270:112,1,70
200,80,102945,2,2,B|200:376,1,280,6|2
256,192,104070,12,0,106320
256,32,106695,5,2
256,32,107070,1,2
40,192,107445,5,8
464,192,108570,2,0,B|376:176|344:256,2,140,8|0|0
256,352,109695,1,8
256,80,110820,6,0,B|336:96|384:16,2,140,8|0|0
32,192,111945,5,8
408,192,113070,2,0,B|488:176|496:96,2,140,8|0|0
280,200,114195,1,8
144,192,114570,5,0
144,192,114757,1,0
144,192,114945,1,0
256,312,115320,1,4
256,160,115695,1,0
256,16,116070,1,4
104,24,116445,5,4
40,336,117570,1,4
144,256,117945,1,0
256,336,118320,1,0
400,336,118695,2,2,B|432:240|384:176,2,140,10|2|2
312,208,119820,2,2,B|288:144|312:48,1,140
384,72,120382,1,2
464,72,120570,1,2
256,192,120945,12,0,125445
32,192,125820,6,0,B|32:32,2,140
96,256,126757,1,0
152,184,126945,1,0
152,184,127132,1,0
152,184,127320,1,0
320,288,127695,1,4
376,152,128070,6,4,B|448:152|456:248,2,140
328,80,129007,1,0
256,24,129195,1,2
256,24,129382,1,2
256,24,129570,1,2
256,192,129945,1,4
344,320,130320,6,0,B|344:168,1,140
344,16,131070,2,0,B|496:16,1,140
480,144,131820,1,0
336,144,132195,5,0
336,336,132570,1,0
256,312,132757,1,0
184,256,132945,1,0
136,184,133132,1,0
128,96,133320,1,0
192,32,133507,1,0
280,24,133695,1,0
368,40,133882,1,0
440,80,134070,1,0
368,120,134257,2,0,B|368:360,1,210,4|0
192,320,135195,1,4
40,192,135570,6,0,B|40:32,2,140
184,192,136695,2,2,B|184:336,2,140
312,192,137820,2,0,B|312:48,2,140
40,192,138945,5,2
40,192,139132,1,2
128,192,139320,1,2
128,192,139507,1,2
216,192,139695,1,2
216,192,139882,1,2
296,192,140070,2,0,B|296:288,2,70
376,192,140632,1,8
456,192,140820,1,12
480,328,141195,5,0
400,328,141382,1,0
320,328,141570,1,0
240,328,141757,1,0
160,328,141945,1,4
96,40,142320,6,0,B|96:136,1,70
64,176,142695,2,0,B|104:208|152:160,1,70
192,120,143070,1,0
480,200,143445,5,0
432,272,143632,1,0
360,328,143820,1,0
280,352,144007,1,0
192,344,144195,1,0
120,304,144382,1,0
64,240,144570,1,0
32,152,144757,1,0
64,72,144945,1,0
144,32,145132,1,0
232,24,145320,2,2,B|328:24,2,70
32,192,146070,5,0
256,192,146445,1,0
32,352,146820,1,0
256,352,147195,1,0
256,352,147570,1,8
256,192,147945,12,0,152070
120,32,152445,5,4
48,80,152632,1,0
48,168,152820,1,0
48,264,153007,1,0
136,264,153195,2,0,B|168:200|240:168,1,140
304,216,153757,1,0
352,136,153945,2,2,B|408:128|416:88,4,70
424,304,155070,5,0
344,328,155257,2,0,B|280:360|256:344,1,70
200,320,155632,1,0
136,248,155820,1,0
104,160,156007,1,0
144,80,156195,1,0
400,24,156570,1,0
488,24,156757,1,0
488,112,156945,5,8
256,112,157320,1,10
256,336,157695,1,8
488,336,158070,1,8
488,112,158445,1,8
256,112,158820,1,10
24,192,159195,5,2
24,192,159382,1,2
120,192,159570,1,2
120,192,159757,1,2
256,344,160320,5,2
256,344,160507,1,2
256,256,160695,1,2
256,256,160882,1,2
32,176,161445,5,0
96,112,161632,1,0
176,80,161820,1,0
256,112,162007,1,0
320,176,162195,1,0
400,152,162382,1,0
448,80,162570,1,0
384,24,162757,1,0
304,32,162945,2,2,B|264:16|232:32,5,70
160,40,164070,1,0
32,192,164445,5,0
256,200,164820,1,0
480,192,165195,1,0
256,288,165570,1,0
256,200,165757,1,0
256,112,165945,2,0,B|384:16,2,140
176,112,166882,1,0
176,112,167070,5,8
384,112,167445,1,8
184,256,167820,1,8
384,256,168195,1,8
248,336,168570,1,0
328,336,168757,1,0
408,336,168945,2,2,B|504:336,2,70
400,32,169695,6,0,B|296:32,1,70
256,72,170070,2,2,B|176:72,2,70
160,152,170820,6,0,B|160:256,3,104.999996870756
232,216,172132,1,0
280,320,172695,1,2
416,152,173070,6,0,B|432:208|376:248,2,104.999996870756
432,24,174195,1,0
360,24,174382,1,0
176,32,174945,1,0
256,160,175320,6,0,B|256:264,3,104.999996870756
360,176,176820,1,0
272,32,177195,1,0
200,224,177570,1,2
144,32,177945,1,0
88,224,178320,1,0
144,32,178695,1,2
248,160,179070,5,2
352,280,179445,1,2
112,48,186195,6,0,B|112:112,4,52.4999984353781
256,48,187320,5,0
40,192,187695,1,2
256,360,188070,1,2
256,280,188257,1,2
256,200,188445,1,4
464,192,188820,6,2,B|464:32,2,140
464,272,189757,2,0,B|376:272,1,70
464,352,190132,2,0,B|376:352,1,70
328,120,191070,6,0,B|464:16,2,140
240,176,192007,1,0
184,256,192195,2,2,B|152:232|104:280|48:248,2,140
184,256,193320,5,0
264,256,193507,1,0
336,216,193695,1,0
336,128,193882,1,0
288,56,194070,1,0
208,56,194257,1,0
152,112,194445,1,0
192,176,194632,1,0
256,112,194820,1,0
256,112,195007,1,0
192,176,195195,6,0,B|248:224|248:224|296:176,6,140,0|0|0|0|0|0|4
256,120,197632,2,2,B|256:48,3,70
192,184,198570,6,0,B|248:240|328:184,1,140
368,120,199132,1,0
320,56,199320,2,0,B|232:56,1,70
176,64,199695,6,0,B|168:176|232:200,1,140
264,256,200257,1,0
336,200,200445,2,0,B|392:120,1,70
464,64,200820,6,2,B|288:64,1,140
264,120,201382,1,0
200,64,201570,1,0
128,120,201757,1,0
48,72,201945,2,0,B|48:368,1,280
256,192,202882,12,0,204007
256,192,204195,5,0
256,104,204382,1,0
256,192,204570,1,0
256,272,204757,1,0
256,352,204945,1,0
424,192,205320,5,0
424,112,205507,1,0
424,192,205695,1,0
424,280,205882,1,0
424,192,206070,1,0
256,192,206445,1,4
376,144,206820,6,0,B|272:72|208:72|104:152,1,280
136,216,207757,1,0
152,312,207945,1,0
240,336,208132,1,0
320,288,208320,1,10
464,328,208695,1,8
480,208,209070,6,0,B|368:208|368:104,2,140
488,120,210007,1,0
448,48,210195,1,0
368,32,210382,1,0
280,48,210570,1,8
96,96,210945,1,4
168,232,211320,6,0,B|256:240|256:112,3,140
264,64,212632,1,8
344,64,212820,1,0
344,224,213195,1,4
256,192,213382,12,0,216195
256,192,216570,5,0
256,112,216757,1,0
256,32,216945,1,0
336,40,217132,1,0
408,80,217320,1,2
256,192,217695,5,0
256,280,217882,1,0
256,368,218070,1,0
176,344,218257,1,0
128,272,218445,1,2
256,192,218820,5,0
336,192,219007,1,0
416,192,219195,1,0
392,272,219382,1,0
328,328,219570,1,2
256,192,219945,5,0
176,192,220132,1,0
96,192,220320,1,0
128,120,220507,1,0
192,64,220695,1,2
192,64,221070,1,4
272,136,222195,6,0,B|272:48,1,70
352,16,222570,2,0,B|432:16,1,70
448,104,222945,2,0,B|392:176,1,70
416,240,223320,2,0,B|416:328|320:320,1,140
288,240,223882,2,0,B|288:160,1,70
40,240,224445,6,0,B|192:240,1,140
264,240,225007,1,0
352,216,225195,1,0
400,144,225382,1,0
440,64,225570,1,0
368,24,225757,1,0
288,56,225945,1,0
200,56,226132,2,2,B|136:104,1,70
104,184,226507,2,2,B|184:184,1,70
256,184,226882,5,0
336,184,227070,2,0,B|416:184,1,70
328,256,227445,2,0,B|400:312,1,70
256,272,227820,2,0,B|256:344,1,70
184,256,228195,2,0,B|128:296,1,70
160,192,228570,2,0,B|80:192,1,70
184,120,228945,2,0,B|112:64,1,70
256,96,229320,2,0,B|256:24,1,70
320,64,229695,6,2,B|432:64|464:128,2,140
232,64,230632,1,2
144,64,230820,1,2
256,192,231195,12,0,233070
32,192,233445,6,0,B|144:96,1,140
224,104,234007,1,0
312,104,234195,1,0
400,104,234382,1,0
480,104,234570,1,0
480,304,234945,5,0
400,304,235132,1,0
320,304,235320,1,0
240,304,235507,1,0
160,304,235695,1,0
256,32,236070,5,0
472,192,236445,1,0
256,352,236820,1,0
32,192,237195,1,0
256,192,237570,1,0
256,192,237945,12,0,242445
