osu file format v10

[General]
AudioFilename: 190677_cominghome2.mp3
AudioLeadIn: 0
PreviewTime: 64613
Countdown: 0
SampleSet: Normal
StackLeniency: 0.7
Mode: 1
LetterboxInBreaks: 0

[Editor]
Bookmarks: 24613,44613,64613,84613,94613,104613,114613,134613,154613,174613,189613
DistanceSpacing: 0.9
BeatDivisor: 4
GridSize: 32

[Metadata]
Title:Coming Home (Ambient Mix)
TitleUnicode:Coming Home (Ambient Mix)
Artist:Reasoner
ArtistUnicode:Reasoner
Creator:Blue Dragon
Version:Taiko Muzukashii
Source:
Tags:[luanny]
BeatmapID:195259
BeatmapSetID:60452

[Difficulty]
HPDrainRate:4
CircleSize:4
OverallDifficulty:3
ApproachRate:5
SliderMultiplier:1.4
SliderTickRate:1

[Events]
//Background and Video events
0,0,"taikobg.jpg"
//Break Periods
//Storyboard Layer 0 (Background)
//Storyboard Layer 1 (Fail)
//Storyboard Layer 2 (Pass)
//Storyboard Layer 3 (Foreground)
//Storyboard Sound Samples
//Background Colour Transformations
3,100,163,162,255

[TimingPoints]
24613,625,4,1,0,64,1,0
114613,-100,4,1,0,64,0,1
154613,-100,4,1,0,64,0,0
154766,-100,4,1,0,55,0,0
164769,-100,4,1,0,50,0,0
174456,-100,4,1,0,40,0,0
179456,-100,4,1,0,35,0,0
184500,-100,4,1,0,25,0,0

[HitObjects]
256,192,24613,1,0,0:0:0
256,192,24925,1,0,0:0:0
256,192,25238,1,8,0:0:0
256,192,25706,1,0,0:0:0
256,192,26019,1,0,0:0:0
256,192,26175,1,0,0:0:0
256,192,26488,1,8,0:0:0
256,192,26800,1,0,0:0:0
256,192,27113,1,0,0:0:0
256,192,27738,1,8,0:0:0
256,192,28050,1,0,0:0:0
256,192,28363,1,0,0:0:0
256,192,28675,1,0,0:0:0
256,192,28988,1,8,0:0:0
256,192,29144,1,0,0:0:0
256,192,29613,1,0,0:0:0
256,192,29925,1,0,0:0:0
256,192,30238,1,8,0:0:0
256,192,30863,1,0,0:0:0
256,192,31019,1,0,0:0:0
256,192,31331,1,0,0:0:0
256,192,31488,1,8,0:0:0
256,192,31800,1,0,0:0:0
256,192,32113,1,8,0:0:0
256,192,32738,1,8,0:0:0
256,192,33050,1,0,0:0:0
256,192,33363,1,0,0:0:0
256,192,33519,1,0,0:0:0
256,192,33675,1,0,0:0:0
256,192,33988,1,8,0:0:0
256,192,34300,1,0,0:0:0
256,192,34613,1,0,0:0:0
256,192,35238,1,8,0:0:0
256,192,35550,1,0,0:0:0
256,192,35863,1,0,0:0:0
256,192,36019,1,0,0:0:0
256,192,36488,1,8,0:0:0
256,192,36800,1,0,0:0:0
256,192,37113,1,0,0:0:0
256,192,37425,1,0,0:0:0
256,192,37738,1,8,0:0:0
256,192,38206,1,0,0:0:0
256,192,38519,1,0,0:0:0
256,192,38675,1,0,0:0:0
256,192,38988,1,8,0:0:0
256,192,39300,1,0,0:0:0
256,192,39613,1,0,0:0:0
256,192,40238,1,8,0:0:0
256,192,40706,1,0,0:0:0
256,192,40863,1,0,0:0:0
256,192,41175,1,0,0:0:0
256,192,41488,1,8,0:0:0
256,192,41800,1,0,0:0:0
256,192,42113,1,0,0:0:0
256,192,42738,1,8,0:0:0
256,192,43050,1,8,0:0:0
256,192,43206,1,0,0:0:0
256,192,43519,1,0,0:0:0
256,192,43675,1,0,0:0:0
256,192,43988,1,8,0:0:0
256,192,44613,1,4,0:0:0
256,192,45238,1,8,0:0:0
256,192,45550,1,0,0:0:0
256,192,45863,1,0,0:0:0
256,192,46019,1,0,0:0:0
256,192,46488,1,8,0:0:0
256,192,46800,1,0,0:0:0
256,192,47113,1,0,0:0:0
256,192,47738,1,8,0:0:0
256,192,48050,1,0,0:0:0
256,192,48206,1,0,0:0:0
256,192,48519,1,0,0:0:0
256,192,48675,1,0,0:0:0
256,192,48988,1,8,0:0:0
256,192,49300,1,0,0:0:0
256,192,49613,1,0,0:0:0
256,192,50238,1,8,0:0:0
256,192,50550,1,0,0:0:0
256,192,50863,1,0,0:0:0
256,192,51019,1,0,0:0:0
256,192,51175,1,0,0:0:0
256,192,51488,1,8,0:0:0
256,192,51800,1,0,0:0:0
256,192,52113,1,8,0:0:0
256,192,52738,1,8,0:0:0
256,192,53050,1,8,0:0:0
256,192,53206,1,0,0:0:0
256,192,53519,1,0,0:0:0
256,192,53675,1,0,0:0:0
256,192,53988,1,8,0:0:0
256,192,54300,1,0,0:0:0
256,192,54613,1,8,0:0:0
256,192,55238,1,8,0:0:0
256,192,55706,1,0,0:0:0
256,192,56019,1,0,0:0:0
256,192,56175,1,0,0:0:0
256,192,56488,1,8,0:0:0
256,192,56800,1,0,0:0:0
256,192,57113,1,0,0:0:0
256,192,57738,1,8,0:0:0
256,192,58050,1,8,0:0:0
256,192,58206,1,0,0:0:0
256,192,58519,1,0,0:0:0
256,192,58675,1,0,0:0:0
256,192,58988,1,8,0:0:0
256,192,59300,1,0,0:0:0
256,192,59613,1,0,0:0:0
256,192,60238,1,8,0:0:0
256,192,60550,1,0,0:0:0
256,192,60863,1,0,0:0:0
256,192,61175,1,0,0:0:0
256,192,61488,1,8,0:0:0
256,192,61800,1,8,0:0:0
256,192,62113,1,0,0:0:0
256,192,62738,1,8,0:0:0
256,192,63050,1,8,0:0:0
256,192,63363,1,0,0:0:0
256,192,63519,1,0,0:0:0
256,192,63831,1,0,0:0:0
256,192,63988,1,8,0:0:0
256,192,64300,1,0,0:0:0
256,192,64613,1,4,0:0:0
256,192,65238,1,8,0:0:0
256,192,65550,1,0,0:0:0
256,192,65863,1,0,0:0:0
256,192,66019,1,0,0:0:0
256,192,66175,1,0,0:0:0
256,192,66488,1,8,0:0:0
256,192,66800,1,0,0:0:0
256,192,67113,1,0,0:0:0
256,192,67738,1,8,0:0:0
256,192,68050,1,8,0:0:0
256,192,68206,1,0,0:0:0
256,192,68519,1,0,0:0:0
256,192,68675,1,0,0:0:0
256,192,68988,1,8,0:0:0
256,192,69300,1,0,0:0:0
256,192,69613,1,0,0:0:0
256,192,70238,1,8,0:0:0
256,192,70550,1,8,0:0:0
256,192,70863,1,0,0:0:0
256,192,71019,1,0,0:0:0
256,192,71175,1,0,0:0:0
256,192,71488,1,8,0:0:0
256,192,71800,1,0,0:0:0
256,192,72113,1,8,0:0:0
256,192,72738,1,8,0:0:0
256,192,73050,1,8,0:0:0
256,192,73363,1,0,0:0:0
256,192,73831,1,0,0:0:0
256,192,73988,1,8,0:0:0
256,192,74300,1,0,0:0:0
256,192,74613,1,0,0:0:0
256,192,75238,1,8,0:0:0
256,192,75550,1,8,0:0:0
256,192,75863,1,0,0:0:0
256,192,76019,1,0,0:0:0
256,192,76175,1,0,0:0:0
256,192,76488,1,8,0:0:0
256,192,76800,1,0,0:0:0
256,192,77113,1,8,0:0:0
256,192,77738,1,8,0:0:0
256,192,78050,1,8,0:0:0
256,192,78206,1,0,0:0:0
256,192,78519,1,0,0:0:0
256,192,78675,1,0,0:0:0
256,192,78988,1,8,0:0:0
256,192,79300,1,0,0:0:0
256,192,79613,1,0,0:0:0
256,192,80238,1,8,0:0:0
256,192,80706,1,0,0:0:0
256,192,80863,1,0,0:0:0
256,192,81175,1,0,0:0:0
256,192,81488,1,8,0:0:0
256,192,81800,1,0,0:0:0
256,192,82113,1,8,0:0:0
256,192,82738,1,8,0:0:0
256,192,83050,1,8,0:0:0
256,192,83363,1,0,0:0:0
256,192,83675,1,0,0:0:0
256,192,83988,1,8,0:0:0
256,192,84300,1,8,0:0:0
256,192,84613,1,6,0:0:0
256,192,94613,5,8,0:0:0
256,192,94925,1,8,0:0:0
256,192,95238,1,8,0:0:0
256,192,95863,1,8,0:0:0
256,192,96175,1,8,0:0:0
256,192,96488,1,8,0:0:0
256,192,96800,1,0,0:0:0
256,192,96956,1,0,0:0:0
256,192,97113,1,8,0:0:0
256,192,97738,1,8,0:0:0
256,192,98363,1,0,0:0:0
256,192,98675,1,0,0:0:0
256,192,98988,1,8,0:0:0
256,192,99300,1,8,0:0:0
256,192,99613,1,0,0:0:0
256,192,100238,1,8,0:0:0
256,192,100550,1,8,0:0:0
256,192,100706,1,8,0:0:0
256,192,100863,1,0,0:0:0
256,192,101488,1,8,0:0:0
256,192,101800,1,8,0:0:0
256,192,102113,1,0,0:0:0
256,192,102738,1,8,0:0:0
256,192,103050,1,0,0:0:0
256,192,103363,1,0,0:0:0
256,192,103675,1,0,0:0:0
256,192,103988,1,8,0:0:0
256,192,104144,1,0,0:0:0
256,192,104456,1,8,0:0:0
256,192,104613,1,0,0:0:0
256,192,104925,1,0,0:0:0
256,192,105238,1,8,0:0:0
256,192,105706,1,8,0:0:0
256,192,105863,1,0,0:0:0
256,192,106175,1,0,0:0:0
256,192,106488,1,8,0:0:0
256,192,106800,1,0,0:0:0
256,192,107113,1,0,0:0:0
256,192,107738,1,8,0:0:0
256,192,108049,1,8,0:0:0
256,192,108206,1,0,0:0:0
256,192,108519,1,0,0:0:0
256,192,108675,1,0,0:0:0
256,192,108988,1,8,0:0:0
256,192,109300,1,8,0:0:0
256,192,109613,1,0,0:0:0
256,192,110238,1,8,0:0:0
256,192,110550,1,8,0:0:0
256,192,110706,1,0,0:0:0
256,192,111019,1,0,0:0:0
256,192,111175,1,0,0:0:0
256,192,111488,1,8,0:0:0
256,192,111800,1,0,0:0:0
256,192,112113,1,0,0:0:0
256,192,112738,1,8,0:0:0
256,192,113050,1,0,0:0:0
256,192,113206,1,0,0:0:0
256,192,113519,1,0,0:0:0
256,192,113675,1,0,0:0:0
256,192,113988,1,8,0:0:0
256,192,114300,1,8,0:0:0
256,192,114613,1,6,0:0:0
256,192,115238,1,8,0:0:0
256,192,115550,1,8,0:0:0
256,192,115706,1,0,0:0:0
256,192,116019,1,0,0:0:0
256,192,116175,1,0,0:0:0
256,192,116488,1,8,0:0:0
256,192,116800,1,8,0:0:0
256,192,117113,1,0,0:0:0
256,192,117738,1,8,0:0:0
256,192,118363,1,0,0:0:0
256,192,118675,1,0,0:0:0
256,192,118988,1,8,0:0:0
256,192,119300,1,8,0:0:0
256,192,119613,1,0,0:0:0
256,192,120081,1,0,0:0:0
256,192,120238,1,8,0:0:0
256,192,120550,1,8,0:0:0
256,192,120863,1,0,0:0:0
256,192,121019,1,0,0:0:0
256,192,121175,1,0,0:0:0
256,192,121488,1,8,0:0:0
256,192,121800,1,0,0:0:0
256,192,122113,1,8,0:0:0
256,192,122738,1,8,0:0:0
256,192,123050,1,8,0:0:0
256,192,123363,1,0,0:0:0
256,192,123519,1,0,0:0:0
256,192,123675,1,0,0:0:0
256,192,123988,1,8,0:0:0
256,192,124300,1,0,0:0:0
256,192,124613,1,6,0:0:0
256,192,125238,1,8,0:0:0
256,192,125706,1,0,0:0:0
256,192,125863,1,0,0:0:0
256,192,126175,1,0,0:0:0
256,192,126488,1,8,0:0:0
256,192,126800,1,0,0:0:0
256,192,127113,1,4,0:0:0
256,192,127581,1,0,0:0:0
256,192,127738,1,8,0:0:0
256,192,128050,1,8,0:0:0
256,192,128206,1,0,0:0:0
256,192,128519,1,0,0:0:0
256,192,128675,1,0,0:0:0
256,192,128988,1,8,0:0:0
256,192,129300,1,0,0:0:0
256,192,129613,1,0,0:0:0
256,192,130238,1,8,0:0:0
256,192,130550,1,8,0:0:0
256,192,130863,1,0,0:0:0
256,192,131019,1,0,0:0:0
256,192,131175,1,0,0:0:0
256,192,131488,1,8,0:0:0
256,192,131800,1,0,0:0:0
256,192,132113,1,8,0:0:0
256,192,132738,1,8,0:0:0
256,192,133206,1,0,0:0:0
256,192,133363,1,0,0:0:0
256,192,133675,1,0,0:0:0
256,192,133988,1,8,0:0:0
256,192,134300,1,8,0:0:0
256,192,134613,1,4,0:0:0
256,192,135238,1,8,0:0:0
256,192,135550,1,0,0:0:0
256,192,135706,1,0,0:0:0
256,192,136019,1,0,0:0:0
256,192,136175,1,0,0:0:0
256,192,136488,1,8,0:0:0
256,192,136800,1,0,0:0:0
256,192,137113,1,0,0:0:0
256,192,137738,1,8,0:0:0
256,192,138050,1,8,0:0:0
256,192,138363,1,0,0:0:0
256,192,138675,1,0,0:0:0
256,192,138988,1,8,0:0:0
256,192,139300,1,8,0:0:0
256,192,139613,1,0,0:0:0
256,192,140238,1,8,0:0:0
256,192,140550,1,0,0:0:0
256,192,140863,1,0,0:0:0
256,192,141019,1,0,0:0:0
256,192,141175,1,0,0:0:0
256,192,141488,1,8,0:0:0
256,192,141800,1,0,0:0:0
256,192,142113,1,8,0:0:0
256,192,142738,1,8,0:0:0
256,192,143050,1,8,0:0:0
256,192,143206,1,0,0:0:0
256,192,143519,1,0,0:0:0
256,192,143675,1,0,0:0:0
256,192,143988,1,8,0:0:0
256,192,144300,1,0,0:0:0
256,192,144613,1,6,0:0:0
256,192,145238,1,8,0:0:0
256,192,145550,1,8,0:0:0
256,192,145863,1,0,0:0:0
256,192,146019,1,0,0:0:0
256,192,146175,1,0,0:0:0
256,192,146488,1,8,0:0:0
256,192,146800,1,0,0:0:0
256,192,147113,1,4,0:0:0
256,192,147738,1,8,0:0:0
256,192,148050,1,8,0:0:0
256,192,148363,1,0,0:0:0
256,192,148675,1,0,0:0:0
256,192,148988,1,8,0:0:0
256,192,149144,1,0,0:0:0
256,192,149613,1,0,0:0:0
256,192,150238,1,8,0:0:0
256,192,150550,1,0,0:0:0
256,192,150706,1,0,0:0:0
256,192,151019,1,0,0:0:0
256,192,151175,1,0,0:0:0
256,192,151488,1,8,0:0:0
256,192,151800,1,0,0:0:0
256,192,152113,1,0,0:0:0
256,192,152738,1,8,0:0:0
256,192,153363,1,0,0:0:0
256,192,153519,1,0,0:0:0
256,192,153675,1,0,0:0:0
256,192,153988,1,8,0:0:0
256,192,154300,1,0,0:0:0
256,192,154613,1,4,0:0:0
256,192,155238,1,8,0:0:0
256,192,155550,1,8,0:0:0
256,192,155863,1,0,0:0:0
256,192,156175,1,0,0:0:0
256,192,156488,1,8,0:0:0
256,192,156800,1,0,0:0:0
256,192,157113,1,0,0:0:0
256,192,157738,1,8,0:0:0
256,192,158050,1,8,0:0:0
256,192,158206,1,0,0:0:0
256,192,158519,1,0,0:0:0
256,192,158675,1,0,0:0:0
256,192,158988,1,8,0:0:0
256,192,159300,1,0,0:0:0
256,192,159613,1,0,0:0:0
256,192,160238,1,8,0:0:0
256,192,160550,1,8,0:0:0
256,192,160863,1,0,0:0:0
256,192,161019,1,0,0:0:0
256,192,161175,1,0,0:0:0
256,192,161488,1,8,0:0:0
256,192,161800,1,0,0:0:0
256,192,162113,1,8,0:0:0
256,192,162738,1,8,0:0:0
256,192,163050,1,8,0:0:0
256,192,163206,1,0,0:0:0
256,192,163675,1,0,0:0:0
256,192,163988,1,8,0:0:0
256,192,164300,1,0,0:0:0
256,192,164613,1,8,0:0:0
256,192,165238,1,8,0:0:0
256,192,165550,1,8,0:0:0
256,192,165863,1,0,0:0:0
256,192,166019,1,0,0:0:0
256,192,166175,1,0,0:0:0
256,192,166488,1,8,0:0:0
256,192,166800,1,0,0:0:0
256,192,167113,1,0,0:0:0
256,192,167738,1,8,0:0:0
256,192,168050,1,8,0:0:0
256,192,168363,1,0,0:0:0
256,192,168519,1,0,0:0:0
256,192,168675,1,0,0:0:0
256,192,168988,1,8,0:0:0
256,192,169300,1,0,0:0:0
256,192,169613,1,0,0:0:0
256,192,170238,1,8,0:0:0
256,192,170550,1,8,0:0:0
256,192,170706,1,0,0:0:0
256,192,171019,1,0,0:0:0
256,192,171175,1,0,0:0:0
256,192,171488,1,8,0:0:0
256,192,171800,1,8,0:0:0
256,192,172113,1,0,0:0:0
256,192,172738,1,8,0:0:0
256,192,173050,1,8,0:0:0
256,192,173206,1,0,0:0:0
256,192,173519,1,0,0:0:0
256,192,173675,1,0,0:0:0
256,192,173988,1,8,0:0:0
256,192,174613,1,0,0:0:0
256,192,174925,1,0,0:0:0
256,192,175238,1,8,0:0:0
256,192,175706,1,0,0:0:0
256,192,175863,1,0,0:0:0
256,192,176175,1,0,0:0:0
256,192,176488,1,8,0:0:0
256,192,177113,1,0,0:0:0
256,192,177425,1,0,0:0:0
256,192,177738,1,8,0:0:0
256,192,178206,1,0,0:0:0
256,192,178519,1,0,0:0:0
256,192,178675,1,0,0:0:0
256,192,178988,1,8,0:0:0
256,192,179613,1,0,0:0:0
256,192,180238,1,8,0:0:0
256,192,180706,1,0,0:0:0
256,192,181019,1,0,0:0:0
256,192,181175,1,0,0:0:0
256,192,181488,1,8,0:0:0
256,192,182113,1,8,0:0:0
256,192,182738,1,8,0:0:0
256,192,183206,1,0,0:0:0
256,192,183363,1,0,0:0:0
256,192,183988,1,8,0:0:0
256,192,184613,1,0,0:0:0
256,192,185238,1,0,0:0:0
256,192,185863,1,8,0:0:0
256,192,186175,1,8,0:0:0
256,192,186488,1,0,0:0:0
256,192,187113,1,0,0:0:0
256,192,187738,1,0,0:0:0
256,192,188363,1,8,0:0:0
256,192,188831,1,0,0:0:0
256,192,189144,1,0,0:0:0
256,192,189613,5,0,0:0:0
