osu file format v10

[General]
AudioFilename: 190677_cominghome2.mp3
AudioLeadIn: 0
PreviewTime: 64613
Countdown: 1
SampleSet: Soft
StackLeniency: 0.7
Mode: 0
LetterboxInBreaks: 1

[Editor]
Bookmarks: 60000,62343,100004,140004,230004
DistanceSpacing: 1
BeatDivisor: 4
GridSize: 4

[Metadata]
Title:Coming Home (Ambient Mix)
TitleUnicode:Coming Home (Ambient Mix)
Artist:Reasoner
ArtistUnicode:Reasoner
Creator:Blue Dragon
Version:Easy
Source:
Tags:[luanny]
BeatmapID:200519
BeatmapSetID:60452

[Difficulty]
HPDrainRate:1
CircleSize:3
OverallDifficulty:1
ApproachRate:3
SliderMultiplier:1.2
SliderTickRate:1

[Events]
//Background and Video events
0,0,"1024-768-51497.jpg"
//Break Periods
2,84813,93173
//Storyboard Layer 0 (Background)
//Storyboard Layer 1 (Fail)
//Storyboard Layer 2 (Pass)
//Storyboard Layer 3 (Foreground)
//Storyboard Sound Samples
//Background Colour Transformations
3,100,163,162,255

[TimingPoints]
24613,625,4,2,1,80,1,0
24613,-100,4,2,0,80,0,0
25238,-100,4,2,1,100,0,0
25863,-100,4,2,2,80,0,0
26488,-100,4,2,1,80,0,0
33363,-100,4,2,1,50,0,0
33519,-100,4,2,1,80,0,0
34613,-100,4,2,1,50,0,0
34769,-100,4,2,1,80,0,0
35863,-100,4,2,1,50,0,0
36019,-100,4,2,1,80,0,0
38363,-100,4,2,1,40,0,0
38519,-100,4,2,1,80,0,0
39613,-100,4,2,1,50,0,0
39925,-100,4,2,2,80,0,0
40238,-100,4,2,1,80,0,0
45863,-100,4,2,1,50,0,0
46019,-100,4,2,1,80,0,0
47113,-100,4,2,1,50,0,0
47269,-100,4,2,1,80,0,0
48363,-100,4,2,1,50,0,0
48441,-100,4,2,1,80,0,0
49613,-100,4,2,1,50,0,0
49769,-100,4,2,1,80,0,0
50863,-100,4,2,1,50,0,0
51019,-100,4,2,1,80,0,0
53363,-100,4,2,1,50,0,0
53519,-100,4,2,1,80,0,0
54613,-100,4,2,1,50,0,0
54769,-100,4,2,1,80,0,0
55863,-100,4,2,1,50,0,0
56019,-100,4,2,1,80,0,0
57113,-100,4,2,1,50,0,0
57269,-100,4,2,1,80,0,0
58363,-100,4,2,1,50,0,0
58519,-100,4,2,1,80,0,0
59613,-100,4,2,1,50,0,0
59769,-100,4,2,1,80,0,0
60863,-100,4,2,1,50,0,0
61019,-100,4,2,1,80,0,0
62113,-100,4,2,1,50,0,0
62269,-100,4,2,1,80,0,0
63363,-100,4,2,1,60,0,0
63988,-100,4,2,1,70,0,0
64613,-100,4,2,1,100,0,0
65081,-100,4,2,1,60,0,0
65238,-100,4,2,1,80,0,0
68206,-100,4,2,1,60,0,0
68363,-100,4,2,1,80,0,0
83988,-100,4,2,1,90,0,0
84613,-100,4,2,0,100,0,0
94613,-133.333333333333,4,2,0,40,0,0
103363,-100,4,2,1,80,0,0
114613,-100,4,2,0,80,0,1
114925,-100,4,2,1,80,0,1
134613,-100,4,2,0,80,0,1
134769,-100,4,2,1,80,0,1
154613,-100,4,2,0,80,0,0
154769,-100,4,2,1,80,0,0
174613,-100,4,2,1,60,0,0
175863,-100,4,2,1,40,0,0
176019,-100,4,2,1,80,0,0
177113,-100,4,2,1,60,0,0
180863,-100,4,2,1,40,0,0
181019,-100,4,2,1,80,0,0
182113,-100,4,2,1,40,0,0
182738,-100,4,2,1,20,0,0
183363,-100,4,2,1,40,0,0
183988,-100,4,2,1,20,0,0
184613,-100,4,2,1,40,0,0
185238,-100,4,2,1,20,0,0

[Colours]
Combo1 : 254,225,129
Combo2 : 221,128,34
Combo3 : 167,135,233

[HitObjects]
40,64,24613,2,4,P|96:88|156:84,1,120,4|8,0:0|0:0,0:0:0
264,40,25863,1,0,0:0:0
384,60,26488,1,8,0:0:0
444,164,27113,2,0,P|456:236|340:340,1,240,2|0,0:0|0:0,0:0:0
258,254,28988,1,8,0:0:0
312,144,29613,6,0,P|256:124|200:144,1,120,0|8,0:0|0:0,0:0:0
136,40,30863,1,0,0:0:0
256,20,31488,1,8,0:0:0
376,40,32113,6,0,P|504:40,1,120,2|8,0:0|0:0,0:0:0
440,148,33363,2,0,P|312:148,1,120,2|8,0:0|0:0,0:0:0
376,256,34613,2,0,P|504:256,2,120,2|8|0,0:0|0:0|0:0,0:0:0
284,332,36488,1,8,0:0:0
184,268,37113,6,4,P|64:276|0:180,1,240
120,168,38988,1,8,0:0:0
156,52,39613,6,0,P|228:52,1,60,0|4,0:0|0:0,0:0:0
396,44,40863,1,0,0:0:0
484,124,41488,1,8,0:0:0
424,228,42113,2,0,P|360:304|224:316,1,240,2|0,0:0|0:0,0:0:0
140,236,43988,1,8,0:0:0
32,180,44613,6,0,P|162:32|222:229|352:82,1,360,2|8,0:0|0:0,0:0:0
464,36,47113,2,0,P|456:120|504:272,1,240,2|0,0:0|0:0,0:0:0
408,344,48988,1,8,0:0:0
312,276,49613,6,0,P|264:308|200:316,1,120,2|8,0:0|0:0,0:0:0
96,264,50863,1,2,0:0:0
52,152,51488,1,8,0:0:0
136,64,52113,6,4,P|380:64,1,240,4|0,0:0|0:0,0:0:0
444,164,53988,1,8,0:0:0
420,280,54613,6,0,P|344:296|316:328,1,120,2|8,0:0|0:0,0:0:0
195,325,55863,2,0,P|169:296|93:280,1,120,2|8,0:0|0:0,0:0:0
15,195,57113,5,4,0:0:0
48,80,57738,1,8,0:0:0
136,164,58363,2,0,P|196:184,2,60,0|0|8,0:0|0:0|0:0,0:0:0
172,48,59613,2,0,P|236:44|288:68,1,120,2|8,0:0|0:0,0:0:0
340,176,60863,2,0,P|389:198|453:194,1,120,2|8,0:0|0:0,0:0:0
472,312,62113,6,4,P|228:352,1,240,2|4,0:0|0:0,0:0:0
124,308,63988,1,8,0:0:0
8,280,64613,6,0,P|24:216|16:160,1,120,0|8,0:0|0:0,0:0:0
112,92,65863,2,0,P|144:36,2,60,0|0|8,0:0|0:0|0:0,0:0:0
200,172,67113,6,0,P|224:112|272:80,1,120,2|8,0:0|0:0,0:0:0
360,156,68363,2,0,P|336:216|288:248,1,120,0|8,0:0|0:0,0:0:0
180,288,69613,5,4,0:0:0
280,356,70238,2,8,P|408:332,1,120,8|2,0:0|0:0,0:0:0
482,249,71488,1,8,0:0:0
372,196,72113,2,0,P|316:184|264:28,2,240,2|4|2,0:0|0:0|0:0,0:0:0
280,272,75238,5,8,0:0:0
172,216,75863,2,0,P|136:160|132:108,1,120,0|8,0:0|0:0,0:0:0
16,80,77113,2,0,P|8:216,1,120,2|8,0:0|0:0,0:0:0
60,308,78363,1,0,0:0:0
172,356,78988,1,8,0:0:0
288,328,79613,6,0,P|336:264|488:260,1,240,2|2,0:0|0:0,0:0:0
512,144,81488,1,8,0:0:0
408,88,82113,2,0,P|348:76|304:40,2,120,0|8|0,0:0|0:0|0:0,0:0:0
323,172,83988,1,8,0:0:0
238,256,84613,1,4,0:0:0
408,44,94613,6,0,P|400:140,1,90.0000034332277,2|0,0:0|0:0,0:0:0
464,197,95863,2,0,P|456:293,1,90.0000034332277,2|0,0:0|0:0,0:0:0
392,350,97113,1,2,0:0:0
304,324,97738,1,0,0:0:0
260,244,98363,2,0,P|216:256|184:288,1,90.0000034332277,2|0,0:0|0:0,0:0:0
172,376,99613,6,0,P|92:360|52:196,1,270.000010299683,2|2,0:0|0:0,0:0:0
124,144,102113,2,0,P|204:160|244:324,1,270.000010299683,2|8,0:0|0:0,0:0:0
360,360,104613,6,0,P|396:308|448:292,1,120,0|8,0:0|0:0,0:0:0
492,180,105863,1,0,0:0:0
428,80,106488,1,8,0:0:0
316,40,107113,2,0,P|264:92|104:120,1,240,2|0,0:0|0:0,0:0:0
12,196,108988,1,8,0:0:0
56,308,109613,6,0,P|92:280|164:280,1,120,2|8,0:0|0:0,0:0:0
252,360,110863,2,0,P|324:360|360:332,1,120,0|8,0:0|0:0,0:0:0
436,240,112113,2,4,P|380:56|332:168,1,480,2|4,0:0|0:0,0:0:0
328,288,115238,5,8,0:0:0
224,348,115863,2,0,P|160:348,2,60,0|0|8,0:0|0:0|0:0,0:0:0
232,228,117113,2,0,P|224:168|252:116,3,120,0|8|0|8,0:0|0:0|0:0|0:0,0:0:0
364,76,119613,5,4,0:0:0
472,124,120238,1,8,0:0:0
488,244,120863,2,0,P|488:312,2,60,0|0|8,0:0|0:0|0:0,0:0:0
368,244,122113,2,0,P|292:312|148:316,1,240,2|0,0:0|0:0,0:0:0
76,232,123988,1,8,0:0:0
88,112,124613,6,0,P|200:60,1,120,2|8,0:0|0:0,0:0:0
315,61,125863,2,0,P|424:112,1,120,2|8,0:0|0:0,0:0:0
364,216,127113,2,4,P|256:261|148:216,1,240,4|0,0:0|0:0,0:0:0
256,160,128988,1,8,0:0:0
364,104,129613,5,4,0:0:0
260,44,130238,2,8,P|216:72|144:88,1,120,8|0,0:0|0:0,0:0:0
40,44,131488,1,8,0:0:0
60,164,132113,6,0,P|56:212|16:272,3,120,2|8|2|8,0:0|0:0|0:0|0:0,0:0:0
96,364,134613,6,4,P|324:272,1,240,4|0,0:0|0:0,0:0:0
436,304,136488,1,8,0:0:0
412,188,137113,2,0,P|380:136|324:112,2,120,2|8|0,0:0|0:0|0:0,0:0:0
319,274,138988,1,8,0:0:0
216,212,139613,6,4,P|160:240|100:248,1,120,4|8,0:0|0:0,0:0:0
60,136,140863,2,0,P|0:92,2,60,0|0|8,0:0|0:0|0:0,0:0:0
156,64,142113,1,4,0:0:0
272,40,142738,1,8,0:0:0
388,72,143363,1,0,0:0:0
460,168,143988,1,8,0:0:0
444,288,144613,6,0,P|408:336|232:356,1,240,2|0,0:0|0:0,0:0:0
144,292,146488,1,8,0:0:0
132,172,147113,2,0,P|152:124|144:56,1,120,2|8,0:0|0:0,0:0:0
36,108,148363,2,0,P|16:156|24:224,1,120,2|8,0:0|0:0,0:0:0
68,332,149613,6,0,P|304:268,1,240,2|0,0:0|0:0,0:0:0
416,304,151488,1,8,0:0:0
388,188,152113,2,0,P|392:124|372:72,3,120,2|8|2|8,0:0|0:0|0:0|0:0,0:0:0
256,36,154613,6,4,P|192:112|56:140,1,240
16,252,156488,1,8,0:0:0
136,252,157113,2,0,P|248:312,1,120,0|8,0:0|0:0,0:0:0
356,272,158363,2,0,P|468:332,1,120,0|8,0:0|0:0,0:0:0
488,212,159613,6,0,P|460:160|464:100,1,120,2|8,0:0|0:0,0:0:0
360,36,160863,1,2,0:0:0
316,148,161488,1,8,0:0:0
204,196,162113,6,4,P|140:212|84:208,1,120,4|8,0:0|0:0,0:0:0
36,100,163363,2,4,P|100:84|156:88,1,120,4|8,0:0|0:0,0:0:0
260,140,164613,1,2,0:0:0
356,68,165238,1,8,0:0:0
428,164,165863,2,0,P|440:204|504:248,1,120,0|8,0:0|0:0,0:0:0
432,344,167113,6,0,P|192:364,1,240,2|0,0:0|0:0,0:0:0
84,312,168988,1,8,0:0:0
40,200,169613,6,0,P|40:136|8:88,2,120,2|8|0,0:0|0:0|0:0,0:0:0
156,232,171488,1,8,0:0:0
260,172,172113,1,2,0:0:0
280,52,172738,1,8,0:0:0
372,128,173363,2,0,P|428:160|484:164,1,120,0|8,0:0|0:0,0:0:0
476,284,174613,6,0,P|424:312|248:304,1,240
140,252,176488,1,8,0:0:0
64,160,177113,2,0,P|64:112|32:48,1,120,0|8,0:0|0:0,0:0:0
152,28,178363,1,0,0:0:0
196,140,178988,1,8,0:0:0
124,236,179613,6,0,P|104:344|-8:348,1,240
12,228,181488,1,8,0:0:0
76,128,182113,6,0,P|188:56,1,120,2|8,0:0|0:0,0:0:0
280,128,183363,2,0,P|392:56,1,120,0|8,0:0|0:0,0:0:0
492,108,184613,1,0,0:0:0
484,228,185238,1,8,0:0:0
376,284,185863,6,0,P|248:276|184:360,1,240
68,372,187738,1,8,0:0:0
16,264,188363,2,0,P|16:200|0:144,1,120
68,44,189613,6,0,P|108:92|280:88,1,240
388,56,191488,1,0,0:0:0
256,192,192113,12,0,194613,0:0:0
