osu file format v5

[General]
AudioFilename: Reamonn - Star.mp3
AudioLeadIn: 0
PreviewTime: -1
Countdown: 0
SampleSet: Soft
StackLeniency: 0.7
Mode: 0

[Metadata]
Title:Star
Artist:Reamonn
Creator:Fox
Version:Hard

[Difficulty]
HPDrainRate:6
CircleSize:4
OverallDifficulty:6
SliderMultiplier:1.4
SliderTickRate:1

[Events]
//Background and Video events
0,0,"bg.jpg"
//Break Periods
2,50540,63090
2,90540,105490
2,144940,157890
2,183140,193090
//Storyboard Layer 0 (Background)
//Storyboard Layer 1 (Failing)
//Storyboard Layer 2 (Passing)
//Storyboard Layer 3 (Foreground)
//Storyboard Sound Samples
//Background Colour Transformations
3,100,0,0,0

[TimingPoints]
940,400,4,2,0,100
64940,400,4,1,0,100
92140,400,4,2,0,100
119340,400,4,1,0,100
158540,400,4,2,0,100
170540,400,4,1,0,100

[Colours]
Combo1 : 244,196,0
Combo2 : 5,240,5
Combo3 : 5,5,240
Combo4 : 240,5,5

[HitObjects]
112,160,13740,1,0
144,112,13940,1,0
192,80,14140,1,0
240,64,14340,1,0
288,64,14540,1,0
336,80,14740,1,0
256,160,15140,1,0
256,272,15540,1,0
304,80,16940,5,0
256,48,17140,1,0
208,80,17340,1,0
256,176,17740,1,0
256,224,17940,1,0
256,336,18340,1,0
416,192,20140,5,0
384,240,20340,1,0
352,192,20540,1,0
384,144,20740,1,0
384,80,20940,1,0
336,48,21140,1,0
256,128,21540,1,0
144,128,21940,1,0
96,112,22140,1,0
64,64,22340,1,0
256,272,23340,5,0
224,224,23540,1,0
192,176,23740,1,0
272,144,24140,1,0
304,192,24340,1,0
355,120,24740,1,0
256,192,26340,5,0
256,240,26540,1,0
256,288,26740,1,0
320,192,27140,1,0
192,192,27540,1,0
256,96,27940,1,0
256,208,28340,1,0
256,256,28540,1,0
64,48,29540,5,0
112,80,29740,1,0
160,112,29940,1,0
256,176,30340,1,0
256,288,30740,1,0
352,240,31140,1,0
256,192,32740,5,0
256,240,32940,1,0
256,288,33140,1,0
192,192,33540,1,0
320,192,33940,1,0
256,96,34340,1,0
256,208,34740,1,0
256,256,34940,1,0
400,80,36140,5,0
352,112,36340,1,0
256,176,36740,1,0
256,288,37140,1,0
160,240,37540,1,0
256,64,38540,1,6
256,256,39340,6,2,B|352:240|320:176,5,70
240,144,40740,1,0
176,48,41140,1,0
224,304,42540,6,2,B|254:344|304:288,2,70
224,192,43340,2,4,B|254:232|304:176,1,70
256,80,43940,1,6
208,288,45740,6,0,B|256:336|304:288,1,70
304,272,46140,2,2,B|316:223|240:176,1,70
240,176,46540,2,2,B|191:164|144:240,1,70
192,80,47140,1,2
304,80,47540,1,4
208,320,48740,6,2,B|208:240,1,70
256,208,49140,1,4
304,176,49340,2,2,B|304:96,1,70
256,64,49740,1,4
256,176,50140,1,2
256,224,50340,1,4
160,96,64140,5,0
208,80,64340,1,4
368,128,64940,6,4,B|400:208|304:320|176:304,1,280
288,96,66540,5,2
224,96,66740,1,0
304,176,67140,1,0
208,224,67540,2,0,B|240:320|336:304,1,140
416,288,68340,2,4,B|448:176|352:64,1,210
256,288,69740,5,2
320,192,70140,1,0
304,144,70340,1,0
208,192,70740,1,0
208,96,71140,2,4,B|288:64|368:112,7,140
256,160,74340,5,0
256,208,74540,1,0
240,320,74940,1,2
288,320,75140,1,6
448,160,75940,5,0
416,112,76140,1,0
368,96,76340,1,0
256,64,76740,1,0
256,176,77140,1,4
256,288,77540,1,4
256,192,77940,12,0,79340
256,96,80340,1,0
192,192,80740,2,0,B|256:256|320:192,3,140
160,288,82540,5,2
160,176,82940,1,0
160,176,83140,1,0
160,64,83540,1,0
160,176,83940,2,4,B|240:336|416:288|464:160|448:80|400:48|352:16|256:80|240:96|272:176|326:194|351:169|352:128,1,630
256,272,87140,5,0
256,272,87340,1,0
256,160,87740,1,0
256,160,87940,1,0
208,288,88740,5,0
256,304,88940,1,0
304,288,89140,1,4
304,176,89540,1,4
208,176,89940,1,4
256,80,90340,1,4
256,80,106340,5,0
256,80,106540,1,0
256,80,106740,1,2
160,144,107140,2,2,B|256:272,1,140
352,144,107940,2,2,B|256:272,1,140
256,304,108540,1,0
320,224,108940,1,4
480,64,109740,5,0
448,96,109940,1,0
448,208,110340,1,0
384,112,110740,1,0
336,208,111140,1,2
256,80,112740,5,2
256,80,112940,1,2
256,80,113140,1,2
352,144,113540,2,2,B|256:272,1,140
160,144,114340,2,2,B|256:272,1,140
256,304,114940,1,2
192,224,115340,1,4
32,64,116140,5,4
64,96,116340,1,4
64,208,116740,1,4
128,112,117140,1,4
176,208,117540,1,6
352,96,118540,5,2
304,80,118740,1,4
144,128,119340,6,4,B|112:208|208:320|336:304,1,280
224,96,120940,5,2
288,96,121140,1,0
208,176,121540,1,0
304,224,121940,2,0,B|272:320|176:304,1,140
96,288,122740,2,4,B|64:176|160:64,1,210
256,288,124140,5,2
192,192,124540,1,0
208,144,124740,1,0
304,192,125140,1,0
304,96,125540,2,4,B|224:64|144:112,7,140
256,160,128740,5,0
256,208,128940,1,0
272,320,129340,1,2
224,320,129540,1,6
64,160,130340,5,0
96,112,130540,1,0
144,96,130740,1,0
256,64,131140,1,0
256,176,131540,1,4
256,288,131940,1,4
256,192,132340,12,0,133740
256,96,134740,1,0
320,192,135140,2,0,B|256:256|192:192,3,140
352,288,136940,5,2
352,176,137340,1,0
352,176,137540,1,0
352,64,137940,1,0
352,176,138340,2,4,B|272:336|96:288|48:160|64:80|112:48|160:16|256:80|272:96|240:176|186:194|161:169|160:128,1,630
256,272,141540,5,0
256,272,141740,1,0
256,160,142140,1,0
256,160,142340,1,0
304,288,143140,5,0
256,304,143340,1,0
208,288,143540,1,4
208,176,143940,1,4
304,176,144340,1,4
256,80,144740,1,4
112,64,158940,5,0
112,112,159140,1,0
112,160,159340,1,0
256,304,160740,5,0
288,256,160940,1,0
256,208,161140,1,0
224,256,161340,1,0
256,192,161740,12,4,163340
400,64,165340,5,0
400,112,165540,1,0
400,160,165740,1,0
256,320,166940,1,0
224,208,167340,1,0
288,208,167540,1,0
256,160,167740,1,0
256,192,168140,12,6,169740
160,192,171740,1,0
160,192,172140,1,0
160,192,172540,1,0
384,192,173340,2,2,B|414:371|94:368|80:224,1,420
128,144,174940,5,0
128,144,175340,1,0
128,144,175740,1,0
240,128,176540,2,2,B|288:16|320:96|224:320|304:336|320:288|352:80,1,420
464,128,178140,5,0
464,128,178540,1,0
464,128,178940,1,0
336,224,179740,2,4,B|224:48|160:352|144:352|64:64|80:80|304:32|368:80,1,560
432,144,181740,1,6
432,256,182140,1,4
256,128,182940,1,6
144,160,194140,5,0
176,272,194540,1,0
176,272,194740,1,0
240,176,195140,1,0
288,80,195540,1,0
336,176,195940,2,4,B|403:457|448:32,1,350
432,80,198097,5,0
416,128,198340,1,0
384,160,198540,1,0
336,176,198740,1,2
336,64,199140,1,6
256,288,200940,5,2
320,192,201340,1,0
304,144,201540,1,0
208,192,201940,1,0
208,96,202340,2,4,B|288:64|368:112,7,140
256,160,205540,5,0
256,208,205740,1,0
240,320,206140,1,2
288,320,206340,1,6
448,160,207140,5,0
416,112,207340,1,0
368,96,207540,1,0
256,64,207940,1,0
256,176,208340,1,4
256,288,208740,1,4
256,192,209140,12,0,210540
256,96,211540,1,0
192,192,211940,2,0,B|256:256|320:192,3,140
160,288,213740,5,2
160,176,214140,1,0
160,176,214340,1,0
160,64,214740,1,0
160,176,215140,6,4,B|240:336|416:288|464:160|448:80|400:48|352:16|256:80|240:96|272:176|326:194|351:169|352:128,1,630
256,272,218340,5,0
256,272,218540,1,0
256,160,218940,1,0
256,160,219140,1,0
208,288,219940,5,0
256,304,220140,1,0
304,288,220340,1,4
304,176,220740,1,4
208,176,221140,1,4
256,64,221540,2,0,C|324:146|414:152|323:220|360:328|253:259|146:328|184:204|102:152|192:144|256:48,2,1120
