osu file format v9

[General]
AudioFilename: Nightcore - Another Night.mp3
AudioLeadIn: 0
PreviewTime: 54868
Countdown: 0
SampleSet: Normal
StackLeniency: 0.7
Mode: 0
LetterboxInBreaks: 1

[Editor]
Bookmarks: 16120,27314,30758,43674,54509,65459,76912,82423,88795,99816,110838,145626,157164
DistanceSpacing: 1.1
BeatDivisor: 4
GridSize: 8

[Metadata]
Title:Another Night (Nightcore Mix)
Artist:Real McCoy
Creator:gowww
Version:Normal
Source:
Tags:night core miccoliasms cyborg aenna

[Difficulty]
HPDrainRate:1
CircleSize:3
OverallDifficulty:1
ApproachRate:4
SliderMultiplier:0.8
SliderTickRate:0.5

[Events]
//Background and Video events
0,0,"BG.jpg"
//Break Periods
2,27513,29438
2,43873,53204
2,77111,81103
2,88192,98669
//Storyboard Layer 0 (Background)
//Storyboard Layer 1 (Fail)
//Storyboard Layer 2 (Pass)
//Storyboard Layer 3 (Foreground)
//Storyboard Sound Samples
//Background Colour Transformations
3,100,163,162,255

[TimingPoints]
4926,344.43168771527,4,2,1,70,1,0
16120,-100,4,1,1,70,0,0
32738,-100,4,1,1,90,0,0
32911,-100,4,1,1,80,0,0
134776,-100,4,1,1,90,0,0

[Colours]
Combo1 : 0,0,176
Combo2 : 206,0,0
Combo3 : 123,62,0

[HitObjects]
136,64,4925,2,0,B|104:104|88:160|88:192|88:224,1,160,0|0
136,288,5959,1,2
256,160,6648,1,0
376,288,7337,1,2
376,112,8025,6,0,B|336:80|280:64|248:64|216:64,1,160,0|2
64,128,9403,2,0,B|104:160|160:176|192:176|224:176,1,160,0|2
368,256,10781,5,0
208,336,11470,1,2
88,208,12159,1,0
248,144,12847,1,2
256,192,13020,12,4,15603
96,88,16292,6,0,B|80:136|80:176,1,80,4|0
48,248,16981,2,0,B|72:296|104:320,1,80,8|0
176,280,17669,2,0,B|224:272|264:272,1,80,8|0
336,312,18358,2,0,B|368:288|392:256,1,80,8|0
448,192,19047,6,0,B|464:144|464:104,1,80,8|0
376,104,19736,2,0,B|352:56|320:32,1,80,8|0
248,64,20425,2,0,B|200:72|160:72,1,80,8|0
80,48,21114,2,0,B|48:72|24:104,1,80,8|0
48,192,21803,6,0,B|80:240|112:264,3,80,8|0|8|0
176,296,23180,2,0,B|224:264|248:232,3,80,8|0|8|0
256,160,24558,5,8
408,72,25247,1,8
448,240,25936,2,0,B|448:208,4,20,12|0|0|0|8
376,296,26625,2,0,B|368:304,16,10,8|0|0|0|0|0|0|0|0|0|0|0|0|0|0|0|0
144,64,30758,6,0,B|120:96|104:136,1,80,0|0
56,208,31447,2,0,B|88:232|128:248,1,80,4|0
200,296,32136,2,0,B|224:264|240:224,1,80,4|0
288,152,32824,5,14
440,64,33513,1,8
408,240,34202,2,0,B|440:272,2,40,10|0|0
336,288,34891,2,0,B|344:328,1,40,8|2
256,224,35580,5,10
96,296,36269,2,0,B|64:328,2,40,8|2|2
96,208,36958,1,10
96,120,37302,1,0
96,32,37647,2,0,B|56:32,4,40,8|2|2|0|10
272,72,39024,5,8
448,56,39713,1,10
448,56,40058,1,0
416,136,40402,2,0,B|464:184,1,40,8|2
392,288,41091,5,10
256,176,41780,1,8
120,288,42469,1,10
80,208,42813,1,0
40,128,43157,2,0,B|16:80,3,40,8|2|10|0
88,64,54524,6,0,B|64:112|64:152,1,80,4|8
64,232,55213,1,0
112,304,55557,1,8
256,200,56246,1,8
400,304,56935,1,8
448,136,57624,6,0,B|432:88|416:56,1,80,8|0
344,112,58312,2,0,B|328:64|312:32,1,80,8|0
240,88,59001,1,8
72,40,59690,1,8
48,216,60379,6,0,B|40:264|40:296,1,80,8|0
112,352,61068,2,0,B|160:360|192:360,1,80,8|0
256,296,61757,1,8
432,328,62446,1,8
456,240,62790,5,0
464,152,63134,2,0,B|448:104|424:80,2,80,8|0|8
384,192,64168,1,0
312,144,64512,2,0,B|248:128|208:136,2,80,8|0|8
384,192,65545,6,0,B|392:240,1,40,0|0
472,336,66234,2,0,B|416:360,1,40,0|0
304,328,66923,2,0,B|264:304,1,40
184,320,67440,1,8
112,272,67784,1,4
56,200,68129,6,0,B|48:160|40:104,2,80,0|0|0
136,160,69162,2,0,B|136:64,2,80
216,200,70195,2,0,B|224:160|232:104,1,80,8|4
288,56,70884,6,0,B|344:64|432:120|464:176,2,200
200,80,72951,1,12
112,56,73295,1,0
48,120,73640,6,0,B|40:168|48:208,1,80
104,272,74328,1,0
184,232,74673,2,0,B|232:208|272:200,1,80
336,248,75362,2,0,B|360:272,6,20,12|0|8|0|0|0|8
376,168,76223,2,0,B|384:160,16,10,8|0|0|0|0|0|0|0|0|0|0|0|0|0|0|0|0
152,88,82423,6,0,B|96:120|80:200|88:240,1,160,8|8
248,288,83800,2,0,B|280:312|320:328,2,80,8|0|0
216,208,84834,2,0,B|248:136|320:88,1,160
408,96,85867,1,0
448,176,86211,1,4
368,208,86556,2,0,B|344:184,4,20,12|0|0|0|8
408,288,87245,2,0,B|400:304,16,10,8|0|0|0|0|0|0|0|0|0|0|0|0|0|0|0|0
424,320,99989,6,0,B|448:272|448:232,1,80,4|8
448,152,100678,1,0
400,80,101022,1,8
256,184,101711,1,8
112,80,102400,1,8
64,248,103089,6,0,B|80:296|96:328,1,80,8|0
168,272,103777,2,0,B|184:320|200:352,1,80,8|0
272,296,104466,1,8
440,344,105155,1,8
464,168,105844,6,0,B|472:120|472:88,1,80,8|0
400,32,106533,2,0,B|352:24|320:24,1,80,8|0
256,88,107222,1,8
80,56,107911,1,8
56,144,108255,5,0
48,232,108599,2,0,B|64:280|88:304,2,80,8|0|8
128,192,109633,1,0
200,240,109977,2,0,B|264:256|304:248,2,80,8|0|8
128,192,111010,6,0,B|120:144,1,40,0|0
40,48,111699,2,0,B|96:24,1,40,0|0
208,56,112388,2,0,B|248:80,1,40
328,64,112905,1,8
400,112,113249,1,4
456,184,113594,6,0,B|464:224|472:280,2,80,0|0|0
376,224,114627,2,0,B|376:320,2,80
296,184,115660,2,0,B|288:224|280:280,1,80,8|4
224,328,116349,6,0,B|168:320|80:264|48:208,2,200
312,304,118416,1,12
400,328,118760,1,0
464,264,119105,6,0,B|472:216|464:176,1,80
408,112,119793,1,0
328,152,120138,2,0,B|280:176|240:184,1,80
176,136,120827,2,0,B|152:112,6,20,12|0|8|0|0|0|8
136,216,121688,2,0,B|128:224,8,10,8|0|0|0|0|0|0|0|0
200,272,122377,6,0,B|248:288|288:288,1,80,4|0
368,264,123066,2,0,B|416:240|440:208,1,80,8|0
440,128,123754,2,0,B|392:120|352:120,1,80,8|0
296,64,124443,2,0,B|264:88|240:120,1,80,8|0
152,96,125132,6,0,B|136:144|136:184,1,80,8|0
56,216,125821,2,0,B|80:264|112:288,1,80,8|0
168,344,126510,2,0,B|216:336|256:336,1,80,8|0
336,328,127199,2,0,B|368:304|392:272,1,80,8|0
440,200,127888,6,0,B|424:120|352:48|256:40,1,240,8|0
256,128,129265,2,0,B|176:144|104:216|96:312,1,240,8|0
176,328,130643,5,12
344,272,131332,1,12
456,136,132021,2,0,B|456:104,4,20,12|0|0|0|8
376,96,132710,2,0,B|368:88,15,10,8|0|0|0|0|0|0|0|0|0|0|0|0|0|0|0
256,192,133399,12,4,134776
