osu file format v9

[General]
AudioFilename: Nightcore_-_Another_Night.mp3
AudioLeadIn: 0
PreviewTime: 14829
Countdown: 0
SampleSet: Normal
StackLeniency: 0.7
Mode: 1
LetterboxInBreaks: 1

[Editor]
Bookmarks: 11965,22987,28498,34009,39520,45031,50542,72585,83607,84468,96007,117878,123561,129072,130450,135961,141472,146983,152494
DistanceSpacing: 0.5
BeatDivisor: 4
GridSize: 8

[Metadata]
Title:Another Night (Nightcore Mix)
Artist:Real McCoy
Creator:_[JSF]HeiLPoInT
Version:S_u_z_u_a's Taiko
Source:
Tags:Nightcore _[jsf]HeilPoInT S_u_z_u_a

[Difficulty]
HPDrainRate:5
CircleSize:5
OverallDifficulty:5
ApproachRate:5
SliderMultiplier:1.4
SliderTickRate:1

[Events]
//Background and Video events
0,0,"2010711200040.jpg"
//Break Periods
//Storyboard Layer 0 (Background)
//Storyboard Layer 1 (Fail)
//Storyboard Layer 2 (Pass)
//Storyboard Layer 3 (Foreground)
//Storyboard Sound Samples
//Background Colour Transformations
3,100,163,162,255

[TimingPoints]
11963,344.43168771527,4,1,0,70,1,0
23329,-125,4,1,0,70,0,0
26515,-111.111111111111,4,1,0,70,0,0
27389,-100,4,1,0,70,0,0
28495,-90.9090909090909,4,1,0,70,0,0
48214,-83.3333333333333,4,1,0,70,0,0
50711,-76.9230769230769,4,1,0,70,0,0
71894,-100,4,1,0,70,0,0
84982,-90.9090909090909,4,1,0,70,0,0
90493,-83.3333333333333,4,1,0,70,0,0
96004,-76.9230769230769,4,1,0,70,0,0
117961,-83.3333333333333,4,1,0,70,0,0

[Colours]
Combo1 : 112,196,193
Combo2 : 243,89,34

[HitObjects]
144,96,11962,1,0
144,96,12049,1,0
144,96,12135,1,0
144,96,12307,5,8
144,96,12479,5,0
144,96,12651,1,0
144,96,12824,5,8
144,96,12996,5,0
144,96,13168,1,0
144,96,13340,5,8
144,96,13426,5,0
144,96,13513,1,0
144,96,13685,1,0
144,96,13857,1,0
144,96,14029,5,8
144,96,14201,5,0
144,96,14287,5,8
144,96,14374,5,0
144,96,14546,5,8
144,96,14718,5,0
144,96,14890,5,8
144,96,15063,5,0
144,96,15148,1,0
144,96,15235,1,0
144,96,15407,1,0
144,96,15579,5,8
144,96,15751,1,8
144,96,15837,1,8
144,96,15923,5,0
144,96,16096,1,0
144,96,16268,1,0
144,96,16440,5,8
144,96,16612,1,8
144,96,16784,5,0
144,96,16957,1,0
144,96,17129,1,0
144,96,17215,1,0
144,96,17301,5,8
144,96,17473,5,0
144,96,17645,5,8
144,96,17817,1,8
144,96,17990,1,8
144,96,18162,5,0
144,96,18248,1,0
144,96,18335,5,8
144,96,18421,1,8
144,96,18507,5,0
144,96,18680,1,0
144,96,18852,5,8
144,96,19023,5,0
144,96,19109,5,8
144,96,19195,1,8
144,96,19368,5,0
144,96,19540,5,8
144,96,19712,1,8
144,96,19884,5,0
144,96,20057,5,8
144,96,20229,5,0
144,96,20401,5,8
144,96,20487,1,8
144,96,20573,1,8
144,96,20746,5,0
144,96,20918,1,0
144,96,21090,5,8
144,96,21262,1,8
144,96,21435,5,0
144,96,21607,1,0
144,96,21693,5,8
144,96,21779,5,0
144,96,21865,5,8
144,96,21951,5,0
144,96,22037,5,8
144,96,22124,5,0
144,96,22209,1,0
144,96,22295,5,8
144,96,22382,1,8
144,96,22468,5,0
144,96,22554,1,0
144,96,22640,5,8
144,96,22726,1,8
144,96,22813,5,0
144,96,22898,1,0
144,96,22985,5,8
264,240,23157,5,4
272,192,23501,1,0
272,192,23673,5,8
272,192,23845,5,0
272,192,24018,5,8
272,192,24190,1,8
272,192,24276,1,8
272,192,24362,5,0
272,192,24534,1,0
272,192,24706,1,8
272,192,24879,5,8
272,192,24965,1,8
272,192,25051,5,0
272,192,25309,5,0
272,192,25395,1,0
272,192,25481,5,8
272,192,25568,1,8
272,192,25740,5,0
272,192,25912,5,8
272,192,26084,5,8
272,192,26256,5,0
272,192,26429,1,0
272,192,26601,5,8
272,192,26687,1,8
272,192,26773,1,8
272,192,26945,5,0
272,192,27117,5,8
272,192,27290,1,8
272,192,27462,5,0
272,192,27548,1,0
272,192,27634,5,8
272,192,27806,1,8
272,192,27979,5,0
272,192,28151,5,8
272,192,28495,5,4
272,192,28840,5,8
272,192,29184,1,8
272,192,29270,1,8
272,192,29356,5,0
272,192,29529,1,0
272,192,29615,1,0
272,192,29701,5,8
272,192,29873,5,0
264,192,29959,5,8
272,192,30045,1,8
272,192,30217,1,8
272,192,30303,1,8
272,192,30390,5,0
272,192,30734,5,8
272,192,30906,5,0
272,192,31078,1,8
272,192,31251,5,8
264,192,31337,1,0
256,192,31595,1,8
272,192,31681,5,0
256,192,31767,1,0
256,192,31940,1,0
256,192,32112,1,0
256,192,32284,5,8
256,192,32628,5,0
272,192,32801,5,8
256,192,32973,5,0
256,192,33145,1,0
256,192,33317,5,8
256,192,33403,1,8
256,192,33489,5,0
256,192,33662,5,8
256,192,33834,5,0
256,192,34006,1,0
256,192,34351,5,8
256,192,34523,5,0
256,192,34867,1,0
256,192,35212,5,8
256,192,35298,1,8
256,192,35384,5,0
256,192,35728,1,0
256,192,35901,5,8
256,192,36245,1,8
256,192,36417,1,8
256,192,36589,5,0
256,192,36762,1,0
256,192,37106,5,8
384,208,37450,5,0
384,208,37623,5,8
384,208,37795,5,0
384,208,37967,5,8
384,208,38053,1,8
384,208,38139,1,8
384,208,38312,5,0
384,208,38484,5,8
384,208,38656,5,0
384,208,38742,1,0
384,208,38828,1,0
384,208,39173,5,8
384,208,39259,1,8
384,208,39345,5,0
384,208,39431,5,8
384,208,39517,5,0
384,208,39603,5,8
384,208,39689,1,8
384,208,39861,1,8
384,208,40206,5,0
384,208,40378,5,8
384,208,40723,1,8
384,208,40895,1,8
384,208,41239,5,0
352,208,41584,1,0
256,224,41756,5,8
256,224,42100,5,0
256,224,42272,1,0
256,224,42359,5,8
256,224,42445,1,8
256,224,42617,5,0
256,224,42961,5,8
256,224,43047,1,8
256,224,43134,5,0
256,224,43478,1,0
256,224,43650,5,8
256,224,43736,5,0
256,224,43822,5,8
256,224,43909,1,8
256,224,43995,5,0
256,224,44167,1,0
256,224,44339,5,8
256,224,44425,1,8
256,224,44597,5,0
256,224,44684,1,0
256,224,44856,1,0
256,224,45028,5,8
256,224,45114,1,8
256,224,45200,1,8
256,224,45372,5,0
256,224,45458,5,8
256,224,45631,1,8
256,224,45717,5,0
256,224,45889,1,0
256,224,46061,5,8
256,224,46147,1,8
256,224,46233,5,0
256,224,46406,5,8
256,224,46750,5,0
256,224,46836,5,8
256,224,46922,1,8
256,224,47008,1,8
256,224,47095,5,0
256,224,47267,1,0
256,224,47611,5,8
256,224,47783,5,0
256,224,48128,1,0
256,224,48472,1,0
256,224,48644,5,8
256,224,48817,1,8
256,224,48989,5,0
256,224,49161,5,8
256,224,49333,1,8
256,224,49506,1,8
256,224,49678,5,0
256,224,49850,1,0
256,224,49936,1,0
256,224,50022,5,8
256,224,50108,1,8
256,224,50194,5,0
256,224,50281,1,0
256,224,50367,5,8
256,224,50453,1,8
256,224,50539,5,0
256,224,50711,1,0
256,224,50883,1,0
256,224,51055,1,0
256,224,51142,5,8
256,224,51228,1,8
256,224,51400,5,0
256,224,51572,5,8
256,224,51744,1,8
256,224,52089,5,0
256,224,52433,5,8
256,224,52778,1,8
256,224,52950,5,0
256,224,53036,5,8
256,224,53122,1,8
256,224,53294,5,0
256,224,53467,5,8
256,224,53639,1,8
256,224,53725,1,8
256,224,53811,5,0
256,224,53983,1,0
256,224,54155,5,8
256,224,54328,5,0
256,224,54414,5,8
256,224,54500,1,8
256,224,54672,5,0
256,224,54844,1,0
256,224,54930,1,0
256,224,55016,5,8
256,224,55103,1,8
256,224,55189,1,8
256,224,55533,5,0
256,224,55705,5,8
256,224,55878,5,0
256,224,55964,5,8
256,224,56050,1,8
256,224,56222,5,0
256,224,56394,1,0
256,224,56480,5,8
256,224,56566,1,8
256,224,56739,1,8
256,224,56911,5,0
256,224,57083,1,0
256,224,57169,5,8
256,224,57255,5,0
256,224,57600,5,8
192,136,57772,5,0
256,224,57944,5,8
352,160,58289,5,0
352,160,58375,5,8
352,160,58461,1,8
352,160,58633,5,0
352,160,58805,5,8
352,160,58977,1,8
352,160,59150,1,8
352,160,59322,5,0
352,160,59666,5,8
352,160,59752,5,0
352,160,59839,1,0
352,160,60011,5,8
352,160,60355,5,0
352,160,60526,1,0
352,160,60613,5,8
352,160,60700,5,0
352,160,60872,1,0
80,184,61044,5,8
80,184,61216,1,8
80,184,61388,1,8
80,184,61733,5,0
80,184,61905,1,0
80,184,62077,1,0
184,280,62422,5,8
184,280,62594,1,8
184,280,62766,1,8
184,280,63111,1,12
184,280,63455,5,4
360,208,63799,5,8
360,208,63886,1,8
360,208,63972,5,0
360,208,64144,5,8
360,208,64316,1,8
360,208,64488,5,0
360,208,64661,5,8
360,208,64747,1,8
360,208,64833,5,0
360,208,65005,1,0
360,208,65177,5,8
360,208,65349,5,0
360,208,65522,5,8
360,208,65694,1,8
360,208,65866,5,0
360,208,65952,1,0
360,208,66038,5,8
360,208,66124,1,8
360,208,66210,5,0
128,192,66383,1,0
128,192,66555,1,0
128,192,66641,5,8
128,192,66727,1,8
128,192,66813,1,8
128,192,66899,5,0
128,192,67071,1,0
128,192,67243,5,8
128,192,67416,1,8
128,192,67502,5,0
128,192,67588,1,0
128,192,67674,1,0
128,192,67760,5,8
128,192,67933,5,0
128,192,68105,1,0
128,192,68191,1,0
128,192,68277,5,8
128,192,68363,1,8
128,192,68449,5,0
128,192,68535,1,0
128,192,68622,5,8
128,192,68708,1,8
128,192,68794,5,0
128,192,68966,5,8
128,192,69138,5,4
256,208,69310,1,0
256,208,69483,1,0
256,208,69569,5,8
256,208,69655,1,8
256,208,69741,5,0
256,208,69827,1,0
256,208,69999,5,8
256,208,70171,5,0
256,208,70258,1,0
256,208,70343,1,0
256,208,70516,5,8
256,208,70688,5,0
256,208,70860,1,0
256,208,70946,5,8
256,208,71033,1,8
256,208,71205,5,0
256,208,71291,1,0
256,208,71377,1,0
256,208,71549,1,4
256,208,71894,5,12
352,192,72582,5,0
352,192,72926,5,8
352,192,73271,5,0
176,176,73444,5,8
352,192,73615,5,0
352,192,73960,5,8
352,192,74305,5,0
176,176,74477,5,8
352,192,74821,5,0
352,192,74993,5,8
352,192,75338,1,8
352,192,75682,5,0
240,176,75855,5,8
184,232,76027,5,0
232,120,76199,5,8
232,120,76371,5,0
360,88,76716,1,0
360,88,76802,5,8
360,88,76888,5,0
360,88,77060,1,0
360,88,77405,5,8
360,88,77577,1,8
360,88,77749,5,0
360,88,77921,1,0
360,88,78093,5,8
360,88,78266,5,0
240,208,78438,1,0
240,208,78610,1,0
240,208,78782,1,0
240,208,79127,5,8
240,208,79471,1,8
240,208,79816,1,8
240,208,79988,5,0
352,256,80332,1,0
352,256,80418,5,8
352,256,80504,1,8
352,256,80677,5,0
352,256,80849,1,0
352,256,81021,5,8
352,256,81193,5,0
352,256,81279,5,8
208,192,81365,5,0
352,256,81538,5,8
352,256,81624,1,8
352,256,81710,1,8
352,256,81882,5,0
208,192,82054,5,8
208,192,82140,5,0
208,192,82313,1,0
208,192,82399,5,8
208,192,82571,1,8
208,192,82657,5,0
208,192,82829,1,0
208,192,82915,5,8
208,192,83088,5,0
208,192,83260,1,0
208,192,83432,5,8
208,192,83518,1,8
208,192,83604,1,8
288,240,84982,1,8
288,240,85671,1,8
288,240,86360,5,0
288,240,87049,5,8
288,240,87737,5,0
288,240,88426,1,0
288,240,89115,5,8
288,240,89803,1,8
288,240,90493,5,4
288,240,90838,1,4
288,240,91182,5,12
288,240,91526,1,12
288,240,91871,5,4
288,240,92216,1,4
288,240,92560,5,8
288,240,92646,5,0
288,240,92732,1,0
288,240,92904,5,8
288,240,92990,5,0
288,240,93076,1,0
288,240,93248,5,8
288,240,93421,1,8
288,240,93507,1,8
288,240,93593,5,0
288,240,93765,5,8
288,240,93937,5,0
288,240,94023,1,0
288,240,94282,5,8
288,240,94540,1,8
288,240,94626,5,0
288,240,94798,5,8
288,240,94884,5,0
288,240,95057,1,0
288,240,95229,1,0
288,240,95315,5,8
288,240,95401,1,8
288,240,95487,1,8
288,240,95573,1,8
288,240,95659,1,8
224,136,95832,5,0
224,136,95918,1,0
224,136,96004,5,8
224,136,96176,1,8
224,136,96348,5,0
224,136,96520,5,8
224,136,96693,5,0
224,136,96779,5,8
224,136,97037,1,8
224,136,97209,5,0
224,136,97382,1,0
224,136,97468,5,8
224,136,97554,1,8
224,136,97726,5,0
224,136,97812,5,8
224,136,98070,1,8
224,136,98243,5,0
224,136,98415,5,8
224,136,98587,5,0
224,136,98673,5,8
224,136,98759,5,0
224,136,99104,1,0
224,136,99276,5,8
352,184,99448,5,0
352,184,99620,5,8
352,184,99706,5,0
352,184,99965,1,0
352,184,100137,5,8
352,184,100309,5,0
352,184,100395,1,0
352,184,100481,5,8
352,184,100568,1,8
352,184,100654,1,8
224,256,100998,5,0
224,256,101170,5,8
224,256,101256,5,0
224,256,101343,1,0
224,256,101515,5,8
224,256,101601,5,0
224,256,101773,5,8
224,256,101859,5,0
224,256,102031,1,0
224,256,102204,1,0
224,256,102290,1,0
224,256,102376,5,8
224,256,102548,1,8
224,256,102720,1,8
224,256,102892,5,0
224,256,103065,1,0
224,256,103237,5,8
224,256,103409,5,0
224,256,103495,1,0
224,256,103581,5,8
224,256,103754,1,8
224,256,103926,5,0
224,256,104012,1,0
224,256,104098,5,8
224,256,104270,1,8
224,256,104356,5,0
224,256,104529,5,8
224,256,104615,5,0
224,256,104787,5,8
224,256,104959,1,8
224,256,105045,5,0
224,256,105217,1,0
224,256,105390,1,0
224,256,105476,5,8
224,256,105648,5,0
224,256,105734,1,0
224,256,105820,1,0
224,256,105906,5,8
224,256,105992,1,8
224,256,106078,5,0
224,256,106165,1,0
224,256,106337,5,8
344,136,106509,5,0
344,136,106595,5,8
344,136,106681,1,8
384,144,106853,5,0
408,208,106940,1,0
384,144,107026,5,8
400,176,107112,1,8
408,208,107284,5,0
408,208,107370,5,8
392,296,107542,5,0
360,256,107628,1,0
352,320,107715,5,8
352,320,107887,5,0
312,304,108059,5,8
96,136,108231,5,0
96,136,108317,1,0
96,136,108403,5,8
96,136,108489,1,8
96,136,108662,1,8
96,136,108748,5,0
96,136,108920,5,8
96,136,109092,1,8
96,136,109264,5,0
96,136,109351,5,0
96,136,109437,1,8
96,136,109609,5,0
96,136,109781,1,0
72,232,109953,5,8
232,56,110126,5,0
232,56,110212,5,8
232,96,110298,1,8
232,96,110384,1,8
232,128,110470,5,0
232,160,110556,1,0
232,280,110642,1,0
352,216,110814,1,0
352,216,110901,5,8
352,216,111073,1,8
352,216,111159,5,0
352,216,111331,5,8
352,216,111503,5,0
352,216,111675,1,0
352,216,112020,5,8
352,216,112106,1,8
352,216,112192,5,0
352,216,112364,1,0
352,216,112450,5,8
352,216,112537,1,8
352,216,112709,5,0
352,216,112795,5,8
352,216,112881,5,0
352,216,113053,1,0
352,216,113225,1,0
352,216,113312,5,8
352,216,113398,1,8
352,216,113570,5,0
352,216,113742,1,0
352,216,113914,5,8
352,216,114000,1,8
352,216,114086,1,8
352,216,114173,1,8
352,216,114259,5,0
352,216,114345,1,0
352,216,114431,1,0
128,184,114775,5,8
128,184,114861,5,0
128,184,114948,5,8
128,184,115120,5,0
128,184,115206,1,0
128,184,115292,5,8
128,184,115378,1,8
128,184,115464,1,8
128,184,115636,5,0
128,184,115809,1,0
128,184,115981,5,8
128,184,116067,1,8
128,184,116153,5,0
128,184,116239,1,0
128,184,116325,5,8
128,184,116498,5,0
128,184,116670,5,8
128,184,116842,5,0
128,184,116928,1,0
128,184,117014,5,8
128,184,117100,1,8
128,184,117186,5,0
128,184,117359,1,0
176,184,117445,1,0
176,184,117531,5,8
176,184,117617,1,8
176,184,117703,5,0
176,184,117789,1,0
320,216,117875,1,0
312,112,118047,5,8
312,112,118220,5,0
432,168,118392,5,8
400,88,118478,1,8
400,56,118564,5,0
456,224,118736,1,0
448,264,118822,5,8
448,264,118909,1,8
288,296,118995,1,8
216,296,119081,1,8
80,280,119253,5,0
80,216,119339,1,0
64,168,119425,5,8
136,104,119597,5,0
136,104,119770,5,8
136,104,119942,1,8
136,104,120028,5,0
192,104,120200,1,0
192,104,120372,1,0
192,104,120458,5,8
256,112,120631,5,0
408,168,120803,5,8
408,168,120889,1,8
368,136,120975,5,0
368,136,121147,1,0
368,136,121233,5,8
368,136,121320,1,8
368,136,121406,1,8
368,136,121492,5,0
368,136,121664,1,0
368,136,121836,5,8
368,136,122008,5,0
368,136,122181,5,8
368,136,122267,1,8
368,136,122353,1,8
368,136,122439,5,0
368,136,122525,1,0
368,136,122697,5,8
368,136,122870,5,0
368,136,122956,1,0
368,136,123042,5,8
368,136,123214,1,8
368,136,123386,5,0
368,136,123558,1,0
368,136,123731,5,8
368,136,123903,1,8
368,136,123989,5,0
368,136,124075,1,0
368,136,124247,5,8
368,136,124419,1,8
368,136,124592,5,0
368,136,124764,1,0
368,136,124850,5,8
368,136,124936,1,8
368,136,125022,1,8
368,136,125108,1,8
368,136,125281,5,0
368,136,125453,5,8
368,136,125625,5,0
368,136,125797,1,0
368,136,125883,5,8
368,136,125969,1,8
368,136,126142,5,0
368,136,126314,1,0
368,136,126658,5,8
368,136,126830,5,0
368,136,126917,5,8
368,136,127003,1,8
368,136,127089,5,0
368,136,127175,1,0
368,136,127347,5,8
368,136,127519,1,8
368,136,127692,5,0
368,136,127778,5,8
368,136,127950,1,8
368,136,128122,1,8
368,136,128208,5,0
368,136,128380,1,0
368,136,128553,5,8
368,136,128725,1,8
368,136,128811,1,8
368,136,128897,5,0
368,136,128983,1,0
368,136,129069,1,0
