osu file format v9

[General]
AudioFilename: Nightcore_-_Another_Night.mp3
AudioLeadIn: 3000
PreviewTime: -1
Countdown: 1
SampleSet: Normal
StackLeniency: 0.7
Mode: 0
LetterboxInBreaks: 1

[Editor]
Bookmarks: 11965,22987,28498,34009,39520,45031,50542,72585,83607,84468,96007,117878,123561,129072,130450,135961,141472,146983,152494
DistanceSpacing: 0.7
BeatDivisor: 4
GridSize: 8

[Metadata]
Title:Another Night (Nightcore Mix)
Artist:Real McCoy
Creator:_[JSF]HeiLPoInT
Version:Easy
Source:
Tags:Nightcore _[jsf]HeilPoInT S_u_z_u_a

[Difficulty]
HPDrainRate:1
CircleSize:3
OverallDifficulty:2
ApproachRate:2
SliderMultiplier:0.8
SliderTickRate:2

[Events]
//Background and Video events
0,0,"2010711200040.jpg"
//Break Periods
2,23184,26935
//Storyboard Layer 0 (Background)
//Storyboard Layer 1 (Fail)
//Storyboard Layer 2 (Pass)
//Storyboard Layer 3 (Foreground)
//Storyboard Sound Samples
//Background Colour Transformations
3,100,163,162,255

[TimingPoints]
11963,344.43168771527,4,1,0,61,1,0
22987,-100,4,1,0,62,0,1
23673,-100,4,2,0,62,0,0
28495,-100,4,1,0,61,0,0
96006,-100,4,1,0,62,0,1
129071,-100,4,1,0,62,0,0

[Colours]
Combo1 : 0,128,255
Combo2 : 255,255,255
Combo3 : 0,255,255

[HitObjects]
168,120,11962,2,0,B|104:192|168:264,2,160,4|0|4
256,200,14029,1,0
344,264,14718,2,0,B|408:192|344:120,2,160,4|0|4
256,192,16785,1,0
256,192,17473,2,0,B|320:264|256:336,1,160,4|0
144,336,18851,1,4
56,264,19540,2,0,B|104:192|56:112,1,160,0|4
152,48,20918,1,0
256,192,21607,12,4,22984
256,192,28495,6,0,B|256:280,2,80
216,88,29873,2,0,B|256:72|296:88,2,80
104,88,31251,1,0
56,192,31940,1,0
104,296,32628,1,0
216,296,33317,2,0,B|288:344|368:296,1,160
456,232,34695,1,0
368,160,35384,2,0,B|296:112|216:160,1,160
144,240,36762,2,0,B|64:240,2,80
256,240,38139,2,0,B|416:240,2,160
256,128,40206,5,0
344,64,40895,2,0,B|440:64|440:168,2,160
256,128,42961,1,0
168,64,43650,2,0,B|72:64|72:168,2,160
256,128,45717,1,0
328,216,46406,2,0,B|256:280|184:216,1,160
256,192,47783,12,4,50539
256,192,51228,2,0,B|328:128|400:200,1,160
400,304,52605,1,0
288,304,53294,2,0,B|216:368|144:304,1,160
144,192,54672,2,0,B|56:192,2,80
256,192,56050,2,0,B|424:192,2,160
256,80,58116,1,0
144,80,58805,2,0,B|64:80|0:200|64:304|144:304,1,320
256,304,60872,1,0
368,304,61561,6,0,B|464:304,2,80
368,192,62938,2,0,B|432:120|368:48,1,160
280,120,64316,2,0,B|120:120,1,160
120,232,65694,2,0,B|120:328,2,80
232,232,67072,1,0
312,312,67760,1,0
392,232,68449,1,0
312,152,69138,1,0
256,192,69827,12,4,72582
256,192,73271,5,0
280,304,73960,2,0,B|376:304|376:200,2,160
168,304,76027,1,0
56,304,76716,2,0,B|56:136,1,160
80,32,78093,2,0,B|176:32|176:136,1,160
176,248,79471,1,0
288,248,80160,2,0,B|448:248,1,160
448,136,81538,1,0
336,136,82227,2,0,B|336:40,4,80
256,192,84982,5,4
256,192,87737,1,4
256,192,90493,6,0,B|352:192|352:88,1,160,4|0
256,192,91871,2,0,B|256:288|360:288,1,160,4|0
256,192,93248,2,0,B|160:192|160:296,1,160,4|0
256,192,94626,2,0,B|256:96|152:96,1,160,4|0
40,96,96004,5,0
96,192,96693,1,0
40,288,97382,1,0
152,288,98070,1,0
264,288,98759,2,0,B|432:288,2,160
264,288,100826,1,0
256,176,101515,6,0,B|184:104|256:32,1,160
344,104,102892,1,0
440,40,103581,2,0,B|512:112|440:184,1,160
448,296,104959,1,0
336,296,105648,6,0,B|256:296|192:176|256:72|336:72,1,320
448,72,107715,1,0
448,184,108403,1,0
336,184,109092,2,0,B|176:184,1,160
176,184,110470,1,0
152,72,111159,2,0,B|72:72|8:192|72:296|152:296,1,320
264,296,113225,1,0
376,296,113914,2,0,B|464:296,2,80
376,184,115292,2,0,B|376:80|272:80,1,160
168,80,116670,2,0,B|72:80,4,80
168,192,118736,5,0
168,192,119425,2,0,B|72:192|72:296,2,160
280,192,121492,1,0
392,192,122181,2,0,B|480:192,2,80
392,80,123558,2,0,B|320:16|248:80,1,160
248,192,124936,2,0,B|88:192,2,160
248,304,127003,1,0
360,304,127692,2,0,B|440:304,4,80,0|0|0|0|4
144,304,130447,6,0,B|64:304,2,80
256,304,131825,2,0,B|320:232|256:160,1,160
144,160,133202,1,0
32,160,133891,1,0
32,48,134580,1,0
144,48,135269,2,0,B|216:112|288:48,1,160
400,48,136647,5,0
400,160,137336,2,0,B|400:320,1,160
288,320,138713,2,0,B|288:240,2,80
176,320,140091,2,0,B|96:320|32:200|96:96|176:96,1,320
288,96,142158,1,0
288,208,142847,2,0,B|384:208,2,80
176,208,144224,2,0,B|16:208,2,160
176,208,146291,1,0
288,208,146980,6,0,B|360:272|432:208,1,160
360,120,148357,1,0
360,120,149046,1,0
256,192,149735,12,4,152491
