osu file format v9

[General]
AudioFilename: Nightcore_-_Another_Night.mp3
AudioLeadIn: 0
PreviewTime: -1
Countdown: 1
SampleSet: Normal
StackLeniency: 0.7
Mode: 0
LetterboxInBreaks: 1

[Editor]
Bookmarks: 11965,22987,28498,34009,39520,45031,50542,72585,83607,84468,96007,117878,123561,129072,130450,135961,141472,146983,152494
DistanceSpacing: 0.5
BeatDivisor: 4
GridSize: 8

[Metadata]
Title:Another Night (Nightcore Mix)
Artist:Real McCoy
Creator:_[JSF]HeiLPoInT
Version:Another style
Source:
Tags:Nightcore _[jsf]HeilPoInT S_u_z_u_a

[Difficulty]
HPDrainRate:7
CircleSize:4
OverallDifficulty:7
ApproachRate:9
SliderMultiplier:2.4
SliderTickRate:2

[Events]
//Background and Video events
0,0,"2010711200040.jpg"
//Break Periods
//Storyboard Layer 0 (Background)
//Storyboard Layer 1 (Fail)
//Storyboard Layer 2 (Pass)
//Storyboard Layer 3 (Foreground)
//Storyboard Sound Samples
//Background Colour Transformations
3,100,163,162,255

[TimingPoints]
11963,344.43168771527,4,1,0,61,1,0
22987,-100,4,1,0,62,0,1
23332,-100,4,1,0,51,0,0
24362,-100,4,1,0,41,0,0
25740,-100,4,1,0,31,0,0
27117,-100,4,1,0,41,0,0
27806,-100,4,1,0,50,0,0
28495,-100,4,1,0,60,0,0
96006,-100,4,1,0,62,0,1
129071,-100,4,1,0,62,0,0

[Colours]
Combo1 : 0,128,255
Combo2 : 255,255,255
Combo3 : 0,255,255

[HitObjects]
360,312,11962,2,0,B|416:352|472:312,1,120
472,176,12307,2,0,B|416:136|360:176,1,120
256,256,12651,1,0
152,312,12824,1,0
152,312,12910,1,0
152,312,12996,1,0
48,248,13168,1,0
48,112,13340,6,0,B|48:40|128:40,1,120
464,272,13685,2,0,B|464:344|384:344,1,120
48,272,14029,2,0,B|48:344|128:344,1,120
392,48,14374,2,0,B|464:48|464:128,1,120
344,152,14718,5,0
312,136,14804,1,0
280,128,14890,1,0
248,136,14976,1,0
216,152,15062,1,0
184,168,15148,1,0
144,168,15235,1,0
112,160,15321,1,0
80,144,15407,6,0,B|80:264,1,120
296,24,15751,2,0,B|176:24,1,120
424,232,16096,2,0,B|424:112,1,120
216,360,16440,2,0,B|296:360|296:288,1,120
296,168,16785,1,0
176,168,16957,1,0
176,168,17043,1,0
176,168,17129,1,0
240,64,17301,1,0
240,64,17473,5,0
408,64,17646,1,0
408,232,17818,1,0
240,232,17990,1,0
144,104,18162,5,0
312,104,18335,1,0
312,272,18507,1,0
144,272,18679,1,0
40,192,18851,5,0
40,192,19023,1,0
144,104,19196,1,0
144,104,19282,1,0
144,104,19368,1,0
240,192,19540,1,0
240,192,19712,1,0
344,272,19885,1,0
344,272,19971,1,0
344,272,20057,1,0
448,192,20229,5,0
344,112,20401,1,0
240,192,20573,1,0
144,104,20746,1,0
48,192,20918,1,0
144,280,21090,1,0
240,192,21262,1,0
344,272,21434,1,0
448,192,21607,5,0
416,176,21693,1,0
384,168,21779,1,0
352,176,21865,1,0
320,192,21951,1,0
288,208,22037,1,0
256,216,22123,1,0
224,208,22209,1,0
192,192,22295,2,0,B|176:176|152:176,15,30
256,48,23329,5,0
112,48,23673,1,0
112,192,24018,1,0
256,192,24362,1,0
304,96,24706,5,0
168,96,25050,1,0
168,232,25395,1,0
304,232,25739,1,0
344,152,26084,5,0
216,152,26428,1,4
216,280,26773,1,4
344,280,27117,1,4
376,280,27462,5,4
408,288,27806,1,4
440,296,28151,1,4
472,296,28495,5,4
472,176,28667,1,0
384,96,28840,1,4
296,16,29012,2,0,B|176:16,1,120
80,88,29356,1,0
80,88,29442,1,0
80,88,29529,1,0
80,208,29701,1,0
80,328,29873,6,0,B|136:368|192:328,1,120,4|0
432,56,30217,2,0,B|376:16|320:56,1,120,4|0
328,328,30562,5,0
200,56,30734,1,0
200,328,30906,1,0
320,56,31078,1,0
200,192,31251,6,0,B|144:152|88:192,1,120,4|0
312,192,31595,2,0,B|368:232|424:192,1,120,4|0
88,192,31940,1,0
424,192,32112,1,0
64,56,32284,1,0
448,328,32456,1,0
336,328,32628,6,0,B|216:328,1,120,4|0
96,328,32973,1,4
168,232,33145,1,0
168,200,33231,1,0
168,168,33317,1,0
96,72,33489,1,4
216,72,33662,1,4
240,88,33748,1,0
272,96,33834,1,4
304,88,33920,1,0
328,72,34006,6,0,B|392:104|392:176,1,120,4|0
184,312,34351,2,0,B|120:280|120:208,1,120,4|0
392,168,34695,1,0
120,217,34867,1,0
280,312,35039,1,0
232,80,35212,1,0
104,80,35384,6,0,B|104:144|104:144|160:184,1,120,4|0
408,304,35728,2,0,B|408:240|408:240|352:200,1,120,4|0
56,32,36073,6,0,B|56:96|56:96|112:136,1,120
456,352,36417,2,0,B|456:288|456:288|400:248,1,120
256,192,36762,5,4
256,64,36934,1,0
384,64,37106,1,4
384,192,37278,1,0
256,192,37450,5,0
88,192,37623,1,0
88,360,37795,1,0
256,360,37967,1,0
376,312,38139,5,4
408,312,38225,1,0
440,312,38312,1,0
496,192,38484,1,4
440,72,38656,1,0
408,72,38742,1,0
376,72,38828,1,0
328,192,39000,1,4
192,192,39173,1,4
160,184,39259,1,0
144,160,39345,1,4
136,128,39431,1,0
136,96,39517,6,0,B|144:24|216:24,1,120,4|0
376,288,39861,2,0,B|368:360|296:360,1,120,4|0
216,24,40206,1,0
296,360,40378,1,0
256,112,40550,1,0
256,264,40723,1,0
152,192,40895,6,0,B|80:184|80:104,1,120,4|0
360,192,41239,2,0,B|432:200|432:280,1,120,4|0
256,40,41584,5,0
112,112,41756,1,0
112,272,41928,1,0
256,344,42100,1,0
400,272,42272,1,4
400,112,42444,1,0
400,112,42617,6,0,B|349:158|349:158|296:160,1,120,4|0
112,272,42961,2,0,B|160:224|160:224|216:224,1,120
112,112,43306,2,0,B|168:112|168:112|216:160,1,120
400,272,43650,2,0,B|352:272|352:272|296:224,1,120,4|0
256,40,43995,2,0,B|256:160,1,120,4|0
256,344,44339,2,0,B|256:216,1,120,0|4
400,112,44684,5,4
112,112,44856,1,4
256,224,45028,1,4
256,224,45372,1,4
376,72,45717,6,0,B|416:32|416:32|480:32,1,120
136,312,46061,2,0,B|96:352|96:352|32:352,1,120
376,72,46406,5,4
136,312,46578,1,0
288,88,46750,1,4
224,296,46922,1,0
200,136,47095,1,0
304,248,47267,1,0
112,192,47439,1,0
400,192,47611,1,0
400,192,47783,6,0,B|272:192,1,120,4|0
112,192,48128,2,0,B|248:192,1,120,4|0
472,128,48472,2,0,B|472:48|392:48,1,120
48,256,48817,2,0,B|48:336|128:336,1,120
256,320,49161,5,0
240,296,49247,1,0
232,264,49333,1,0
240,240,49419,1,0
256,216,49506,1,0
272,192,49592,1,0
280,160,49678,1,0
272,128,49764,1,0
256,104,49850,2,0,B|256:72|224:56,7,60
192,56,50539,6,0,B|118:56|118:56|72:88,1,120,4|0
320,328,50883,2,0,B|393:327|393:327|440:296,1,120
360,192,51228,1,0
360,192,51400,1,0
432,80,51572,1,0
432,80,51658,1,0
432,80,51744,1,0
256,40,51917,6,0,B|176:40|176:120,1,120,4|0
256,344,52261,2,0,B|336:344|336:264,1,120
56,192,52605,5,0
88,192,52692,1,0
120,192,52778,1,0
472,192,52950,1,0
448,208,53036,1,0
416,216,53122,1,0
384,208,53208,1,0
360,192,53294,2,0,B|288:184|288:104,1,120,4|0
288,304,53639,5,0
288,112,53811,1,0
144,240,53983,1,0
288,112,54155,1,0
96,112,54328,1,0
288,112,54500,1,0
408,48,54672,6,0,B|448:64|448:96,3,60,4|0|0|0
448,120,55016,2,0,B|448:152|408:168,3,60
392,192,55361,2,0,B|344:224|344:312,1,120
216,296,55705,2,0,B|216:224|168:192,1,120
88,88,56050,2,0,B|72:56|40:40,2,60,4|0|0
424,296,56394,2,0,B|440:328|472:344,2,60
408,272,56653,1,0
400,240,56739,6,0,B|376:176|400:120,1,120
112,144,57083,2,0,B|136:208|112:264,1,120
256,192,57427,5,4
288,192,57514,1,0
320,192,57600,1,0
424,112,57772,1,0
320,32,57944,1,0
296,48,58030,1,0
264,56,58116,1,0
232,48,58202,1,0
208,32,58289,1,0
176,24,58375,1,0
144,32,58461,6,0,B|72:40|72:112,1,120
368,352,58805,2,0,B|440:344|440:272,1,120,4|0
72,112,59150,5,0
440,272,59322,1,0
96,224,59494,1,0
416,160,59666,1,0
184,312,59839,1,0
336,88,60011,1,0
288,272,60183,5,4
224,112,60355,1,0
320,192,60527,1,0
192,192,60700,1,0
256,192,60872,1,0
256,192,61044,6,0,B|256:312,2,120
256,48,61561,1,4
152,128,61733,1,0
192,248,61905,1,0
320,248,62077,1,0
360,128,62250,1,0
256,48,62422,5,0
80,168,62594,1,0
144,344,62766,1,0
368,344,62938,1,4
432,168,63111,1,0
432,168,63283,2,0,B|360:168|360:168|320:200,1,120
80,168,63627,2,0,B|152:168|152:168|192:200,2,120
80,304,64144,5,0
200,248,64316,1,4
200,248,64402,1,0
200,248,64488,1,0
320,312,64661,1,0
432,248,64833,1,0
456,232,64919,1,0
472,208,65005,2,0,B|480:176|472:144,3,60
472,120,65349,6,0,B|472:48|392:48,1,120
40,264,65694,2,0,B|40:336|120:336,1,120,4|0
240,336,66038,1,0
360,336,66210,2,0,B|424:336,2,60
360,200,66555,5,0
464,120,66727,1,0
360,40,66899,1,0
256,120,67072,1,4
152,40,67244,5,0
48,120,67416,1,0
152,200,67588,1,0
256,120,67761,1,0
464,120,67933,5,0
256,120,68105,1,0
48,120,68277,1,0
48,120,68449,6,0,B|48:192|48:192|80:240,1,120,4|0
464,264,68794,2,0,B|464:192|464:192|432:144,1,120
256,120,69310,5,0
368,192,69483,1,0
256,264,69655,1,0
256,264,69827,2,0,B|144:312,1,120,4|0
256,120,70171,2,0,B|152:64,1,120
368,192,70516,2,0,B|488:192,1,120
368,192,70860,2,0,B|248:192,1,120
152,104,71205,5,0
128,112,71291,1,0
104,128,71377,1,0
88,160,71463,1,0
80,192,71549,1,0
88,224,71635,1,0
104,248,71721,1,0
120,272,71808,1,0
144,280,71894,2,0,B|168:336,7,60
192,336,72582,6,0,B|272:336|272:336|296:304,1,120,4|0
320,56,72927,2,0,B|240:56|240:56|216:88,1,120
296,304,73271,1,0
216,88,73444,1,0
256,192,73616,1,0
256,192,73702,1,0
256,192,73788,1,0
128,240,73960,1,4
256,192,74132,1,0
376,144,74305,1,0
376,144,74477,1,0
376,144,74649,6,0,B|456:144|456:144|496:168,2,120
128,240,75166,2,0,B|48:240|48:240|8:208,2,120,0|4|0
128,112,75682,5,0
256,72,75855,1,0
384,112,76027,1,0
384,112,76113,1,0
384,112,76199,2,0,B|384:240,2,120
128,112,76716,5,4
40,208,76888,1,0
128,304,77060,1,0
216,208,77232,1,0
216,208,77318,1,0
216,208,77405,2,0,B|352:208,1,120
424,304,77749,1,0
504,200,77921,1,0
424,96,78093,1,4
256,48,78438,5,0
32,192,78782,1,0
256,336,79127,1,0
480,192,79471,1,4
256,112,79815,5,0
96,192,80159,1,0
256,272,80504,1,0
416,192,80848,1,4
256,176,81193,5,0
160,192,81537,1,0
256,208,81882,1,0
352,192,82226,1,4
360,192,82313,1,0
368,192,82399,1,0
376,192,82485,1,0
384,192,82571,1,0
392,192,82657,1,0
400,192,82743,1,0
408,192,82829,1,0
416,192,82915,2,0,B|456:192,15,30,0|0|0|0|0|0|0|0|0|0|0|0|0|0|0|4
256,192,84982,5,4
256,144,86360,1,4
256,96,87737,1,4
256,48,89115,1,4
256,48,90493,5,4
112,112,90837,1,4
112,272,91182,1,4
256,336,91526,1,4
256,48,91871,5,4
400,112,92215,1,4
400,272,92560,1,4
256,336,92904,1,4
256,48,93248,5,0
112,112,93421,1,0
112,264,93593,1,0
256,336,93765,1,0
400,272,93937,1,0
400,112,94109,1,0
256,192,94282,1,0
256,192,94454,1,0
272,120,94626,6,0,B|304:64,3,60
328,208,94971,2,0,B|384:240,3,60
240,264,95315,2,0,B|208:320,3,60
184,176,95659,2,0,B|128:144,3,60
104,144,96004,6,0,B|104:72|104:72|136:32,1,120,4|0
408,240,96348,2,0,B|408:312|408:312|376:352,1,120
256,192,96693,1,0
256,192,96779,1,0
256,192,96865,1,0
304,40,97037,2,0,B|376:40|376:40|416:72,1,120
208,344,97381,2,0,B|136:344|136:344|96:312,1,120,4|0
416,72,97726,5,0
98,314,97898,1,0
128,104,98070,1,0
384,280,98243,1,0
176,224,98415,1,0
344,160,98587,1,0
256,192,98759,6,0,B|232:120|232:120|176:120,1,120,4|0
256,192,99104,2,0,B|280:264|280:264|336:264,1,120
184,48,99448,2,0,B|96:48|96:48|56:88,1,120
328,336,99793,2,0,B|416:336|416:336|456:304,1,120
440,184,100137,1,4
440,152,100223,1,0
440,120,100309,1,0
64,200,100481,5,0
88,216,100568,1,0
120,224,100654,1,0
152,216,100740,1,0
176,200,100826,2,0,B|256:200|256:288,1,120
256,272,101170,2,0,B|328:272|328:272|368:240,1,120
256,112,101515,2,0,B|183:111|183:111|144:144,1,120,4|0
360,352,101859,6,0,B|397:352|424:368,2,60
152,32,102204,2,0,B|114:32|88:16,2,60
184,32,102462,1,0
216,32,102548,2,0,B|288:32|336:80,1,120
296,352,102892,2,0,B|224:352|176:304,1,120,4|0
416,152,103237,2,0,B|416:224|368:272,1,120
96,232,103581,2,0,B|96:160|144:112,1,120
256,72,103926,1,0
256,200,104098,5,0
256,200,104184,1,0
256,200,104270,1,4
336,304,104442,1,0
336,304,104615,1,0
416,200,104787,1,0
416,200,104873,1,0
416,200,104959,1,0
416,200,105131,2,0,B|416:128|336:128,1,120
256,24,105476,6,0,B|184:24|184:24|144:56,2,120,0|4|0
256,360,105992,2,0,B|328:360|328:360|368:328,2,120
256,360,106509,5,0
256,24,106681,1,0
320,280,106853,1,0
192,96,107026,1,4
352,192,107198,1,0
152,192,107370,1,0
352,192,107542,1,0
352,192,107628,1,0
352,192,107715,1,0
352,192,107887,2,0,B|472:192,1,120
152,192,108231,2,0,B|24:192,1,120,0|4
192,96,108576,2,0,B|136:72|136:72|136:8,1,120
320,288,108920,2,0,B|376:312|376:312|376:376,1,120
192,96,109264,5,0
320,288,109437,1,0
152,192,109609,1,0
352,192,109781,1,4
192,288,109953,1,0
320,96,110126,1,0
320,96,110298,2,0,B|368:56|368:56|432:56,1,120
192,288,110642,2,0,B|144:328|144:328|80:328,1,120
256,192,110987,1,0
320,328,111159,6,0,B|394:328|394:328|440:296,1,120,4|0
192,56,111503,2,0,B|119:57|119:57|72:88,1,120
152,192,111848,1,0
152,192,112020,1,0
80,304,112192,1,0
80,304,112278,1,0
80,304,112364,1,0
256,344,112537,6,0,B|336:344|336:264,1,120,4|0
256,40,112881,2,0,B|176:40|176:120,1,120
456,192,113225,5,0
424,192,113312,1,0
392,192,113398,1,0
40,192,113570,1,0
64,176,113656,1,0
96,168,113742,1,0
128,176,113828,1,0
152,192,113914,2,0,B|224:200|224:280,1,120,4|0
224,80,114259,5,0
224,272,114431,1,0
368,144,114603,1,0
224,272,114775,1,0
416,272,114948,1,0
224,272,115120,1,0
104,336,115292,6,0,B|64:320|64:288,3,60,4|0|0|0
64,264,115636,2,0,B|64:232|104:216,3,60
120,192,115981,2,0,B|168:160|168:72,1,120
296,88,116325,2,0,B|296:160|344:192,1,120
424,296,116670,2,0,B|440:328|472:344,2,60,4|0|0
88,88,117014,2,0,B|72:56|40:40,2,60
104,112,117273,1,0
112,144,117359,6,0,B|136:208|112:264,1,120
400,240,117703,2,0,B|376:176|400:120,1,120
256,192,118047,5,4
224,192,118134,1,0
192,192,118220,1,0
88,272,118392,1,0
192,352,118564,1,0
216,336,118650,1,0
248,328,118736,1,0
280,336,118822,1,0
304,352,118909,1,0
336,360,118995,1,0
368,352,119081,6,0,B|440:344|440:272,1,120
144,32,119425,2,0,B|72:40|72:112,1,120,4|0
440,272,119770,5,0
72,112,119942,1,0
416,160,120114,1,0
96,224,120286,1,0
328,72,120459,1,0
176,296,120631,1,0
224,112,120803,5,4
288,272,120975,1,0
192,192,121147,1,0
320,192,121320,1,0
256,192,121492,1,0
256,192,121664,6,0,B|256:72,2,120
256,336,122181,1,4
360,256,122353,1,0
320,136,122525,1,0
192,136,122697,1,0
152,256,122870,1,0
256,336,123042,5,0
256,336,123214,1,0
256,336,123386,2,0,B|256:272,2,60,0|0|4
480,192,123902,1,0
256,48,124247,1,0
32,192,124591,1,0
256,272,124935,5,4
416,192,125279,1,0
256,112,125624,1,0
96,192,125968,1,0
256,208,126313,5,4
352,192,126657,1,0
256,176,127002,1,0
160,192,127347,1,0
160,192,127691,1,4
152,192,127778,1,0
144,192,127864,1,0
136,192,127950,1,0
128,192,128036,1,0
120,192,128122,1,0
112,192,128208,1,0
104,192,128294,1,0
96,192,128380,2,0,B|56:192,15,30,0|0|0|0|0|0|0|0|0|0|0|0|0|0|0|4
40,296,130447,5,4
40,176,130619,1,0
128,96,130792,1,4
216,16,130964,2,0,B|336:16,1,120
432,88,131308,1,0
432,88,131394,1,0
432,88,131481,1,0
432,208,131653,1,0
432,328,131825,6,0,B|376:368|320:328,1,120,4|0
80,56,132169,2,0,B|136:16|192:56,1,120,4|0
184,328,132514,5,0
312,56,132686,1,0
312,328,132858,1,0
192,56,133030,1,0
312,192,133203,6,0,B|368:152|424:192,1,120,4|0
200,192,133547,2,0,B|144:232|88:192,1,120,4|0
424,192,133892,1,0
88,192,134064,1,0
448,56,134236,1,0
64,328,134408,1,0
176,328,134580,6,0,B|296:328,1,120,4|0
416,328,134925,1,4
344,232,135097,1,0
344,200,135183,1,0
344,168,135269,1,0
416,72,135441,1,4
296,72,135614,1,4
272,88,135700,1,0
240,96,135786,1,4
208,88,135872,1,0
184,72,135958,6,0,B|120:104|120:176,1,120,4|0
328,312,136303,2,0,B|392:280|392:208,1,120,4|0
120,168,136647,1,0
392,217,136819,1,0
232,312,136991,1,0
280,80,137164,1,0
408,80,137336,6,0,B|408:144|408:144|352:184,1,120,4|0
104,304,137680,2,0,B|104:240|104:240|160:200,1,120,4|0
456,32,138025,6,0,B|456:96|456:96|400:136,1,120
56,352,138369,2,0,B|56:288|56:288|112:248,1,120
256,192,138714,5,4
256,64,138886,1,0
128,64,139058,1,4
128,192,139230,1,0
256,192,139402,5,0
424,192,139575,1,0
424,360,139747,1,0
256,360,139919,1,0
136,312,140091,5,4
104,312,140177,1,0
72,312,140264,1,0
16,192,140436,1,4
72,72,140608,1,0
104,72,140694,1,0
136,72,140780,1,0
184,192,140952,1,4
320,192,141125,1,4
352,184,141211,1,0
368,160,141297,1,4
376,128,141383,1,0
376,96,141469,6,0,B|368:24|296:24,1,120,4|0
136,288,141813,2,0,B|144:360|216:360,1,120,4|0
296,24,142158,1,0
216,360,142330,1,0
256,112,142502,1,0
256,264,142675,1,0
360,192,142847,6,0,B|432:184|432:104,1,120,4|0
152,192,143191,2,0,B|80:200|80:280,1,120,4|0
256,40,143536,5,0
400,112,143708,1,0
400,272,143880,1,0
256,344,144052,1,0
112,272,144224,1,4
112,112,144396,1,0
112,112,144569,6,0,B|163:158|163:158|216:160,1,120,4|0
400,272,144913,2,0,B|352:224|352:224|296:224,1,120
400,112,145258,2,0,B|344:112|344:112|296:160,1,120
112,272,145602,2,0,B|160:272|160:272|216:224,1,120,4|0
256,40,145947,2,0,B|256:160,1,120,4|0
256,344,146291,2,0,B|256:216,1,120,0|4
112,112,146636,5,4
400,112,146808,1,4
256,224,146980,1,4
256,224,147324,1,4
136,72,147669,6,0,B|96:32|96:32|32:32,1,120,0|0
376,312,148013,2,0,B|416:352|416:352|480:352,1,120,0|0
136,72,148358,5,4
376,312,148530,1,0
224,88,148702,1,4
288,296,148874,1,0
312,136,149047,1,0
208,248,149219,1,0
400,192,149391,1,0
112,192,149563,1,0
112,192,149735,6,0,B|240:192,1,120,4|0
400,192,150080,2,0,B|264:192,1,120,4|0
40,128,150424,2,0,B|40:48|120:48,1,120
464,256,150769,2,0,B|464:336|384:336,1,120
256,328,151113,5,0
240,304,151199,1,0
232,272,151285,1,0
240,248,151371,1,0
256,224,151458,1,0
272,200,151544,1,0
280,168,151630,1,0
272,136,151716,1,0
256,112,151802,2,0,B|232:96|232:72,16,30,0|0|0|0|0|0|0|0|0|0|0|0|0|0|0|0|4
