osu file format v9

[General]
AudioFilename: Nightcore_-_Another_Night.mp3
AudioLeadIn: 0
PreviewTime: -1
Countdown: 1
SampleSet: Normal
StackLeniency: 0.7
Mode: 0
LetterboxInBreaks: 1

[Editor]
Bookmarks: 11965,22987,28498,34009,39520,45031,50542,72585,83607,84468,96007,117878,123561,129072,130450,135961,141472,146983,152494
DistanceSpacing: 0.8
BeatDivisor: 4
GridSize: 8

[Metadata]
Title:Another Night (Nightcore Mix)
Artist:Real McCoy
Creator:_[JSF]HeiLPoInT
Version:Normal
Source:
Tags:Nightcore _[jsf]HeilPoInT S_u_z_u_a

[Difficulty]
HPDrainRate:3
CircleSize:3
OverallDifficulty:3
ApproachRate:4
SliderMultiplier:1.2
SliderTickRate:2

[Events]
//Background and Video events
0,0,"2010711200040.jpg"
//Break Periods
//Storyboard Layer 0 (Background)
//Storyboard Layer 1 (Fail)
//Storyboard Layer 2 (Pass)
//Storyboard Layer 3 (Foreground)
//Storyboard Sound Samples
//Background Colour Transformations
3,100,163,162,255

[TimingPoints]
11962,344.43168771527,4,1,0,61,1,0
22987,-100,4,1,0,62,0,1
23329,-100,4,2,0,62,0,0
24706,-100,4,2,0,41,0,0
27117,-100,4,2,0,45,0,0
27462,-100,4,2,0,50,0,0
27806,-100,4,2,0,60,0,0
28151,-100,4,2,0,65,0,0
28495,-100,4,1,0,61,0,0
83604,-100,4,2,0,61,0,0
84982,-100,4,1,0,61,0,0
95315,-100,4,1,0,20,0,0
95659,-100,4,1,0,65,0,0
96006,-100,4,1,0,62,0,1
129071,-100,4,1,0,62,0,0

[Colours]
Combo1 : 0,128,255
Combo2 : 255,255,255
Combo3 : 0,255,255

[HitObjects]
256,192,11962,2,0,B|296:248|256:304,1,120,4|0
168,344,12651,2,0,B|88:344,2,60
168,248,13340,1,0
88,192,13685,1,0
88,96,14029,2,0,B|144:64|208:96,1,120
296,96,14718,2,0,B|296:16,2,60,4|0|0
392,96,15407,5,0
392,96,15751,1,0
392,192,16096,2,0,B|392:312,1,120
296,312,16785,2,0,B|296:184,1,120
224,128,17473,5,4
224,128,17818,1,0
128,128,18162,2,0,B|128:64,2,60
88,216,18851,5,0
32,304,19196,2,0,B|88:344|144:304,1,120
240,296,19884,1,0
336,296,20229,2,0,B|472:296,3,120,4|0|0|0
256,192,21607,12,4,22984
160,192,23673,6,0,B|128:128|160:72,2,120
256,192,24706,1,0
352,192,25051,2,0,B|384:256|352:312,2,120
256,192,26084,1,0
256,96,26429,6,0,B|376:96,1,120
472,96,27117,1,0
416,176,27462,1,0
472,256,27806,1,0
416,328,28151,1,0
256,328,28495,5,4
256,328,28840,1,4
256,232,29184,2,0,B|256:160|176:160,1,120
160,256,29873,5,4
160,256,30217,1,4
128,344,30562,2,0,B|56:344|56:264,1,120
56,168,31251,5,4
56,168,31595,1,4
96,80,31940,1,0
96,80,32284,1,0
184,48,32628,2,0,B|320:48,1,120
400,48,33317,2,0,B|480:48,4,60,4|0|4|0|4
352,128,34351,1,0
400,208,34695,2,0,B|440:264|400:320,1,120
320,272,35384,5,4
320,272,35728,1,4
240,320,36073,2,0,B|200:264|240:208,1,120
240,112,36762,5,4
240,112,37106,1,4
144,112,37450,2,0,B|64:112|64:192,1,120
64,280,38139,2,4,B|120:320|176:280,1,120
272,280,38828,2,4,B|272:344,4,60,4|0|4|0|4
368,280,39861,1,0
464,280,40206,2,0,B|464:160,1,120
464,64,40895,5,4
464,64,41239,1,4
368,64,41584,2,0,B|312:32|248:64,1,120
160,64,42272,2,0,B|160:0,2,60,4|0|4
64,72,42961,5,0
64,168,43306,1,0
64,264,43650,5,4
64,264,43995,1,4
144,320,44339,2,4,B|144:392,4,60,4|0|4|0|4
216,256,45372,2,0,B|336:256,1,120
400,320,46061,2,0,B|400:384,2,60,0|0|4
464,256,46750,1,4
400,192,47095,2,0,B|440:136|400:72,1,120
312,80,47783,5,4
312,80,48128,1,4
216,80,48472,2,0,B|144:80,2,60
256,192,49161,12,4,50539
256,192,51228,5,0
256,192,51572,2,0,B|336:192,2,60
184,128,52261,1,0
96,96,52605,2,0,B|96:32,2,60
96,192,53294,2,0,B|96:312,1,120
192,312,53983,1,0
288,312,54328,1,0
384,312,54672,2,0,B|456:312|456:232,2,120
256,192,56050,6,0,B|200:224|136:192,1,120
48,192,56739,2,0,B|48:64,1,120
144,72,57427,1,0
240,72,57772,2,0,B|296:48|360:72,2,120
240,168,58805,6,0,B|240:296,1,120
320,336,59494,1,0
320,336,59839,1,0
400,288,60183,2,0,B|400:168,1,120
400,72,60872,1,0
256,192,61561,5,0
256,96,61905,2,0,B|256:32,2,60
152,96,62594,1,0
56,96,62938,2,0,B|8:152|56:208,1,120
56,304,63627,1,0
56,304,63972,1,0
152,304,64316,6,0,B|208:344|264:304,1,120
320,216,65005,2,0,B|184:216,1,120
240,128,65694,2,0,B|296:88|352:128,1,120
448,128,66383,1,0
448,128,66727,1,0
448,224,67072,6,0,B|448:352,1,120
352,344,67760,1,0
352,344,68105,1,0
256,344,68449,2,0,B|176:344,2,60
256,248,69138,1,0
256,248,69483,1,0
304,168,69827,2,0,B|360:120|304:64,1,120
208,64,70516,2,0,B|152:112|208:168,1,120
256,192,71205,12,0,72582
256,192,73271,6,0,B|216:136|256:80,1,120
352,80,73960,2,0,B|352:16,2,60
448,88,74649,2,0,B|488:144|448:200,1,120
448,296,75338,1,0
448,296,75682,1,0
352,296,76027,2,0,B|216:296,1,120
136,296,76716,2,0,B|64:296|64:216,2,120
256,152,78093,6,0,B|256:32,1,120,4|0
160,32,78782,1,0
160,32,79127,1,0
64,32,79471,2,0,B|24:88|64:144,1,120
64,240,80160,2,0,B|64:320,2,60
160,240,80849,2,0,B|280:240,2,120
256,72,82227,5,0
256,72,82571,1,0
256,72,82915,2,0,B|256:192,2,120,0|0|4
256,192,84982,5,4
256,144,86360,1,4
256,96,87737,1,4
256,48,89115,1,4
152,192,90493,6,4,B|96:232|40:192,2,120,4|0|4
360,192,91871,2,4,B|416:152|472:192,2,120,4|0|4
256,192,93248,12,0,95315
160,192,96004,6,0,B|32:192,2,120,4|0|0
256,192,97037,1,0
352,192,97382,2,0,B|432:192|456:120|424:40|352:40,1,240
256,56,98415,1,0
160,40,98759,2,0,B|104:0|48:40,2,120
104,120,99793,1,0
48,200,100137,2,0,B|104:240|160:200,2,120
224,120,101515,6,0,B|368:120,1,120
440,120,102204,1,0
440,216,102548,2,0,B|480:272|440:328,1,120
360,272,103237,1,0
360,272,103581,1,0
168,272,104270,6,0,B|48:272,2,120
264,272,105303,1,0
360,272,105648,2,0,B|440:272|464:200|432:120|360:120,1,240
264,120,106681,1,0
168,120,107026,2,0,B|112:80|56:120,2,120
120,200,108059,1,0
168,280,108403,2,0,B|112:320|56:280,2,120
344,200,109781,6,0,B|288:240|232:200,2,120
440,200,110814,1,0
440,200,111159,1,0
440,104,111503,2,0,B|440:32,2,60
248,104,112537,6,0,B|192:64|136:104,2,120
248,200,113570,1,0
248,296,113914,2,0,B|368:296,2,120
152,296,114948,1,0
56,296,115292,2,0,B|56:176,1,120
56,80,115981,1,0
56,80,116325,1,0
256,192,116670,12,4,118047
256,192,118736,5,0
256,192,119081,1,0
256,192,119425,2,0,B|216:248|256:304,1,120
352,304,120114,2,0,B|352:368,2,60
448,304,120803,2,0,B|488:248|448:192,1,120
448,96,121492,1,0
376,32,121836,1,0
288,64,122181,2,0,B|288:0,2,60
360,128,122870,2,0,B|312:184|232:168,1,120
176,112,123558,6,0,B|96:112|72:192|104:264|176:264,1,240
368,264,124936,2,0,B|448:264|472:192|440:112|368:112,1,240
272,112,125969,1,0
272,208,126314,2,0,B|272:344,2,120
256,192,127692,12,4,129069
256,192,130447,2,0,B|296:248|256:304,1,120,4|4
160,312,131136,2,0,B|160:376,2,60
64,312,131825,1,4
64,216,132170,1,4
64,120,132514,2,0,B|120:80|176:120,1,120
272,120,133203,2,0,B|272:192,2,60,4|0|4
328,40,133892,5,0
424,40,134236,1,0
464,128,134581,2,0,B|464:248,1,120,4|4
376,288,135269,2,0,B|376:168,1,120
280,168,135958,5,4
280,168,136303,1,4
184,168,136647,2,0,B|184:88,2,60
104,224,137336,5,4
104,320,137681,2,0,B|160:360|216:320,1,120,4|0
312,320,138369,1,0
408,320,138714,2,0,B|408:192,3,120,4|4|0|0
464,120,140091,6,0,B|408:80|352:120,1,120,4|4
256,120,140780,2,4,B|176:120,2,60,4|0|4
256,216,141469,1,0
256,312,141814,1,4
160,312,142158,2,0,B|104:344|40:312,1,120
48,216,142847,2,0,B|120:216,2,60,4|0|4
48,120,143536,5,0
48,120,143880,1,0
112,48,144225,2,0,B|168:8|224:48,1,120,4|4
168,128,144913,1,0
112,208,145258,2,0,B|168:248|224:208,1,120,0|4
312,160,145947,1,4
376,88,146291,2,4,B|376:16,2,60,0|0|0
440,160,146980,6,0,B|480:216|440:272,1,120,4|4
344,272,147669,1,0
272,336,148013,2,0,B|216:376|160:336,1,120,0|4
88,272,148702,1,4
160,208,149046,2,0,B|216:168|272:208,1,120
344,272,149735,1,4
440,272,150080,1,4
440,272,150424,2,0,B|440:352,2,60
256,192,151113,12,4,152491
