osu file format v9

[General]
AudioFilename: Nightcore_-_Another_Night.mp3
AudioLeadIn: 0
PreviewTime: -1
Countdown: 1
SampleSet: Normal
StackLeniency: 0.7
Mode: 0
LetterboxInBreaks: 1

[Editor]
Bookmarks: 11965,22987,28498,34009,39520,45031,50542,72585,83607,84468,96007,117878,123561,129072,130450,135961,141472,146983,152494
DistanceSpacing: 1.2
BeatDivisor: 4
GridSize: 8

[Metadata]
Title:Another Night (Nightcore Mix)
Artist:Real McCoy
Creator:_[JSF]HeiLPoInT
Version:Crazy
Source:
Tags:Nightcore _[jsf]HeilPoInT S_u_z_u_a

[Difficulty]
HPDrainRate:7
CircleSize:4
OverallDifficulty:7
ApproachRate:8
SliderMultiplier:1.6
SliderTickRate:2

[Events]
//Background and Video events
0,0,"2010711200040.jpg"
//Break Periods
2,23139,27744
//Storyboard Layer 0 (Background)
//Storyboard Layer 1 (Fail)
//Storyboard Layer 2 (Pass)
//Storyboard Layer 3 (Foreground)
//Storyboard Sound Samples
//Background Colour Transformations
3,100,163,162,255

[TimingPoints]
11963,344.43168771527,4,1,0,61,1,0
22987,-100,4,1,0,62,0,1
23332,-100,4,1,0,61,0,0
96006,-100,4,1,0,62,0,1
129071,-100,4,1,0,62,0,0

[Colours]
Combo1 : 0,128,255
Combo2 : 255,255,255
Combo3 : 0,255,255

[HitObjects]
256,64,11962,2,0,B|176:64,2,80,4|0|0
312,136,12478,1,0
384,88,12650,2,0,B|384:144|440:144,1,80
368,208,12995,2,0,B|312:208|312:264,1,80
384,296,13339,5,4
304,336,13511,1,0
232,280,13684,1,0
240,192,13856,1,0
160,232,14028,2,0,B|160:280|104:280,1,80
88,192,14373,2,0,B|40:192|40:136,1,80
80,64,14717,5,4
168,48,14889,1,0
184,136,15061,1,0
264,96,15234,1,0
288,184,15406,2,0,B|336:184|336:240,2,80
288,184,15922,1,0
352,120,16095,6,0,B|408:120|408:56,1,80,4|0
472,136,16439,2,0,B|424:208,1,80
424,288,16784,1,0
360,344,16956,1,0
272,328,17128,1,0
336,264,17300,1,0
288,192,17472,2,0,B|232:192|232:256,1,80,4|0
176,304,17817,2,0,B|128:304|128:240,1,80
48,216,18161,2,0,B|48:304,2,80
48,128,18678,1,0
80,48,18850,6,0,B|136:48|136:112,1,80,4|0
200,152,19195,2,0,B|200:96|256:96,1,80
328,72,19539,1,0
408,112,19711,1,0
328,152,19883,1,0
328,152,20056,1,0
408,192,20228,6,0,B|408:240|352:240,1,80,4|0
416,304,20572,2,0,B|336:336,1,80
272,280,20917,2,0,B|216:280|216:336,2,80
272,280,21433,1,0
320,208,21606,6,0,B|344:168,7,40,4|0|0|0|0|0|0|0
320,160,22294,2,0,B|296:144,15,20,0|0|0|0|0|0|0|0|0|0|0|0|0|0|0|4
256,56,28494,5,4
256,328,28839,1,4
256,328,29011,1,0
336,288,29183,2,0,B|392:288|392:232,1,80,0|4
472,272,29528,2,0,B|472:184,1,80,0|4
472,192,29872,5,4
48,192,30216,1,4
48,192,30389,1,0
104,256,30561,2,0,B|160:256|160:312,1,80,0|4
224,248,30905,2,0,B|224:168,1,80,0|4
224,80,31250,5,4
224,344,31594,1,4
224,344,31766,1,0
264,264,31939,2,0,B|304:192,1,80,0|4
216,168,32283,2,0,B|216:224|160:224,1,80,0|4
80,224,32627,5,4
424,224,32972,1,4
424,224,33144,1,0
376,152,33316,1,0
328,224,33488,1,0
280,152,33661,1,0
232,224,33833,1,0
280,296,34005,5,4
280,48,34350,1,4
280,48,34522,1,0
192,48,34694,2,0,B|136:48|136:112,1,80,0|4
56,56,35038,2,0,B|56:136,1,80,0|4
56,224,35383,5,4
456,224,35727,1,4
456,224,35900,1,0
456,136,36072,2,0,B|408:136|408:72,1,80,0|4
336,128,36416,2,0,B|336:48,1,80,0|4
336,48,36761,5,4
176,336,37105,1,4
176,336,37277,1,0
264,312,37449,2,0,B|264:256|208:256,1,80,0|4
256,176,37794,2,0,B|160:176,1,80,0|4
88,176,38138,5,4
424,176,38483,1,4
424,176,38655,1,0
384,256,38827,1,0
296,256,38999,1,0
256,176,39172,1,0
296,96,39344,1,0
384,96,39516,5,4
128,288,39860,1,4
128,288,40033,1,0
128,200,40205,2,0,B|128:144|184:144,1,80,0|4
120,72,40549,2,0,B|200:72,1,80,0|4
200,72,40894,5,4
312,312,41238,1,4
312,312,41410,1,0
312,312,41583,2,0,B|312:256|376:256,1,80,0|4
312,184,41927,2,0,B|408:184,1,80,0|4
480,184,42271,5,4
32,184,42616,1,4
120,184,42788,1,0
144,264,42960,2,0,B|200:264|200:216,1,80,0|4
200,136,43305,2,0,B|200:56,1,80,0|4
200,56,43649,5,4
312,328,43994,1,4
312,328,44166,1,0
376,272,44338,1,0
312,208,44511,1,0
248,272,44683,1,0
312,208,44855,1,0
312,120,45027,5,4
48,120,45371,1,4
48,120,45544,1,0
72,208,45716,2,0,B|128:208|128:152,1,80,0|4
200,208,46060,2,0,B|200:104,1,80,0|4
200,40,46405,5,4
312,344,46749,1,4
312,256,46921,1,0
384,304,47094,2,0,B|384:352|448:352,1,80,0|4
472,272,47438,2,0,B|472:184,1,80,0|4
472,192,47782,5,4
40,192,48127,1,4
40,192,48299,1,0
128,192,48471,2,0,B|216:192,1,80,0|4
248,112,48816,2,0,B|304:112|304:168,1,80,0|4
312,248,49160,2,0,B|336:288,9,40,4|0|0|0|4|0|0|0|0|0
368,312,50021,6,0,B|424:312|424:256,1,80,4|4
464,192,50366,1,4
424,112,50538,2,0,B|424:56|368:56,1,80,4|0
344,136,50882,2,0,B|344:184|288:184,1,80,0|0
264,104,51227,1,0
192,56,51399,1,0
176,144,51571,1,0
104,96,51743,1,0
80,184,51916,2,0,B|40:216|80:256,2,80,4|0|0
80,184,52432,1,0
80,184,52604,1,0
160,224,52777,6,0,B|208:224|208:280,1,80
128,304,53121,2,0,B|128:352|192:352,1,80,0|4
272,352,53466,1,0
360,352,53638,1,0
424,296,53810,1,0
352,240,53982,2,0,B|296:240|296:184,1,80,0|0
368,144,54327,1,0
376,56,54499,1,0
376,56,54671,2,0,B|472:56|472:160,2,160,4|0|0
168,56,55532,6,0,B|80:56,2,80,0|0|0
128,136,56049,1,4
40,160,56221,1,0
32,248,56393,1,0
96,304,56565,1,0
184,304,56738,2,0,B|264:304,2,80,0|0|0
232,232,57254,1,0
232,232,57426,2,0,B|296:232|296:168,1,80,4|0
336,272,57771,2,0,B|336:328|392:328,1,80,0|0
448,272,58115,1,0
400,200,58288,6,0,B|400:144|456:144,1,80,0|0
376,96,58632,2,0,B|320:96|320:32,1,80,0|4
232,40,58976,2,0,B|232:96|168:96,1,80
112,40,59321,1,0
48,96,59493,1,0
80,176,59665,1,0
168,176,59838,2,0,B|224:176|224:232,1,80
152,264,60182,2,0,B|152:320|208:320,1,80,4|0
288,320,60526,2,0,B|376:320,1,80
336,240,60871,1,0
408,192,61043,6,0,B|408:248|464:248,2,80,0|0|0
336,144,61560,1,4
416,112,61732,2,0,B|472:112|472:48,1,80
384,40,62076,1,0
296,64,62249,1,0
208,40,62421,2,0,B|152:40|152:88,1,80
152,168,62765,1,0
64,168,62937,6,0,B|64:264|168:264,2,160,4|0|0
64,168,63798,1,0
64,168,63971,1,0
120,96,64143,2,0,B|176:96|176:48,1,80,0|4
264,56,64487,2,0,B|360:56,1,80
408,120,64832,2,0,B|464:120|464:64,2,80
328,152,65348,1,0
240,152,65521,2,0,B|160:152,1,80,0|4
200,232,65865,2,0,B|144:232|144:288,1,80
224,312,66209,2,0,B|312:312,1,80
384,272,66554,6,0,B|384:328|448:328,2,80
456,216,67071,1,4
384,168,67243,2,0,B|384:112|448:112,2,80
312,224,67759,1,0
240,176,67932,1,0
312,128,68104,1,0
240,72,68276,2,0,B|160:72,1,80,0|4
88,120,68621,2,0,B|32:120|32:176,2,80
136,192,69137,1,0
72,248,69309,6,0,B|72:336,1,80
152,288,69654,2,0,B|152:344|216:344,1,80,0|4
240,264,69998,2,0,B|328:264,1,80
408,264,70343,1,0
456,192,70515,1,0
408,120,70687,1,0
320,120,70859,1,0
272,192,71032,1,0
184,192,71204,2,0,B|184:288|288:288,2,160,4|0|0
184,144,71979,2,0,B|184:104,6,40
144,144,72581,6,0,B|56:144|56:256|96:256,1,160,4|0
144,328,73098,1,0
200,256,73270,1,0
256,328,73443,1,0
344,328,73615,2,0,B|408:328|408:264,1,80
344,224,73959,2,0,B|288:224|288:168,1,80,4|0
352,120,74304,1,0
424,176,74476,2,0,B|480:176|480:240,2,80
440,88,74992,1,0
368,40,75165,1,0
280,40,75337,1,4
216,96,75509,6,0,B|168:96|168:40,1,80
96,88,75854,2,0,B|96:184,1,80
96,256,76198,2,0,B|96:312|160:312,2,80
96,256,76715,1,4
160,200,76887,1,0
224,256,77059,1,0
312,256,77231,1,0
368,184,77404,6,0,B|464:184|464:288,2,160,0|0|4
368,184,78265,1,0
368,184,78437,1,0
320,112,78609,2,0,B|424:112,1,80
456,40,78953,2,0,B|360:40,1,80
288,40,79298,1,0
200,40,79470,1,4
136,104,79642,1,0
136,192,79815,2,0,B|40:192|40:88,2,160
136,192,80676,1,0
136,192,80848,1,4
80,256,81020,6,0,B|32:256|32:312,1,80
120,336,81364,2,0,B|224:336,1,80
256,264,81709,1,0
304,336,81881,1,0
392,336,82053,1,0
448,264,82226,2,0,B|448:216,7,40,4|0|0|0|0|0|0|0
448,184,82914,2,0,B|448:152,16,20,0|0|0|0|0|0|0|0|0|0|0|0|0|0|0|0|4
256,64,84981,5,8
128,192,86359,1,8
256,320,87736,1,8
384,192,89114,1,8
344,104,90492,5,8
168,104,90836,1,8
168,280,91181,1,8
344,280,91525,1,8
256,64,91870,5,8
128,192,92214,1,8
256,320,92559,1,8
384,192,92903,1,8
256,192,93247,5,8
144,128,93420,1,0
256,64,93592,1,8
368,128,93764,1,0
256,192,93936,5,8
144,256,94108,1,0
256,320,94281,1,8
368,256,94453,1,0
256,192,94625,6,0,B|224:168,3,40,8|0|0|0
208,152,94970,2,0,B|176:120,3,40,8|0|0|0
160,112,95314,2,0,B|120:80,3,40,8|0|0|0
104,88,95658,2,0,B|48:88,3,40,8|0|0|0
64,112,96003,6,0,B|64:200,1,80,8|0
64,288,96347,2,0,B|128:288|128:232,1,80,8|0
200,304,96692,1,8
256,224,96864,1,0
304,304,97036,1,8
384,248,97208,2,0,B|440:248|440:304,2,80,0|8|0
384,248,97725,1,8
384,248,97897,1,0
440,176,98069,1,8
384,96,98242,6,0,B|448:96|448:32,2,80,0|8|0
296,64,98758,1,8
240,144,98931,1,0
192,64,99103,1,8
136,144,99275,1,0
88,64,99447,2,0,B|32:64|32:128,1,80,8|0
56,200,99792,2,0,B|128:248,1,80,8|0
216,248,100136,2,0,B|320:248|320:128,2,160,8|8|8
128,288,100997,5,0
216,336,101169,1,8
312,328,101342,2,0,B|360:328|360:264,1,80,0|8
448,312,101686,2,0,B|448:232,1,80,0|8
448,136,102030,1,0
400,56,102203,1,8
304,56,102375,1,0
256,136,102547,1,8
352,136,102719,2,0,B|328:160|376:192|352:216,1,80,0|8
352,304,103064,2,0,B|264:304,1,80,0|8
176,304,103408,2,0,B|112:304|112:232,1,80,0|8
120,168,103753,6,0,B|120:64,2,80,0|8|0
184,240,104269,1,8
248,168,104441,1,0
312,240,104614,1,8
376,168,104786,1,0
312,96,104958,1,8
248,168,105130,1,0
312,240,105302,2,0,B|368:296,1,80,8|0
312,240,105647,2,0,B|256:296,1,80,8|0
255,296,105991,1,8
255,296,106164,1,0
160,320,106336,6,0,B|160:264|96:264,1,80,8|0
64,184,106680,2,0,B|144:184,1,80,8|0
144,88,107025,2,0,B|240:96|240:192,1,160,8|8
240,192,107541,1,0
240,192,107714,1,8
176,264,107886,2,8,B|120:264|120:328,1,80,0|8
216,336,108230,2,0,B|312:336,1,80,0|8
376,280,108575,2,0,B|440:280|440:344,2,80,0|8|0
376,280,109091,1,8
376,280,109263,2,0,B|376:200,1,80,0|8
296,248,109608,2,0,B|296:184|232:184,1,80,0|8
312,112,109952,5,0
248,40,110125,1,8
184,112,110297,1,0
120,40,110469,1,8
56,112,110641,2,0,B|56:176|112:176,1,80,0|8
56,264,110986,2,0,B|144:264,1,80,0|8
216,312,111330,2,0,B|312:312,2,80,0|8|0
248,224,111847,1,8
344,224,112019,1,0
432,256,112191,2,0,B|432:336,2,80,8|0|8
408,160,112708,2,0,B|408:112|336:112,1,80,0|8
416,40,113052,2,0,B|304:40,1,80,0|8
240,40,113397,5,0
144,40,113569,1,8
88,120,113741,1,0
184,120,113913,1,8
184,120,114085,2,0,B|240:120|240:176,1,80,0|8
152,208,114430,2,0,B|72:208,1,80,0|8
72,304,114774,1,0
152,352,114947,1,8
232,304,115119,1,0
328,304,115291,2,0,B|384:304|384:360,2,80,8|0|8
280,224,115808,5,0
200,176,115980,1,8
280,120,116152,1,0
360,176,116324,1,8
360,176,116497,1,0
440,232,116669,2,0,B|456:192,7,40,0|0|0|0|0|0|0|0
456,168,117359,2,0,B|456:136,10,20
456,120,117874,6,8,B|456:64|400:64,1,80,0|8
352,144,118219,1,0
352,240,118391,1,8
264,200,118563,1,0
264,104,118735,1,8
168,80,118908,2,0,B|168:136|112:136,1,80,0|8
48,72,119252,2,0,B|48:152,1,80,0|8
48,248,119596,1,0
96,328,119769,1,8
152,248,119941,1,0
248,248,120113,2,0,B|304:248|304:312,2,80,8|0|8
248,152,120630,5,0
248,56,120802,2,0,B|344:56|344:160,2,160,8|8|8
152,56,121663,5,0
56,56,121835,1,8
152,56,122007,1,0
104,136,122180,2,0,B|104:216,1,80,8|0
56,296,122524,1,8
152,296,122696,1,0
104,216,122869,1,8
56,296,123041,1,0
152,296,123213,1,8
248,296,123385,1,0
248,200,123557,6,0,B|344:200|344:304,2,160,8|8|8
184,128,124418,1,0
248,56,124591,2,0,B|328:56,1,80,8|0
424,56,124935,2,8,B|480:56|480:176|424:176,1,160
328,176,125452,2,0,B|240:176,1,80,0|8
304,256,125796,2,0,B|360:256|360:312,1,80,0|8
272,336,126141,1,0
176,336,126313,6,0,B|96:336,2,80,8|0|8
184,240,126829,1,0
184,144,127002,2,0,B|264:144,2,80,8|0|8
104,88,127518,1,0
184,32,127691,2,0,B|224:32,7,40,0|0|0|0|0|0|0|0
256,72,128379,2,0,B|256:104,16,20,0|0|0|0|0|0|0|0|0|0|0|0|0|0|0|0|4
256,328,130446,5,4
256,56,130790,1,4
256,56,130963,1,0
336,96,131135,2,0,B|392:96|392:152,1,80,0|4
472,112,131479,2,0,B|472:200,1,80,0|4
472,192,131824,5,4
48,192,132168,1,4
48,192,132340,1,0
104,128,132513,2,0,B|160:128|160:72,1,80,0|4
224,136,132857,2,0,B|224:216,1,80,0|4
224,304,133201,5,4
224,40,133546,1,4
224,40,133718,1,0
264,120,133890,2,0,B|304:192,1,80,0|4
216,216,134235,2,0,B|216:160|160:160,1,80,0|4
80,160,134579,5,4
424,160,134924,1,4
424,160,135096,1,0
376,232,135268,1,0
328,160,135440,1,4
280,232,135612,1,4
232,160,135785,1,4
280,88,135957,5,4
280,336,136301,1,4
280,336,136474,1,0
192,336,136646,2,0,B|136:336|136:272,1,80,0|4
56,328,136990,2,0,B|56:248,1,80,0|4
56,160,137335,5,4
456,160,137679,1,4
456,160,137851,1,0
456,248,138023,2,0,B|408:248|408:312,1,80,0|4
336,256,138368,2,0,B|336:336,1,80,0|4
336,336,138712,5,4
176,48,139057,1,4
176,48,139229,1,0
264,72,139401,2,0,B|264:128|208:128,1,80,0|4
256,208,139746,2,0,B|160:208,1,80,0|4
88,208,140090,5,4
424,208,140435,1,4
424,208,140607,1,0
384,128,140779,1,0
296,128,140951,1,4
256,208,141123,1,4
296,288,141296,1,4
384,288,141468,5,4
128,96,141812,1,4
128,96,141984,1,0
128,184,142157,2,0,B|128:240|184:240,1,80,0|4
120,312,142501,2,0,B|200:312,1,80,0|4
200,312,142846,5,4
312,72,143190,1,4
312,72,143362,1,0
312,72,143534,2,0,B|312:128|376:128,1,80,0|4
312,200,143879,2,0,B|408:200,1,80,0|4
480,200,144223,5,4
32,200,144568,1,4
120,200,144740,1,0
144,120,144912,2,0,B|200:120|200:168,1,80,0|4
200,248,145257,2,0,B|200:328,1,80,0|4
200,328,145601,5,4
312,56,145945,1,4
312,56,146118,1,0
376,112,146290,1,0
312,176,146462,1,4
248,112,146634,1,4
312,176,146807,1,4
312,264,146979,5,4
48,264,147323,1,4
48,264,147495,1,0
72,176,147668,2,0,B|128:176|128:232,1,80,0|4
200,176,148012,2,0,B|200:280,1,80,0|4
200,344,148356,5,4
312,40,148701,1,4
312,128,148873,1,0
384,80,149045,2,0,B|384:32|448:32,1,80,0|4
472,112,149390,2,0,B|472:200,1,80,0|4
472,192,149734,5,4
40,192,150079,1,4
40,192,150251,1,0
128,192,150423,2,0,B|216:192,1,80,0|4
248,272,150767,2,0,B|304:272|304:216,1,80,0|4
304,128,151112,2,0,B|344:128,7,40
392,128,151801,2,0,B|416:128,15,20,0|0|0|0|0|0|0|0|0|0|0|0|0|0|0|4
