osu file format v8

[General]
AudioFilename: Heart_of_Witch.mp3
AudioLeadIn: 3000
PreviewTime: 51374
Countdown: 0
SampleSet: Soft
StackLeniency: 0.7
Mode: 0
LetterboxInBreaks: 1

[Editor]
DistanceSpacing: 1
BeatDivisor: 4
GridSize: 8

[Metadata]
Title:Heart of Witch
Artist:ReX
Creator:wcx19911123
Version:Normal+
Source:DJMAX Black Square
Tags:Clasic Trance yangzd88

[Difficulty]
HPDrainRate:3
CircleSize:4
OverallDifficulty:4
ApproachRate:4
SliderMultiplier:1
SliderTickRate:1

[Events]
//Background and Video events
Video,-900,"VEDIO.avi"
0,0,"BG.jpg"
//Break Periods
2,34288,38769
//Storyboard Layer 0 (Background)
//Storyboard Layer 1 (Fail)
//Storyboard Layer 2 (Pass)
//Storyboard Layer 3 (Foreground)
//Storyboard Sound Samples
//Background Colour Transformations
3,100,163,162,255

[TimingPoints]
560,352.941176470588,4,2,0,100,1,0
84550,-100,4,2,0,100,0,0
85256,-100,4,2,0,79,0,0
86315,-100,4,2,0,51,0,0
87374,-100,4,2,0,21,0,0
88786,-100,4,2,0,0,0,0

[Colours]
Combo1 : 255,11,17
Combo2 : 80,0,247
Combo3 : 234,12,252
Combo4 : 252,20,153

[HitObjects]
504,40,6207,1,0
504,192,6736,1,0
504,344,7265,1,0
376,272,7795,1,0
256,184,8324,1,0
256,184,8677,1,0
256,80,9030,5,0
120,8,9559,1,0
48,144,10089,1,0
184,208,10618,1,0
336,208,11148,2,0,B|392:208,2,50
256,144,11854,5,2
376,48,12383,1,0
488,144,12912,1,2
488,248,13265,1,2
376,344,13795,1,0
256,248,14324,1,2
256,152,14677,5,2
144,48,15207,1,0
24,144,15736,1,2
24,248,16089,2,0,B|113:315,1,100,2|0
184,248,16795,2,0,B|257:174,1,100,2|0
320,104,17501,6,0,B|369:21|448:95,1,150,2|2
512,224,18559,1,2
464,312,18912,2,0,B|384:360|336:272,1,150,2|2
256,144,19971,1,2
224,240,20324,2,0,B|205:328|105:307,1,150,2|2
72,160,21383,5,0
160,120,21736,1,2
256,80,22089,1,0
352,120,22442,1,2
440,160,22795,1,0
464,256,23148,6,0,B|376:328,1,100,8|2
400,224,23854,2,0,B|312:296,1,100,2|2
256,360,24559,1,8
256,264,24912,1,2
256,160,25265,1,2
256,56,25618,1,2
152,56,25971,6,0,B|64:128,1,100,8|2
176,120,26677,2,0,B|88:192,1,100,2|2
80,280,27383,1,8
176,320,27736,1,2
272,328,28089,1,2
376,328,28442,1,2
440,256,28795,6,0,B|384:272|376:200,1,100,8|2
288,248,29501,2,0,B|272:192|344:184,1,100,2|2
296,96,30207,2,0,B|352:80|360:152,1,100,8|2
448,112,30912,2,0,B|464:168|392:176,1,100,2|2
296,160,31618,6,8,B|296:64|296:64|184:64|184:64|184:168,1,300,8|2
120,232,33030,2,0,B|120:328|120:328|8:328|8:328|8:224,1,300,8|0
48,64,40089,5,0
256,192,40442,12,0,42560
256,336,42912,5,0
256,192,43265,12,0,45383
448,96,45736,5,2
448,296,46442,1,2
280,192,47148,1,2
120,304,47854,1,2
16,136,48560,5,2
88,64,48912,1,2
152,144,49265,1,2
208,224,49618,1,2
272,296,49971,2,2,B|344:296,1,50,0|0
376,296,50324,2,2,B|376:224,1,50,0|0
376,192,50677,2,2,B|448:192,1,50,0|0
432,144,51030,2,2,B|432:72,1,50,0|0
432,40,51383,5,0
384,40,51560,1,0
288,40,51912,1,0
136,40,52442,1,0
40,40,52795,1,0
40,88,52971,1,0
40,184,53324,1,0
40,336,53854,1,0
136,336,54207,5,0
184,336,54383,1,0
184,240,54736,1,0
184,88,55265,1,0
280,56,55618,2,0,B|328:24|376:56,1,100,8|0
328,144,56324,2,0,B|376:176|424:144,1,100,8|0
488,72,57030,5,0
488,120,57207,1,0
488,216,57560,1,0
488,368,58089,1,0
392,368,58442,1,0
344,368,58618,1,0
344,272,58971,1,0
344,120,59501,1,0
248,144,59854,6,0,B|56:224|400:232|288:296|176:336,1,300
96,312,61265,1,8
32,240,61618,1,0
32,136,61971,1,8
96,64,62324,1,0
256,192,62677,12,0,63736
256,128,64089,5,2
176,192,64442,1,2
256,256,64795,1,2
336,192,65148,1,2
256,192,65501,12,0,66560
256,128,66912,5,2
336,192,67265,1,2
256,256,67618,1,2
176,192,67971,1,2
256,192,68324,12,0,69383
416,256,69736,5,2
496,192,70089,1,2
416,128,70442,1,2
336,192,70795,1,2
248,248,71148,6,0,B|221:288|190:277,1,50,8|2
192,232,71501,2,0,B|149:254|127:229,1,50,2|2
152,192,71854,2,0,B|104:189|98:157,1,50,8|2
144,136,72207,2,0,B|103:110|114:79,1,50,2|2
256,192,72560,12,4,73971
304,40,74324,6,0,B|360:72,1,50
384,104,74677,2,0,B|406:164,1,50,8|0
416,200,75030,1,0
408,248,75207,1,0
384,288,75383,2,0,B|328:321,1,50,8|0
296,336,75736,2,0,B|233:325,1,50
200,320,76089,1,8
152,296,76265,1,0
120,256,76442,2,0,B|120:191,1,50
136,160,76795,1,8
208,88,77148,5,0
256,72,77324,1,0
304,72,77501,2,0,B|296:48|328:32,2,50,8|0|0
344,96,78030,1,0
384,128,78207,2,0,B|411:139|394:183,1,50,8|0
400,224,78560,1,0
376,272,78736,1,0
336,304,78912,1,8
288,304,79089,2,0,B|264:344|232:344,2,50,0|0|0
256,264,79618,1,8
256,160,79971,5,0
296,192,80148,2,0,B|347:213,2,50,0|8|0
312,144,80677,1,0
280,104,80854,2,0,B|314:59,2,50,0|8|0
232,104,81383,1,0
200,144,81560,2,0,B|144:144,1,50,0|8
168,184,81912,1,0
176,232,82089,1,0
224,248,82265,2,0,B|282:248,1,50,0|8
256,48,83148,5,0
256,200,83677,2,0,B|256:232,2,25
256,192,84030,12,0,89501
