osu file format v8

[General]
AudioFilename: Heart_of_Witch.mp3
AudioLeadIn: 3000
PreviewTime: 51374
Countdown: 0
SampleSet: Soft
StackLeniency: 0.7
Mode: 0
LetterboxInBreaks: 1

[Editor]
DistanceSpacing: 1
BeatDivisor: 4
GridSize: 8

[Metadata]
Title:Heart of Witch
Artist:ReX
Creator:wcx19911123
Version:Insane
Source:DJMAX Black Square
Tags:Clasic Trance yangzd88

[Difficulty]
HPDrainRate:7
CircleSize:4
OverallDifficulty:8
ApproachRate:8
SliderMultiplier:2
SliderTickRate:0.5

[Events]
//Background and Video events
Video,-900,"VEDIO.avi"
0,0,"BG.jpg"
//Break Periods
2,45936,50633
//Storyboard Layer 0 (Background)
//Storyboard Layer 1 (Fail)
//Storyboard Layer 2 (Pass)
//Storyboard Layer 3 (Foreground)
//Storyboard Sound Samples
//Background Colour Transformations
3,100,163,162,255

[TimingPoints]
560,352.941176470588,4,2,1,81,1,0
17315,-100,4,1,1,49,0,0
22962,-100,4,2,1,62,0,0
34256,-100,4,2,0,62,0,0
50668,-100,4,1,1,50,0,0
61080,-100,4,2,0,72,0,0
62580,-100,4,1,0,51,0,0
70697,-50,4,1,0,50,0,0
71050,-100,4,2,0,100,0,0
84550,-100,4,2,0,100,0,0
85256,-100,4,2,0,69,0,0
86668,-100,4,2,0,31,0,0
88786,-100,4,2,0,0,0,0

[Colours]
Combo1 : 255,11,17
Combo2 : 80,0,247
Combo3 : 234,12,252
Combo4 : 252,20,153

[HitObjects]
64,80,560,2,0,B|256:-8|464:96,1,400,2|0
256,144,1618,1,0
64,224,1971,1,2
128,304,2148,2,0,B|64:224,1,100
192,224,2501,2,0,B|128:304,1,100
256,304,2854,2,0,B|192:224,1,100
368,352,3207,5,2
416,336,3295,1,0
456,304,3383,2,0,B|536:144|440:16,1,300,2|0
392,24,4089,2,0,B|288:64|304:208,2,200,2|0|2
400,128,5148,5,2
240,64,5324,5,2
304,256,5677,5,2
256,248,5765,1,0
216,216,5854,1,2
80,72,6207,5,2
56,168,6383,2,0,B|6:142,2,50
24,264,6736,1,2
96,336,6912,2,0,B|136:368,2,50
192,312,7265,1,2
160,216,7442,2,0,B|109:252,2,50
208,128,7795,1,2
264,48,7971,2,0,B|296:112,2,50
360,64,8324,1,2
472,232,8677,1,2
488,32,9030,5,2
424,112,9207,1,0
424,112,9295,1,0
424,112,9383,1,0
368,192,9559,1,2
424,272,9736,1,0
424,272,9824,1,0
424,272,9912,1,0
488,352,10089,1,2
392,352,10265,1,0
344,352,10354,1,0
296,336,10442,1,0
240,248,10618,5,2
224,152,10795,1,0
208,104,10883,1,0
176,64,10971,1,0
128,48,11059,1,0
80,56,11148,2,8,B|24:64|8:151,2,100,2|0|2
0,240,11854,5,2
64,312,12030,1,0
160,344,12207,1,0
208,256,12383,1,2
264,344,12559,1,0
352,296,12736,1,0
432,240,12912,2,0,B|488:240|512:176,1,100,2|0
464,96,13265,5,2
376,40,13442,1,0
328,16,13530,1,0
280,32,13618,1,0
328,120,13795,1,2
240,64,13971,2,0,B|196:95|190:160,2,100,0|0|2
320,248,14677,5,2
272,336,14854,1,0
224,352,14942,1,0
176,344,15030,1,0
80,312,15207,1,2
24,224,15383,1,0
8,176,15471,1,0
16,128,15559,1,0
64,40,15736,1,2
256,192,15824,12,0,16618
144,272,16795,5,2
360,112,17148,1,2
64,40,17501,5,2
112,128,17677,2,0,B|-8:128,1,100
112,232,18030,2,0,B|12:232,1,100,2|0
112,336,18383,1,0
208,336,18559,1,2
408,320,18912,6,0,B|473:299|483:243,1,100,2|0
480,256,19177,1,0
480,256,19265,1,0
384,224,19442,1,2
464,160,19618,1,0
464,160,19707,1,0
464,160,19795,2,0,B|432:112|368:120,1,100,0|2
176,128,20324,6,0,B|208:64|264:48,2,100,2|0|0
256,184,20854,1,2
208,272,21030,1,0
128,216,21207,1,0
176,128,21383,1,2
360,56,21736,5,0
120,88,22089,1,0
152,328,22442,1,0
392,296,22795,1,0
392,96,23148,6,0,B|391:33|313:15,1,100,8|0
296,112,23501,1,0
208,152,23677,1,0
160,64,23854,2,0,B|104:96|96:160,1,100,8|0
208,152,24207,1,0
256,240,24383,1,0
176,304,24559,6,0,B|216:352|288:344,1,100,8|0
256,240,24912,1,0
344,192,25089,1,0
256,240,25265,1,8
344,192,25442,1,0
432,144,25618,5,0
256,48,25795,1,0
80,144,25971,1,8
256,48,26324,5,0
256,48,26412,1,0
256,48,26501,1,0
256,48,26589,1,0
256,48,26677,2,0,B|184:72|176:144,1,100,8|0
256,176,27030,1,0
256,176,27118,1,0
256,176,27207,1,0
256,176,27295,1,0
256,176,27383,2,0,B|328:200|336:272,1,100,8|0
304,336,27736,1,0
304,336,27824,1,0
304,336,27912,1,0
304,336,28001,1,0
304,336,28089,2,0,B|160:336,1,100,8|0
204,336,28442,1,0
204,336,28530,1,0
204,336,28618,1,0
400,336,28795,6,0,B|480:240|416:128,1,200,8|0
408,104,29236,1,0
384,64,29324,2,0,B|328:24|280:48,1,100,0|8
240,56,29589,1,0
200,80,29677,2,0,B|160:128|192:192,1,100
200,224,29942,1,0
208,272,30030,2,0,B|200:328|144:344,1,100,0|8
96,336,30295,1,0
48,320,30383,2,0,B|8:280|32:216,1,100
32,176,30648,1,0
56,128,30736,2,0,B|80:80|128:56,1,100,0|8
168,40,31001,1,0
216,32,31089,1,0
264,120,31265,5,0
312,120,31354,1,0
312,168,31442,1,0
312,216,31530,1,0
264,216,31618,1,8
24,176,31971,5,0
80,280,32148,1,0
192,320,32324,1,8
312,320,32501,1,0
424,280,32677,1,0
488,176,32854,1,0
256,192,33030,12,0,34089
128,192,34442,5,2
384,192,34618,5,2
208,24,34971,5,0
208,24,35060,1,0
208,24,35148,2,0,B|168:120,1,100
296,40,35501,2,0,B|336:136,1,100
200,192,35854,2,0,B|120:256,1,100
296,224,36207,2,0,B|384:280,1,100
136,336,36560,2,0,B|16:344,1,100
344,344,36912,2,0,B|448:344,1,100
256,320,37265,5,2
256,64,37442,5,2
88,168,37795,6,0,B|24:176|-16:232,2,100
184,152,38324,1,0
288,152,38501,1,0
384,160,38677,2,0,B|458:130|480:78,2,100
296,208,39207,1,0
200,216,39383,1,0
104,224,39560,1,0
24,280,39736,1,0
0,368,39912,1,0
256,336,40089,5,2
256,48,40265,5,2
72,136,40618,5,0
72,136,40707,1,0
72,136,40795,2,0,B|168:88,2,100
440,136,41324,2,0,B|344:88,1,100
256,48,41677,1,0
256,192,41854,1,0
256,336,42030,1,0
456,320,42383,2,0,B|475:290|433:249,1,50
400,272,42560,2,0,B|377:254|397:225,1,50
448,216,42736,2,0,B|467:186|425:145,1,50
392,96,42912,5,2
104,96,43089,5,2
256,314,43442,6,0,B|256:264,1,50
200,272,43618,2,0,B|200:200,1,50
256,208,43795,2,0,B|256:136,1,50
312,168,43971,2,0,B|312:88,1,50
256,104,44148,2,0,B|256:48,2,50
256,192,44501,12,0,45736
56,72,51383,5,2
152,72,51560,1,0
152,176,51736,2,0,B|104:200|48:176,2,100,0|2|0
152,176,52177,1,0
152,176,52265,1,0
152,280,52442,1,2
352,280,52795,5,2
448,280,52971,2,0,B|480:280|480:240,1,50
496,200,53148,2,0,B|520:152|504:96,1,100,0|2
432,32,53501,2,0,B|480:0,2,50
352,96,53854,1,2
152,96,54207,5,2
152,200,54383,1,0
152,200,54471,1,0
152,200,54560,1,0
152,304,54736,1,2
52,304,54912,2,0,B|152:304,1,100
256,304,55265,1,2
440,376,55618,5,0
440,8,55971,5,0
72,8,56324,5,0
72,376,56677,5,0
160,192,57030,5,2
160,96,57207,1,0
208,96,57295,1,0
256,96,57383,1,0
256,192,57560,1,2
256,296,57736,1,0
304,296,57824,1,0
352,296,57912,1,0
352,192,58089,1,2
69,327,58442,6,0,B|120:336|160:296,2,100,2|0|0
256,192,58971,1,2
442,56,59148,2,0,B|391:47|352:88,2,100,0|0|2
40,56,59854,5,2
40,192,60030,1,0
136,296,60207,1,0
256,216,60383,1,2
376,296,60560,1,0
472,192,60736,1,0
472,56,60912,1,2
64,32,61265,6,0,B|144:104,1,100
448,32,61618,6,0,B|368:104,1,100
448,352,61971,6,0,B|368:280,1,100
64,352,62324,6,0,B|144:280,1,100
448,192,62677,5,0
352,120,62854,1,0
272,208,63030,1,0
176,136,63207,1,0
111,212,63383,2,0,B|176:136,1,100
111,212,63736,2,0,B|8:136,1,100
372,328,64089,6,0,B|272:328,1,100
144,264,64442,1,0
368,192,64618,2,0,B|312:192,2,50
144,104,64971,1,0
368,24,65148,2,0,B|264:24,1,100
224,328,65501,5,0
304,240,65677,1,0
304,240,65765,1,0
304,240,65854,1,0
200,176,66030,1,0
200,176,66118,1,0
200,176,66207,2,0,B|288:88,1,100
176,32,66560,1,0
270,105,66736,1,0
464,264,66912,6,0,B|464:320|400:344,1,100
384,296,67177,1,0
360,248,67265,1,0
304,336,67442,1,0
280,296,67530,1,0
256,256,67618,2,0,B|200:280|192:360,1,100
168,288,67883,1,0
144,248,67971,1,0
80,328,68148,1,0
80,88,68324,5,0
80,88,68412,1,0
80,88,68501,2,0,B|104:32|152:16,1,100
168,64,68765,1,0
184,112,68854,2,0,B|232:104|264:48,1,100
280,96,69118,1,0
304,136,69207,1,0
328,96,69295,1,0
352,56,69383,2,0,B|380:106|428:114,1,100
440,328,69736,5,0
72,328,69912,1,0
352,328,70089,1,0
168,328,70265,1,0
304,328,70442,1,0
208,328,70618,1,0
256,256,70795,2,0,B|256:8,1,200
72,56,71148,6,0,B|176:56,1,100
440,256,71501,2,0,B|336:256,1,100
72,256,71854,2,0,B|176:256,1,100
440,56,72207,2,0,B|336:56,1,100
256,192,72560,12,0,73971
40,312,74324,5,0
128,272,74501,1,0
224,232,74677,1,0
320,192,74854,1,0
363,378,75030,5,0
297,306,75207,1,0
224,232,75383,1,0
152,158,75560,1,0
344,80,75736,5,0
248,120,75912,1,0
152,160,76089,1,0
64,200,76265,1,0
344,80,76442,5,0
152,160,76618,1,0
296,304,76795,1,0
80,192,77148,5,0
88,120,77236,1,0
132,64,77324,1,0
256,192,77501,1,0
256,192,77677,1,0
343,39,77854,5,0
401,82,77942,1,0
428,148,78030,1,0
256,192,78207,1,0
256,192,78383,1,0
344,344,78560,5,0
278,373,78648,1,0
207,363,78736,1,0
256,192,78912,1,0
256,192,79089,1,0
72,192,79265,5,0
256,192,79442,5,0
432,192,79618,5,0
256,56,79971,5,2
256,328,80148,1,2
324,74,80324,1,2
188,309,80501,1,2
373,124,80677,1,2
138,260,80854,1,2
392,192,81030,1,2
120,192,81207,5,2
373,260,81383,1,2
138,124,81560,1,2
324,309,81736,1,2
187,74,81912,1,2
255,328,82089,1,2
255,56,82265,1,2
256,192,82442,1,4
96,48,82971,5,0
48,48,83060,1,0
0,48,83148,1,0
416,336,83677,1,0
464,336,83765,1,0
512,336,83854,1,0
256,192,83942,12,0,89501
