osu file format v8

[General]
AudioFilename: Heart_of_Witch.mp3
AudioLeadIn: 3000
PreviewTime: 51374
Countdown: 0
SampleSet: Soft
StackLeniency: 0.7
Mode: 0
LetterboxInBreaks: 1

[Editor]
DistanceSpacing: 0.800000011920929
BeatDivisor: 4
GridSize: 8

[Metadata]
Title:Heart of Witch
Artist:ReX
Creator:wcx19911123
Version:Easy
Source:DJMAX Black Square
Tags:Clasic Trance yangzd88

[Difficulty]
HPDrainRate:2
CircleSize:4
OverallDifficulty:2
ApproachRate:2
SliderMultiplier:1
SliderTickRate:1

[Events]
//Background and Video events
Video,-900,"VEDIO.avi"
0,0,"BG.jpg"
//Break Periods
2,23348,27235
2,45936,49823
//Storyboard Layer 0 (Background)
//Storyboard Layer 1 (Fail)
//Storyboard Layer 2 (Pass)
//Storyboard Layer 3 (Foreground)
//Storyboard Sound Samples
//Background Colour Transformations
3,100,163,162,255

[TimingPoints]
560,352.941176470588,4,2,0,100,1,0
84727,-100,4,2,0,89,0,0
85256,-100,4,2,0,76,0,0
85786,-100,4,2,0,59,0,0
86492,-100,4,2,0,33,0,0
87727,-100,4,2,0,12,0,0
89139,-100,4,2,0,0,0,0

[Colours]
Combo1 : 255,11,17
Combo2 : 80,0,247
Combo3 : 234,12,252
Combo4 : 252,20,153

[HitObjects]
40,104,6207,2,8,B|96:0|160:120,1,150,8|0
216,200,7265,1,8
304,280,7795,1,8
408,336,8324,2,8,B|469:373|472:290,1,100,8|0
472,216,9030,6,8,B|495:100|369:151,1,150,8|0
280,184,10089,1,8
216,80,10618,1,8
104,120,11148,2,8,B|81:161|81:161|42:99|42:99,1,100,8|0
32,40,11854,5,0
256,40,13265,1,0
496,40,14677,5,0
496,192,16089,2,0,B|432:152|408:232,1,100,8|0
384,288,16795,2,0,B|378:363|299:335,1,100,8|0
256,288,17501,5,0
88,16,18912,1,0
16,328,20324,1,0
256,112,21736,5,8
320,160,22089,1,0
296,232,22442,1,8
216,232,22795,1,0
192,160,23148,1,8
24,304,28795,5,8
256,80,30207,1,8
480,312,31618,5,8
328,352,32324,1,8
184,280,33030,1,8
24,312,33736,1,8
16,152,34442,6,0,B|97:57|217:51|288:140,1,300
336,184,35854,1,0
448,304,36560,1,0
448,144,37265,6,0,B|466:108|462:101|434:97|426:100|391:118|387:129|383:157|390:172|425:208|443:208|494:183|504:169|519:144|519:126|519:108|512:94|505:80|502:72|491:69,1,300
432,40,38677,1,0
272,40,39383,1,0
112,56,40089,5,8
216,176,40795,1,8
56,192,41501,2,8,B|-24:256|64:336,1,150,8|0
128,344,42383,2,0,B|192:344|208:312|272:288|336:344,1,200,0|0
456,88,44324,6,8,B|408:40|376:104,1,100,8|0
312,152,45030,2,8,B|256:200|216:144,1,100,8|0
168,96,45736,1,8
48,72,51383,5,8
168,72,51912,1,8
288,72,52442,2,0,B|328:176,1,100,0|8
400,72,53324,1,8
448,184,53854,2,0,B|488:288,1,100,0|8
360,280,54736,5,8
248,328,55265,1,0
168,304,55618,2,8,B|96:264|192:224,1,100,8|0
240,200,56324,2,8,B|319:234|298:143,1,100,8|0
384,160,57030,5,8
384,40,57560,1,8
264,40,58089,2,0,B|160:40,1,100,0|8
56,96,58971,1,8
96,208,59501,1,0
72,288,59854,6,0,B|120:392|120:152|144:392|192:272,1,150,8|8
208,168,60912,1,0
256,104,61265,2,0,B|304:32|344:120,1,100,8|0
344,176,61971,2,0,B|392:248|432:160,1,100,8|0
480,128,62677,5,0
408,88,63030,2,0,B|307:22,1,100
256,80,63736,1,0
200,136,64089,1,0
144,192,64442,2,0,B|88:104,1,100
40,48,65148,1,0
40,128,65501,5,0
40,208,65854,2,0,B|104:208,2,50
40,288,66560,1,0
112,328,66912,1,0
192,336,67265,2,0,B|192:264,2,50
272,336,67971,1,0
352,320,68324,6,0,B|467:314|518:214|476:96,1,300
424,40,69736,2,0,B|334:-33|229:7|181:122,1,300
256,192,71148,12,8,73971
360,128,74324,6,0,B|328:240,1,100,0|8
304,296,75030,2,0,B|208:240,1,100,0|8
144,216,75736,2,0,B|216:128,1,100,0|8
256,72,76442,2,0,B|160:16,1,100,0|8
104,72,77148,5,0
104,152,77501,2,0,B|-8:152,2,100,8|0|8
104,232,78560,1,0
104,312,78912,2,0,B|208:312,1,100,8|0
288,312,79618,1,8
368,312,79971,6,0,B|436:335|458:275,1,100,0|8
488,216,80677,1,0
488,136,81030,1,8
448,64,81383,2,0,B|415:0|357:27,1,100,0|8
296,56,82089,1,0
248,120,82442,1,8
256,280,83148,5,0
144,320,83677,2,0,B|104:336,2,25
256,192,84207,12,0,89501
