osu file format v5

[General]
AudioFilename: DJ Max Black Square - Heart of Witch.mp3
AudioLeadIn: 0
PreviewTime: -1
Countdown: 1
SampleSet: Normal
StackLeniency: 0.2
Mode: 0
LetterboxInBreaks: 1

[Metadata]
Title:Heart of Witch
Artist:ReX
Creator:[HanyouMiko]
Version:Hard+
Source:Djmax black square dj max
Tags:

[Difficulty]
HPDrainRate:6
CircleSize:4
OverallDifficulty:5
SliderMultiplier:1.4
SliderTickRate:1

[Events]
//Background and Video events
0,0,"b0078275_498844982265a.jpg"
1,0,"[BGA] DJ Max Black Square - Heart of Witch.avi"
//Break Periods
//Storyboard Layer 0 (Background)
//Storyboard Layer 1 (Failing)
//Storyboard Layer 2 (Passing)
//Storyboard Layer 3 (Foreground)
//Storyboard Sound Samples
//Background Colour Transformations
3,100,64,0,128

[TimingPoints]
1515.70588235294,705.882352941176,4,1,0,100,1,0

[Colours]
Combo1 : 113,26,50
Combo2 : 64,0,128
Combo3 : 128,0,0
Combo4 : 103,0,206

[HitObjects]
160,112,1515,1,0
272,112,2221,1,0
272,224,2927,1,0
160,224,3633,1,0
48,224,4339,1,0
48,112,5045,1,0
160,112,5750,1,0
160,224,6456,1,0
272,224,7162,5,0
336,168,7692,1,0
392,104,8221,1,0
312,64,8750,1,0
224,64,9280,1,0
144,136,9986,5,0
144,216,10515,1,0
224,216,11045,1,0
304,216,11574,1,0
304,296,12103,1,0
192,296,12809,5,0
192,296,12986,1,0
192,296,13162,1,0
192,296,13339,1,0
192,296,13515,1,0
192,296,13692,1,0
192,296,13868,1,0
96,296,14221,5,0
96,296,14398,1,0
96,296,14574,1,0
96,296,14750,1,0
96,296,14927,1,0
96,296,15103,1,0
96,296,15280,1,0
96,192,15633,5,0
96,192,15809,1,0
96,192,15986,1,0
96,192,16162,1,0
96,192,16339,1,0
96,192,16515,1,0
96,192,16692,1,0
160,192,17045,5,0
224,192,17398,1,0
288,192,17750,1,0
344,192,18103,1,0
400,192,18456,5,0
400,192,18633,1,0
400,192,18809,1,0
400,192,18986,1,0
400,192,19162,1,0
400,192,19339,1,0
400,192,19515,1,0
488,192,19868,5,0
488,192,20045,1,0
488,192,20221,1,0
488,192,20398,1,0
488,192,20574,1,0
488,192,20750,1,0
488,192,20927,1,0
488,104,21280,5,0
488,104,21456,1,0
488,104,21633,1,0
488,104,21809,1,0
488,104,21986,1,0
488,104,22162,1,0
488,104,22339,1,0
432,104,22692,5,0
432,48,23045,1,0
376,48,23398,1,0
320,48,23750,1,0
256,48,24103,5,0
256,112,24456,1,0
256,176,24809,1,0
256,232,25162,1,0
256,280,25515,1,0
256,336,25868,1,0
200,336,26221,1,0
200,280,26574,1,0
200,224,26927,5,0
200,168,27280,1,0
200,112,27633,1,0
200,56,27986,1,0
144,56,28339,1,0
144,112,28692,1,0
144,168,29045,1,0
144,224,29398,1,0
144,280,29750,5,0
144,336,30103,1,0
88,336,30456,1,0
88,280,30809,1,0
88,224,31162,1,0
88,168,31515,1,0
88,112,31868,1,0
88,56,32221,1,0
32,56,32574,5,0
32,112,32927,1,0
32,168,33280,1,0
32,224,33633,1,0
32,280,33986,1,0
32,336,34339,1,0
32,280,34692,1,0
32,224,35045,1,0
88,224,35398,5,0
144,224,35750,1,0
168,224,35927,1,0
184,224,36103,1,0
208,224,36280,1,0
232,224,36456,1,0
256,224,36633,1,0
280,224,36809,1,0
304,224,36986,1,0
328,224,37162,1,0
352,224,37339,1,0
352,136,37868,5,0
296,136,38221,1,0
296,136,38398,1,0
240,136,38750,5,0
208,136,38927,1,0
176,136,39103,1,0
144,136,39280,1,0
112,136,39456,1,0
80,136,39633,1,0
48,136,39809,1,0
48,80,40162,5,0
72,64,40339,1,0
96,48,40515,1,0
120,32,40692,1,0
192,32,41045,5,0
248,32,41398,1,0
272,32,41574,1,0
288,32,41750,1,0
312,32,41927,1,0
336,32,42103,1,0
360,32,42280,1,0
384,32,42456,1,0
408,32,42633,1,0
432,32,42809,1,0
456,32,42986,1,0
464,112,43515,5,0
464,168,43868,1,0
464,168,44045,1,0
464,224,44398,5,0
432,224,44574,1,0
400,224,44750,1,0
368,224,44927,1,0
336,224,45103,1,0
304,224,45280,1,0
272,224,45456,1,0
216,224,45809,5,0
216,248,45986,1,0
216,272,46162,1,0
216,296,46339,1,0
160,296,46692,5,0
160,296,46868,1,0
160,240,47221,5,0
160,208,47398,1,0
160,176,47574,1,0
160,144,47750,1,0
160,112,47927,1,0
160,80,48103,1,0
160,48,48280,1,0
160,16,48456,1,0
184,16,48633,1,0
208,16,48809,1,0
352,32,49515,5,0
408,32,49868,1,0
408,88,50221,1,0
352,88,50574,1,0
352,144,50927,1,0
408,144,51280,1,0
408,200,51633,1,0
352,200,51986,1,0
256,200,52339,5,0
256,200,52516,1,0
256,200,52692,1,0
256,200,52869,1,0
256,200,53045,1,0
256,200,53222,1,0
256,200,53398,1,0
152,200,53751,5,0
152,200,53928,1,0
152,200,54104,1,0
152,200,54280,1,0
152,200,54457,1,0
152,200,54633,1,0
152,200,54810,1,0
152,112,55163,5,0
152,112,55339,1,0
152,112,55516,1,0
152,112,55692,1,0
152,112,55869,1,0
152,112,56045,1,0
152,112,56222,1,0
208,112,56575,5,0
264,112,56928,1,0
320,112,57280,1,0
376,112,57633,1,0
376,200,57986,5,0
376,200,58163,1,0
376,200,58339,1,0
376,200,58516,1,0
376,200,58692,1,0
376,200,58869,1,0
376,200,59045,1,0
376,296,59398,5,0
376,296,59575,1,0
376,296,59751,1,0
376,296,59927,1,0
376,296,60104,1,0
376,296,60280,1,0
376,296,60457,1,0
280,304,60810,5,0
280,304,60986,1,0
280,304,61163,1,0
280,304,61339,1,0
280,304,61516,1,0
280,304,61692,1,0
280,304,61869,1,0
224,304,62222,5,0
168,304,62575,1,0
112,304,62927,1,0
56,304,63280,1,0
56,248,63633,5,0
56,160,64162,1,0
56,128,64339,1,0
112,128,64692,2,0,B|192:128,1,70
264,128,65574,5,0
288,128,65751,1,0
344,128,66104,2,0,B|424:128,1,70
416,208,66986,5,0
384,208,67163,1,0
328,208,67516,2,0,B|248:208,1,70
176,208,68398,5,0
144,208,68575,1,0
88,208,68927,2,0,B|8:208,1,70
24,288,69809,5,0
48,288,69986,1,0
104,288,70339,2,0,B|184:288,1,70
256,288,71221,5,0
256,256,71398,1,0
256,200,71751,2,0,B|256:120,1,70
256,72,72456,5,0
312,72,72809,1,0
368,72,73162,1,0
424,72,73515,1,0
424,128,73868,5,0
424,184,74221,2,0,B|432:264|320:256,1,140,0|0
272,256,75280,5,0
216,256,75633,1,0
160,256,75986,1,0
160,200,76339,1,0
216,200,76692,1,0
272,200,77045,1,0
328,200,77398,1,0
328,144,77750,5,0
272,144,78103,1,0
216,144,78456,1,0
160,144,78809,1,0
104,144,79162,1,0
104,88,79515,1,0
160,88,79868,1,0
216,88,80221,1,0
240,88,80574,6,0,B|288:24|328:104,4,105
256,200,83398,5,0
256,200,84103,5,0
256,200,84633,5,0
256,200,84809,1,0
