osu file format v5

[General]
AudioFilename: DJ Max Black Square - Heart of Witch.mp3
AudioLeadIn: 0
PreviewTime: -1
Countdown: 1
SampleSet: Normal
StackLeniency: 0.2
Mode: 0
LetterboxInBreaks: 1

[Metadata]
Title:Heart of Witch
Artist:ReX
Creator:[HanyouMiko]
Version:Easy
Source:Djmax black square dj max
Tags:

[Difficulty]
HPDrainRate:6
CircleSize:4
OverallDifficulty:5
SliderMultiplier:1.4
SliderTickRate:1

[Events]
//Background and Video events
0,0,"b0078275_498844982265a.jpg"
1,0,"[BGA] DJ Max Black Square - Heart of Witch.avi"
//Break Periods
2,35598,39845
2,45480,48315
//Storyboard Layer 0 (Background)
//Storyboard Layer 1 (Failing)
//Storyboard Layer 2 (Passing)
//Storyboard Layer 3 (Foreground)
//Storyboard Sound Samples
//Background Colour Transformations
3,100,64,0,128

[TimingPoints]
1515.70588235294,705.882352941176,4,1,0,100,1,0

[Colours]
Combo1 : 113,26,50
Combo2 : 64,0,128
Combo3 : 128,0,0
Combo4 : 103,0,206

[HitObjects]
32,312,1515,5,0
144,312,2221,1,0
480,312,4339,5,0
368,312,5045,1,0
256,24,7162,5,0
200,88,7692,1,0
256,152,8221,1,0
320,208,8750,1,0
256,264,9280,1,0
144,264,9986,5,0
144,176,10516,1,0
224,176,11045,1,0
304,176,11574,1,0
304,88,12104,1,0
192,88,12809,5,0
256,184,13515,1,0
224,288,14221,5,0
120,328,14927,1,0
40,248,15633,5,0
8,136,16339,1,0
104,88,17045,5,0
144,48,17398,1,0
200,48,17751,1,0
240,88,18103,1,0
240,144,18456,6,0,B|320:144,3,70
352,184,19868,2,0,B|352:264,3,70
384,296,21280,2,0,B|464:296,3,70
472,240,22692,5,0
472,184,23045,1,0
424,144,23398,1,0
368,144,23751,1,0
312,144,24103,6,0,B|136:64|0:208|136:352|328:264,1,490
360,272,26927,6,4,B|648:288|568:0|400:24|344:40,1,490,0|0
328,88,29750,6,0,B|336:336|120:360|40:240|40:136,1,490,0|0
48,112,32574,6,0,C|144:184|240:120|344:184|456:112,1,490,0|0
448,64,35398,1,0
248,136,41045,5,0
328,56,41750,1,0
256,144,42456,2,0,B|256:200,3,35
112,192,43868,2,0,B|160:192,1,35
48,256,45280,1,0
296,232,49515,6,0,B|296:328,7,70
224,304,52339,6,0,B|200:304,2,17.5
136,304,53045,1,0
64,216,53750,2,0,B|64:192,2,17.5
64,128,54457,1,0
144,56,55162,2,0,B|168:56,2,17.5
224,56,55869,1,0
328,56,56574,5,0
328,112,56927,1,0
368,152,57280,1,0
368,216,57633,1,0
424,280,57986,6,0,B|448:280,2,17.5,0|0|0
424,360,58692,1,0
312,360,59398,2,0,B|288:360,2,17.5
224,304,60104,1,0
184,216,60809,2,0,B|160:216,2,17.5
216,136,61516,1,0
216,24,62221,6,0,B|312:24,1,70
352,32,62927,2,0,B|352:104,1,70
432,104,63633,1,0
440,216,64339,6,0,B|296:216,1,140
304,104,65750,2,0,B|160:104,1,140
160,216,67162,2,0,B|16:216,1,140
24,328,68574,6,0,B|168:328,1,140
168,216,69986,1,0
240,216,70339,1,0
312,216,70692,1,0
344,320,71398,1,0
416,320,71750,1,0
480,320,72103,2,0,B|480:24|296:16|80:24,1,560
112,96,75280,6,0,B|112:136,12,35,0|0|0|0|0|0|0|0|0|0|0|0|0
256,192,77750,12,0,80220
80,160,80574,6,0,B|96:104|176:104|200:176,2,140
144,248,82692,6,0,B|168:304|232:304|272:232,1,140
312,200,84103,6,0,B|368:176|368:112|296:72,1,140
