osu file format v14

[General]
AudioFilename: Everlasting Truth.mp3
AudioLeadIn: 0
PreviewTime: 44496
Countdown: 1
SampleSet: Soft
StackLeniency: 0.7
Mode: 0
LetterboxInBreaks: 1
WidescreenStoryboard: 0

[Editor]
DistanceSpacing: 1
BeatDivisor: 4
GridSize: 4
TimelineZoom: 1

[Metadata]
Title:Everlasting Truth
TitleUnicode:Everlasting Truth
Artist:Re:Plus
ArtistUnicode:Re:Plus
Creator:baiyuzi
Version:Hard
Source:
Tags:Re:Plus soft_music
BeatmapID:763853
BeatmapSetID:345999

[Difficulty]
HPDrainRate:6
CircleSize:4
OverallDifficulty:7
ApproachRate:8
SliderMultiplier:2.8
SliderTickRate:2

[Events]
//Background and Video events
0,0,"2009-02-08-142559.jpg",0,0
//Break Periods
//Storyboard Layer 0 (Background)
//Storyboard Layer 1 (Fail)
//Storyboard Layer 2 (Pass)
//Storyboard Layer 3 (Foreground)
//Storyboard Sound Samples

[TimingPoints]
1830,666.666666666667,4,2,1,40,1,0
34663,-133.333333333333,4,2,1,40,0,0
35163,-100,4,2,1,40,0,0
37329,-133.333333333333,4,2,1,40,0,0
37830,-100,4,2,1,40,0,0
39996,-133.333333333333,4,2,1,40,0,0
40496,-100,4,2,1,40,0,0
44496,-100,4,2,1,40,0,1
64163,-100,4,2,1,40,0,0
72328,-133.333333333333,4,2,1,40,0,0
72830,-100,4,2,1,40,0,0

[Colours]
Combo1 : 47,151,255
Combo2 : 255,32,32
Combo3 : 255,255,53
Combo4 : 57,255,57

[HitObjects]
288,48,496,5,0,0:0:0:0:
364,164,829,1,0,0:0:0:0:
252,244,1162,1,0,0:0:0:0:
160,128,1496,1,0,0:0:0:0:
24,96,1829,6,0,L|124:228,1,140
180,200,2329,1,0,0:0:0:0:
248,188,2496,2,0,L|328:280,1,70
240,36,3162,1,0,0:0:0:0:
299,112,3496,1,0,0:0:0:0:
357,182,3829,1,0,0:0:0:0:
420,264,4162,5,0,0:0:0:0:
416,272,4496,2,0,P|277:337|239:324,1,140
160,324,5162,2,0,P|100:285|58:171,1,140
164,128,5829,1,0,0:0:0:0:
304,108,6162,1,0,0:0:0:0:
444,88,6496,5,0,0:0:0:0:
400,60,6662,1,0,0:0:0:0:
360,44,6829,2,0,P|288:16|216:32,1,140
176,72,7329,1,0,0:0:0:0:
160,140,7496,2,0,L|240:196,1,70
264,240,7829,1,0,0:0:0:0:
308,184,7996,6,0,P|440:164|524:196,1,210
396,272,8830,1,0,0:0:0:0:
264,316,9163,1,0,0:0:0:0:
176,208,9496,1,0,0:0:0:0:
252,92,9829,1,0,0:0:0:0:
388,120,10163,2,0,L|464:68,2,70
312,4,10829,6,0,B|241:-11|156:8,1,140
76,108,11496,1,0,0:0:0:0:
184,196,11829,1,0,0:0:0:0:
284,100,12163,1,0,0:0:0:0:
424,112,12496,2,0,P|440:208|388:260,1,140
288,288,13163,1,0,0:0:0:0:
188,188,13496,2,0,P|188:92|252:52,1,140
324,152,14163,1,0,0:0:0:0:
228,252,14496,1,0,0:0:0:0:
132,148,14830,6,0,P|129:78|201:30,1,140
334,33,15496,6,0,P|383:80|380:148,1,140
324,276,16162,5,0,0:0:0:0:
456,328,16496,1,0,0:0:0:0:
508,196,16830,1,0,0:0:0:0:
379,148,17162,6,0,B|355:132|327:132|302:152,2,70
196,296,17829,2,0,L|340:296,1,140
172,112,18496,2,0,L|24:112,1,140
144,196,19162,1,0,0:0:0:0:
72,76,19496,2,0,P|41:134|77:211,1,140
192,260,20162,1,0,0:0:0:0:
304,176,20496,1,0,0:0:0:0:
256,192,20829,12,0,22162,0:0:0:0:
144,96,22996,6,0,L|84:176,1,70
192,172,23329,1,0,0:0:0:0:
244,100,23496,2,0,P|266:69|366:109,1,140
408,160,23996,2,0,L|408:284,2,70
380,72,24496,2,0,P|316:28|216:52,1,140
124,144,25162,5,0,0:0:0:0:
256,192,25496,1,0,0:0:0:0:
388,144,25829,6,0,B|455:235|336:304,1,140
332,224,26329,1,0,0:0:0:0:
272,184,26496,2,0,L|184:236,2,70
404,140,27162,1,0,0:0:0:0:
296,48,27496,1,0,0:0:0:0:
272,184,27829,6,0,B|272:224|306:227|335:224,2,70
376,88,28496,1,0,0:0:0:0:
221,52,28829,2,0,P|157:50|110:130,1,140
104,145,29329,1,0,0:0:0:0:
105,173,29496,2,0,L|142:244,1,70
208,224,29829,5,0,0:0:0:0:
304,124,30162,1,0,0:0:0:0:
440,96,30496,1,0,0:0:0:0:
472,232,30829,2,0,P|416:280|332:264,1,140
312,144,31496,1,0,0:0:0:0:
208,52,31829,1,0,0:0:0:0:
164,184,32162,1,0,0:0:0:0:
268,280,32496,2,0,P|244:349|164:354,2,140
276,202,33496,1,0,0:0:0:0:
200,32,33829,5,0,0:0:0:0:
144,104,33996,2,0,L|88:208,2,70
224,152,34496,1,0,0:0:0:0:
304,100,34663,2,0,P|368:80|456:124,1,140
312,208,35496,1,0,0:0:0:0:
408,120,35829,1,0,0:0:0:0:
288,52,36162,5,0,0:0:0:0:
148,52,36496,2,0,L|124:140,1,70
256,160,36829,1,0,0:0:0:0:
356,52,36996,2,0,L|388:140,1,70
328,232,37329,2,0,P|236:240|168:224,1,140
356,100,38162,1,0,0:0:0:0:
168,40,38496,5,0,0:0:0:0:
140,64,38662,1,0,0:0:0:0:
120,88,38829,2,0,B|96:120|100:176,1,70
148,232,39163,2,0,L|232:328,1,70
276,232,39496,2,0,L|344:160,1,70
392,120,39829,1,0,0:0:0:0:
316,48,39996,2,0,P|252:20|172:68,1,140
100,236,40829,2,0,P|168:296|240:312,1,140
304,120,41496,2,0,P|256:76|212:128,1,140
96,68,44496,5,0,0:0:0:0:
72,104,44663,2,0,P|56:132|64:176,1,70
80,204,44996,1,0,0:0:0:0:
160,80,45162,1,0,0:0:0:0:
256,160,45329,1,0,0:0:0:0:
350,83,45496,5,0,0:0:0:0:
348,135,45662,2,0,L|348:215,2,70
340,284,46162,1,0,0:0:0:0:
168,284,46329,1,0,0:0:0:0:
196,216,46496,2,0,P|268:188|332:244,1,140
180,32,47162,5,0,0:0:0:0:
132,140,47329,1,0,0:0:0:0:
248,184,47496,1,0,0:0:0:0:
288,72,47662,1,0,0:0:0:0:
340,72,47829,2,0,P|371:97|359:152,1,70
452,224,48329,5,0,0:0:0:0:
392,328,48496,1,0,0:0:0:0:
275,329,48662,6,0,P|243:325|219:272,2,70
164,236,49162,1,0,0:0:0:0:
180,36,49329,1,0,0:0:0:0:
88,144,49496,1,0,0:0:0:0:
240,172,49662,1,0,0:0:0:0:
304,84,49829,6,0,P|356:68|444:92,1,140
460,216,50329,1,0,0:0:0:0:
344,280,50496,2,0,L|236:332,1,70
104,136,50829,2,0,L|184:104,1,70
312,112,51163,2,0,P|412:168|424:236,1,140
304,280,51663,1,0,0:0:0:0:
148,272,51829,2,0,P|124:224|132:188,1,70
244,60,52163,2,0,P|260:93|252:144,1,70
124,209,52496,5,0,0:0:0:0:
108,72,52663,1,0,0:0:0:0:
256,48,52829,2,0,L|220:144,1,70
288,208,53163,2,0,L|356:264,1,70
488,116,53496,2,0,L|416:64,2,70
308,36,53996,2,0,P|257:33|152:68,1,140
304,160,54496,5,0,0:0:0:0:
232,256,54662,1,0,0:0:0:0:
128,176,54829,1,0,0:0:0:0:
204,80,54996,5,0,0:0:0:0:
233,75,55162,2,0,B|303:38|377:79|384:81,1,140
406,127,55662,5,0,0:0:0:0:
439,240,55829,1,0,0:0:0:0:
352,331,55996,1,0,0:0:0:0:
262,325,56496,6,8,B|182:320|140:247|135:242,1,140,0|8,0:0|0:0,0:0:0:0:
116,188,56996,1,0,0:0:0:0:
164,80,57162,1,0,0:0:0:0:
279,51,57329,1,0,0:0:0:0:
455,96,57829,5,0,0:0:0:0:
444,123,57996,2,0,L|410:199|410:199,2,70
357,122,58496,1,0,0:0:0:0:
302,212,58662,1,0,0:0:0:0:
84,60,59162,6,0,B|160:43|160:43|247:69|247:69|244:68,1,140
253,94,59662,1,0,0:0:0:0:
240,155,59829,2,0,B|276:168|276:168|303:178|303:178|326:181,1,70
351,40,60496,5,0,0:0:0:0:
452,100,60662,1,0,0:0:0:0:
388,212,60829,1,0,0:0:0:0:
280,148,60996,2,0,L|255:60,2,70
305,97,61496,5,0,0:0:0:0:
184,52,61662,1,0,0:0:0:0:
136,176,61829,5,0,0:0:0:0:
268,228,61996,1,0,0:0:0:0:
248,88,62162,1,0,0:0:0:0:
100,100,62329,1,0,0:0:0:0:
112,244,62496,2,0,L|120:316|120:316,1,70
136,320,62829,1,0,0:0:0:0:
176,322,62996,1,0,0:0:0:0:
213,307,63162,5,0,0:0:0:0:
253,287,63329,2,0,L|315:249|315:249,2,70
334,241,63829,1,0,0:0:0:0:
372,168,63996,1,0,0:0:0:0:
256,192,64329,12,0,65162,0:0:0:0:
114,73,65829,6,0,B|180:44|180:44|179:44,2,70
292,44,66329,1,0,0:0:0:0:
396,88,66662,1,0,0:0:0:0:
355,188,66996,2,0,B|243:277|150:181|150:181,1,210
48,108,67829,1,0,0:0:0:0:
160,24,68162,1,0,0:0:0:0:
296,56,68496,5,0,0:0:0:0:
248,104,68662,1,0,0:0:0:0:
208,160,68829,1,0,0:0:0:0:
336,180,68996,2,0,B|406:162|406:162|497:191,2,140
284,224,69829,1,0,0:0:0:0:
148,128,70162,1,0,0:0:0:0:
64,240,70496,2,0,P|50:275|65:303,2,70
256,144,71162,5,0,0:0:0:0:
344,200,71329,1,0,0:0:0:0:
428,144,71496,1,0,0:0:0:0:
338,61,71662,2,0,L|194:29,1,140
155,78,72162,1,0,0:0:0:0:
177,139,72329,2,0,B|344:176|331:187,1,140
256,196,73163,1,0,0:0:0:0:
157,261,73496,5,0,0:0:0:0:
248,308,73829,1,0,0:0:0:0:
345,313,74162,1,0,0:0:0:0:
368,296,74496,2,0,P|395:230|368:161,1,140
312,48,75162,5,0,0:0:0:0:
168,104,75496,1,0,0:0:0:0:
232,248,75829,1,0,0:0:0:0:
381,182,76162,1,0,0:0:0:0:
272,172,76496,6,0,P|242:220|250:252,1,70
331,297,76829,1,0,0:0:0:0:
381,182,76996,2,0,B|380:99|291:105|291:105|289:112,1,140
272,128,77662,5,0,0:0:0:0:
246,148,77829,2,0,P|169:168|101:135,1,140
164,53,78496,1,0,0:0:0:0:
64,148,78829,1,0,0:0:0:0:
180,192,79163,5,0,0:0:0:0:
216,110,79329,1,0,0:0:0:0:
151,52,79496,2,0,P|91:60|76:145,1,140
146,287,80162,1,0,0:0:0:0:
366,289,80496,1,0,0:0:0:0:
256,88,80829,1,0,0:0:0:0:
361,64,81162,6,0,P|401:79|411:110,2,70
406,198,81829,1,0,0:0:0:0:
215,226,82162,1,0,0:0:0:0:
323,302,82496,1,0,0:0:0:0:
302,121,82829,1,0,0:0:0:0:
257,82,83162,2,0,P|179:65|106:112,1,140
107,131,83829,1,0,0:0:0:0:
177,275,84162,1,0,0:0:0:0:
284,147,84496,1,0,0:0:0:0:
