osu file format v5

[General]
AudioFilename: Tsugaru Japan-djsmalls.mp3
AudioLeadIn: 0
PreviewTime: -1
Countdown: 1
SampleSet: Normal
StackLeniency: 0.7
Mode: 0
EditorBookmarks: 4976,15522,18310,26310,39643,45226,50300,56643,57976,58643,59310,59976,60966,70300,72643,78310,93633

[Metadata]
Title:Tsugaru Japan
Artist:Re-venge/De-Sire/DJ Smalls
Creator:Reikin
Version:Light
Source:
Tags:

[Difficulty]
HPDrainRate:1
CircleSize:5
OverallDifficulty:3
SliderMultiplier:1.28
SliderTickRate:1

[Events]
//Background and Video events
0,0,"Tsugaru Japan-bg.PNG"
//Break Periods
2,15843,16870
2,39843,49536
2,72843,76870
//Storyboard Layer 0 (Background)
//Storyboard Layer 1 (Failing)
//Storyboard Layer 2 (Passing)
//Storyboard Layer 3 (Foreground)
//Storyboard Sound Samples
//Background Colour Transformations
3,100,163,162,255

[TimingPoints]
4994,333.333333333333,4,1,0,100

[HitObjects]
256,192,4993,6,2,B|96:192,2,128
256,64,5993,2,0,B|416:64,3,128
384,192,7327,6,2,B|384:352,3,128
256,320,8660,2,0,B|96:320,3,128
32,256,9993,6,2,B|192:256,1,128
256,192,10660,2,0,B|96:192,1,128
224,128,11327,2,2,B|384:128,1,128
448,64,11993,2,0,B|288:64,1,128
192,64,12660,2,2,L|32:64,1,128
144,160,13327,5,0
64,256,13660,1,2
160,328,13993,1,0
240,232,14327,2,2,L|240:200|272:200|272:168|304:168,4,128
160,256,18327,6,0,B|0:256,1,128
32,128,18993,2,0,B|192:128,1,128
256,160,19660,2,2,B|256:256,6,64
352,128,20993,6,0,B|496:128,1,128
480,256,21660,2,0,B|336:256,1,128
256,224,22327,2,2,B|256:144,6,64
384,192,23660,5,0
384,64,23993,1,0
256,64,24327,1,0
256,192,24660,1,0
320,80,24993,2,2,B|320:160,6,64
256,192,26327,5,0
256,320,26660,1,0
128,320,26994,1,0
128,192,27327,1,0
192,304,27660,2,2,B|192:224,6,64
288,192,28993,6,2,L|416:192|416:64|288:64|288:128|352:128,1,512
352,128,30660,1,2
352,128,30993,1,2
352,128,31327,1,2
224,192,31660,6,2,L|96:192|96:320|224:320|224:256|160:256,1,512
160,256,33327,1,2
160,256,33660,1,2
160,256,33993,1,2
208,112,34327,6,2,L|272:112|272:176|336:176|336:240,2,256
272,16,35993,1,2
336,112,36327,1,2
400,208,36660,1,2
304,272,36993,6,2,L|240:272|240:208|176:208|176:144,2,256
240,368,38659,1,2
176,272,38993,1,2
112,176,39326,1,2
48,80,39660,1,4
128,64,50993,5,0
128,64,51160,1,0
128,320,52327,5,0
128,320,52493,1,0
384,320,53660,5,0
384,320,53827,1,0
384,64,54993,5,0
384,64,55160,1,0
256,192,55993,5,0
256,192,56160,1,0
256,96,56660,5,0
256,96,56827,1,0
160,192,57327,5,0
160,192,57493,1,0
256,288,57993,5,0
256,288,58160,1,0
352,192,58660,5,0
352,192,58827,1,0
256,96,59327,5,0
256,96,59493,1,0
160,192,59993,5,0
160,192,60160,1,0
64,64,60660,5,0
64,64,60827,1,0
64,64,60993,6,0,B|64:328,1,256
192,320,61993,1,0
192,192,62327,2,0,L|192:64|320:64,1,256
448,64,63327,1,0
480,192,63660,6,0,B|344:192,3,128
256,288,64993,1,2
160,192,65327,1,2
256,96,65660,1,2
64,64,66327,6,0,B|64:200,3,128
160,256,67660,6,0,B|320:256,2,128
320,160,68660,5,0
416,96,68993,2,0,B|416:232,1,128
256,192,70327,5,4
192,304,70660,1,4
320,304,70993,1,4
256,192,71493,5,4
192,80,71827,1,4
320,80,72160,1,4
320,80,72327,1,4
256,192,72660,1,2
256,192,78327,6,0,B|120:192,1,128
256,192,79660,2,0,B|392:192,1,128
256,192,80993,2,2,B|256:352,3,128
256,192,82327,2,2,B|256:56,3,128
256,192,83660,6,0,B|392:192,1,128
256,192,84993,2,0,B|120:192,1,128
256,192,86326,2,2,B|256:32,3,128
256,192,87660,2,2,B|256:328,3,128
160,224,88993,6,4,B|128:256,6,42.6666666666667
352,160,90327,6,4,B|384:128,6,42.6666666666667
256,312,91660,6,4,B|256:256,18,42.6666666666667
256,192,93660,12,0,98660
