osu file format v14

[General]
AudioFilename: medemede.mp3
AudioLeadIn: 0
PreviewTime: 9556
Countdown: 1
SampleSet: Soft
StackLeniency: 0.7
Mode: 0
LetterboxInBreaks: 1
WidescreenStoryboard: 1

[Editor]
Bookmarks: 118210
DistanceSpacing: 1.3
BeatDivisor: 4
GridSize: 4
TimelineZoom: 1.1

[Metadata]
Title:mede:mede
TitleUnicode:mede:mede
Artist:Re oru
ArtistUnicode:れをる
Creator:MagicNAT
Version:Normal
Source:極彩色
Tags:Japanese
BeatmapID:847821
BeatmapSetID:388703

[Difficulty]
HPDrainRate:5
CircleSize:4
OverallDifficulty:5
ApproachRate:5
SliderMultiplier:1.3
SliderTickRate:2

[Events]
//Background and Video events
//Break Periods
2,76097,83578
//Storyboard Layer 0 (Background)
//Storyboard Layer 1 (Fail)
//Storyboard Layer 2 (Pass)
//Storyboard Layer 3 (Foreground)
//Storyboard Sound Samples

[TimingPoints]
9556.41796218558,522.375789473683,3,2,0,100,1,0

[HitObjects]
92,80,9556,6,0,P|128:108|160:208,1,130,0|0,0:0|0:0,0:0:0:0:
96,240,10339,2,0,P|124:268|160:276,2,65
60,164,11123,1,0,0:0:0:0:
72,80,11384,1,0,0:0:0:0:
152,52,11645,2,0,L|216:92,1,65
248,100,12037,1,0,0:0:0:0:
292,88,12168,2,0,L|348:32,1,65,0|0,0:0|0:0,0:0:0:0:
420,60,12690,2,0,L|492:116,1,65
392,132,13213,2,0,L|328:188,1,65
396,240,13735,6,0,P|356:284|328:288,1,65
316,308,14127,1,0,0:0:0:0:
276,320,14257,2,0,P|244:336|196:340,1,65,0|0,0:0|0:0,0:0:0:0:
132,332,14780,2,0,P|84:316|64:300,2,65
216,336,15563,1,0,0:0:0:0:
172,264,15824,6,0,L|112:192,1,65
124,172,16216,1,0,0:0:0:0:
140,132,16347,2,0,L|188:80,1,65,0|0,0:0|0:0,0:0:0:0:
256,128,16869,2,0,L|316:172,1,65
232,204,17392,2,0,L|172:272|172:272,1,65
212,172,17914,1,0,0:0:0:0:
212,172,18175,6,0,L|152:220|152:220,1,65
80,228,18697,1,0,0:0:0:0:
148,176,18959,2,0,P|100:144|80:148,2,65
196,248,19742,1,0,0:0:0:0:
300,260,20003,6,0,L|352:208,1,65
372,180,20395,1,0,0:0:0:0:
348,144,20526,2,0,L|292:88,1,65
276,16,21048,2,0,L|224:72,1,65
196,140,21571,2,0,L|256:196,1,65
156,252,22093,6,0,L|108:200,1,65
60,136,22615,2,0,L|40:104,2,32.5
140,104,23138,2,0,L|200:68,1,65
152,144,23660,2,0,L|208:112,1,65
288,80,24182,6,0,L|236:120,1,65
284,188,24705,2,0,L|328:240,1,65
388,180,25227,2,0,L|416:156,2,32.5
320,232,25750,1,0,0:0:0:0:
408,88,26272,5,0,0:0:0:0:
408,88,26533,2,0,L|364:148,1,65
216,212,27317,2,0,P|168:208|144:192,2,65
116,76,28361,2,0,L|160:136,1,65
200,56,28884,2,0,L|244:112,1,65
276,184,29406,2,0,L|300:208,2,32.5
208,132,29929,2,0,L|160:80,1,65
244,60,30451,1,0,0:0:0:0:
292,128,30712,2,0,L|336:184,1,65
380,252,31235,6,0,P|332:272|320:264,2,65
412,172,32018,1,0,0:0:0:0:
248,132,32540,2,0,L|292:196,1,65
200,192,33063,2,0,L|248:260,1,65
320,224,33585,2,0,L|372:200,2,32.5
300,308,34108,1,0,0:0:0:0:
220,332,34369,1,0,0:0:0:0:
180,256,34630,6,0,P|220:232|248:228,1,65
272,152,35152,2,0,P|316:164|344:188,2,65
188,148,35936,2,0,L|188:180,2,32.5
104,160,36458,1,0,0:0:0:0:
76,80,36719,2,0,P|116:60|144:60,1,65
176,56,37111,1,0,0:0:0:0:
220,56,37242,2,0,P|276:64|292:80,1,65
364,80,37764,2,0,P|400:96|416:120,2,65
296,88,38548,1,0,0:0:0:0:
212,92,38809,6,0,P|160:128|156:152,1,65
156,212,39331,1,0,0:0:0:0:
168,296,39593,2,0,P|208:324|236:328,2,65
156,212,40376,1,0,0:0:0:0:
168,128,40637,6,0,P|192:96|224:88,1,65
300,76,41160,2,0,P|336:80|368:92,1,65
432,140,41682,1,0,0:0:0:0:
416,224,41943,2,0,B|368:244|344:252|284:248,1,130
208,228,42727,2,0,P|160:196|152:168,1,65
112,120,43249,6,0,P|96:80|100:60,2,65
152,192,44033,1,0,0:0:0:0:
232,212,44294,2,0,P|272:216|308:204,2,65
196,136,45077,2,0,P|184:96|192:72,1,65
220,44,45469,1,0,0:0:0:0:
260,28,45600,2,0,P|304:24|328:28,1,65
400,64,46122,2,0,P|444:104|452:128,2,65
324,28,46906,1,0,0:0:0:0:
240,16,47167,6,0,P|180:36|168:60,1,65
132,104,47689,2,0,P|116:144|112:176,2,65
212,72,48473,2,0,L|280:112,1,65
344,144,48995,2,0,P|372:172|380:204,2,65
268,108,49779,1,0,0:0:0:0:
196,68,50040,2,0,L|156:48,2,32.5
268,108,50562,2,0,P|304:132|328:156,1,65
388,100,51085,2,0,P|432:136|440:160,1,65
368,216,51607,2,0,P|328:248|296:260,1,65
236,276,52130,1,0,0:0:0:0:
160,240,52391,5,0,0:0:0:0:
160,240,52652,2,0,P|124:204|116:176,1,65
112,108,53174,1,0,0:0:0:0:
148,32,53435,1,0,0:0:0:0:
148,32,53697,2,0,P|184:8|216:8,1,65
288,12,54219,1,0,0:0:0:0:
368,36,54480,2,0,P|400:56|408:96,2,65
288,12,55264,1,0,0:0:0:0:
236,80,55525,6,0,P|224:112|220:144,1,65
236,224,56047,1,0,0:0:0:0:
384,304,56570,2,0,P|428:288|444:272,2,65
220,256,57614,2,0,P|180:248|148:252,1,65
140,168,58137,2,0,P|180:148|208:148,1,65
280,116,58659,2,0,B|340:88|384:128|412:100,1,130
400,188,59443,5,0,0:0:0:0:
400,188,59704,2,0,P|376:232|368:248,2,65
324,156,60488,1,0,0:0:0:0:
324,156,60749,2,0,L|292:216,2,65
252,112,61532,1,0,0:0:0:0:
252,112,61793,2,0,L|216:172,1,65
136,144,62316,2,0,L|176:80,1,65
236,36,62838,2,0,P|272:24|312:24,2,65
168,88,63622,1,0,0:0:0:0:
100,136,63883,6,0,P|132:176|164:176,1,65
228,180,64405,1,0,0:0:0:0:
392,212,64928,2,0,P|432:236|452:256,2,65
268,96,65973,2,0,L|216:44,1,65
188,128,66495,2,0,L|124:64,1,65
208,204,67017,2,0,L|160:268,1,65
296,204,67540,2,0,L|256:276,1,65
240,156,68062,2,0,P|280:124|312:120,2,65
192,228,68846,1,0,0:0:0:0:
112,252,69107,6,0,P|88:220|92:192,2,65
192,228,69890,1,0,0:0:0:0:
164,148,70152,6,0,P|224:124|228:120,1,65
260,104,70543,1,0,0:0:0:0:
292,76,70674,2,0,P|332:68|364:72,1,65
436,100,71196,2,0,B|440:152|432:176|388:216,1,130
316,260,71980,1,0,0:0:0:0:
240,224,72241,5,0,0:0:0:0:
240,224,72502,2,0,L|216:192,2,32.5
316,260,73025,1,0,0:0:0:0:
400,256,73286,2,0,P|396:216|376:188,1,65
316,260,73808,2,0,P|280:220|276:200,1,65
280,124,74331,6,0,P|220:132|204:144,1,65
176,144,74722,1,0,0:0:0:0:
140,168,74853,2,0,P|112:192|104:220,1,65
156,284,75375,2,0,P|188:312|216:320,2,65
88,44,84778,6,0,P|132:72|216:84,1,130
376,64,85822,2,0,P|420:60|444:76,2,65
380,232,86868,2,0,L|312:192,1,65
292,276,87390,2,0,L|224:236,1,65
256,160,87912,2,0,P|200:164|184:180,2,65
340,172,88696,6,0,P|376:148|380:128,1,65
304,96,89219,1,0,0:0:0:0:
304,96,89479,1,0,0:0:0:0:
136,64,90002,6,0,L|128:112,2,32.5
216,44,90524,1,0,0:0:0:0:
384,68,91047,2,0,P|396:112|384:156,1,65
388,216,91569,2,0,P|364:268|336:280,1,65
292,324,92091,2,0,P|224:332|152:304,1,130
112,152,93136,5,0,0:0:0:0:
112,152,93397,2,0,L|180:144,2,65
172,212,94181,1,0,0:0:0:0:
172,212,94442,2,0,L|92:228,2,65
256,228,95226,2,0,P|272:176|268:144,1,65
280,80,95748,2,0,P|292:28|312:16,1,65
376,56,96270,1,0,0:0:0:0:
376,56,96531,2,0,L|360:120,2,65
392,140,97315,6,0,P|356:204|280:232,1,130
224,236,98099,2,0,P|180:216|160:192,2,65
308,236,98882,1,0,0:0:0:0:
364,76,99405,6,0,P|320:68|220:80,1,130
156,108,100188,2,0,P|112:144|104:160,2,65
236,84,100972,1,0,0:0:0:0:
140,224,101494,6,0,P|188:240|288:232,1,130
352,228,102278,1,0,0:0:0:0:
396,156,102539,2,0,L|380:120,2,32.5
316,176,103061,2,0,L|272:108,1,65
208,76,103584,5,0,0:0:0:0:
180,156,103845,2,0,L|160:196,2,32.5
208,76,104367,1,0,0:0:0:0:
124,60,104628,2,0,P|92:76|76:104,2,65
208,76,105412,1,0,0:0:0:0:
280,36,105673,2,0,L|348:56,1,65
280,112,106195,2,0,L|348:132,1,65
420,96,106718,2,0,P|456:132|460:172,2,65
424,264,107763,5,0,0:0:0:0:
364,204,108024,2,0,L|332:176,2,32.5
284,236,108546,1,0,0:0:0:0:
228,304,108807,1,0,0:0:0:0:
184,232,109069,2,0,L|160:192,2,32.5
108,80,109852,5,0,0:0:0:0:
108,80,110113,2,0,P|144:80|184:88,1,65
340,100,110897,2,0,P|284:92|256:96,2,65
424,248,111942,2,0,P|384:288|352:304,1,65
340,312,112333,1,0,0:0:0:0:
300,324,112464,2,0,P|244:328|208:320,1,65
168,276,112986,1,0,0:0:0:0:
112,212,113248,2,0,L|96:184,2,32.5
172,156,113770,1,0,0:0:0:0:
120,92,114031,6,0,P|140:64|236:60,1,130
392,104,115076,2,0,L|376:132,1,32.5
360,172,115338,2,0,L|344:204,1,32.5
328,240,115598,1,0,0:0:0:0:
248,268,115859,5,0,0:0:0:0:
176,224,116121,2,0,L|200:184,1,32.5
228,176,116382,2,0,L|260:172,1,32.5
304,168,116643,2,0,L|340:172,1,32.5
376,180,116904,2,0,L|412:168,1,32.5
436,140,117165,2,0,P|448:96|448:72,1,65
372,36,117688,1,0,0:0:0:0:
212,84,118210,5,0,0:0:0:0:
212,84,118471,2,0,P|188:128|180:144,2,65
264,152,119255,1,0,0:0:0:0:
264,152,119516,2,0,L|296:212,2,65
216,220,120299,1,0,0:0:0:0:
216,220,120560,2,0,L|180:280,1,65
136,204,121083,2,0,L|176:140,1,65
228,88,121605,2,0,P|264:76|304:76,2,65
152,128,122390,6,0,P|184:168|216:168,1,65
280,172,122912,1,0,0:0:0:0:
404,60,123434,2,0,P|444:84|464:104,2,65
248,128,124479,2,0,L|196:76,1,65
168,160,125002,2,0,L|104:96,1,65
188,236,125524,2,0,L|140:300,1,65
276,236,126046,2,0,L|236:308,1,65
220,188,126569,2,0,P|260:156|292:152,2,65
172,260,127352,1,0,0:0:0:0:
88,248,127613,6,0,P|64:216|68:188,2,65
168,224,128397,1,0,0:0:0:0:
172,140,128658,6,0,P|232:164|236:168,1,65
256,84,129181,2,0,P|296:76|328:80,1,65
400,48,129703,2,0,B|404:100|396:124|352:164,1,130
300,228,130487,1,0,0:0:0:0:
260,152,130748,5,0,0:0:0:0:
260,152,131009,2,0,L|236:120,2,32.5
192,204,131531,1,0,0:0:0:0:
108,184,131792,2,0,P|112:224|132:252,1,65
168,316,132315,2,0,P|204:276|208:256,1,65
260,200,132837,6,0,P|200:192|184:180,1,65
232,112,133360,2,0,P|204:88|196:60,1,65
140,124,133882,2,0,P|108:152|80:160,2,65
72,76,134666,1,0,0:0:0:0:
148,36,134926,5,0,0:0:0:0:
148,36,135187,2,0,P|192:76|200:80,1,65
356,140,135971,2,0,P|396:152|420:168,2,65
248,268,137016,2,0,L|300:216,1,65
212,196,137538,2,0,L|264:144,1,65
340,164,138060,1,0,0:0:0:0:
340,164,138322,2,0,P|324:112|300:104,2,65
332,80,139105,6,0,P|288:100|264:120,1,65
208,164,139627,1,0,0:0:0:0:
152,324,140150,2,0,P|108:336|88:340,2,65
232,292,140933,1,0,0:0:0:0:
232,292,141195,2,0,P|288:268|304:256,1,65
360,216,141717,2,0,P|388:192|400:164,1,65
388,84,142239,2,0,P|352:64|268:80,1,130
100,96,143284,6,0,L|148:152,1,65
216,188,143806,2,0,L|284:208,1,65
364,200,144329,2,0,P|404:176|416:148,2,65
280,212,145112,1,0,0:0:0:0:
196,196,145374,2,0,P|156:172|144:152,1,65
132,120,145765,1,0,0:0:0:0:
128,76,145896,2,0,P|140:40|168:12,1,65
240,16,146418,2,0,P|288:20|328:32,2,65
156,12,147202,1,0,0:0:0:0:
112,84,147463,6,0,L|68:148,1,65
160,148,147986,2,0,L|204:200,1,65
128,236,148508,2,0,P|100:276|108:304,2,65
192,184,149291,1,0,0:0:0:0:
192,184,149553,2,0,P|244:152|252:136,1,65
168,116,150075,2,0,P|200:80|224:76,1,65
300,80,150597,2,0,P|376:96|424:136,1,130
464,196,151381,1,0,0:0:0:0:
384,224,151642,6,0,P|416:256|460:260,2,65
336,156,152426,1,0,0:0:0:0:
276,96,152687,2,0,P|232:64|212:64,2,65
336,156,153470,1,0,0:0:0:0:
284,224,153732,2,0,P|240:256|220:256,2,65
340,160,154515,1,0,0:0:0:0:
396,100,154776,2,0,P|428:68|472:64,2,65
336,160,155560,1,0,0:0:0:0:
272,216,155822,6,0,L|184:196,1,65
172,184,156213,1,0,0:0:0:0:
172,140,156344,2,0,L|228:96,1,65
304,128,156866,2,0,P|328:84|324:60,2,65
144,112,157911,2,0,L|220:152,1,65
244,152,158302,1,0,0:0:0:0:
284,140,158433,2,0,L|356:104,1,65
340,196,158955,2,0,L|420:196,2,65
256,196,159739,1,0,0:0:0:0:
172,196,160000,6,0,P|200:164|240:156,1,65
296,116,160523,1,0,0:0:0:0:
376,92,160784,2,0,L|412:84,2,32.5
300,52,161306,1,0,0:0:0:0:
228,96,161567,2,0,P|196:128|188:156,1,65
164,180,161959,1,0,0:0:0:0:
148,220,162090,2,0,P|124:260|112:276,2,65
68,212,162873,1,0,0:0:0:0:
68,212,163134,2,0,L|112:160,1,65
180,116,163657,2,0,L|244:96,1,65
320,60,164179,5,0,0:0:0:0:
352,140,164440,2,0,L|368:172,2,32.5
320,60,164963,1,0,0:0:0:0:
236,76,165224,2,0,P|192:108|184:128,1,65
404,48,165746,2,0,P|464:60|484:80,1,65
456,144,166269,2,0,P|424:192|392:204,1,65
360,136,166791,2,0,P|304:168|296:188,1,65
332,248,167313,2,0,P|304:292|292:300,2,65
296,172,168097,1,0,0:0:0:0:
216,140,168358,6,0,L|160:92,1,65
196,208,168881,2,0,L|172:236,2,32.5
288,144,169403,2,0,L|344:96,1,65
308,212,169926,2,0,L|332:240,2,32.5
244,156,170448,2,0,L|192:108,1,65
112,96,170970,2,0,L|160:148,1,65
212,208,171492,2,0,P|172:220|136:208,2,65
280,160,172276,1,0,0:0:0:0:
280,160,172537,2,0,P|328:144|352:128,1,65
376,60,173060,2,0,P|328:40|304:40,1,65
272,36,173451,1,0,0:0:0:0:
232,40,173582,2,0,P|196:64|172:96,2,65
76,108,174627,6,0,L|120:168,1,65
180,212,175149,2,0,L|240:156,1,65
248,132,175541,1,0,0:0:0:0:
268,96,175671,2,0,P|308:60|340:60,2,65
436,120,176716,6,0,L|460:148,2,32.5
380,56,177239,2,0,P|336:48|296:56,1,65
244,96,177761,2,0,L|192:72,2,32.5
324,120,178283,2,0,P|372:136|392:152,1,65
316,196,178806,2,0,L|276:236,2,32.5
372,260,179328,2,0,L|412:296,2,32.5
300,308,179850,2,0,P|240:312|152:296,1,130
340,308,180895,6,0,P|372:288|392:252,1,65
408,228,181287,1,0,0:0:0:0:
416,188,181418,2,0,P|424:128|412:104,1,65
436,52,181940,2,0,P|412:16|380:-8,2,65
432,148,182985,6,0,P|376:140|356:144,1,65
328,152,183376,1,0,0:0:0:0:
288,160,183507,2,0,P|236:172|212:188,1,65
156,224,184029,2,0,P|112:256|104:272,2,65
232,188,184813,1,0,0:0:0:0:
232,188,185074,6,0,L|196:128,1,65
268,80,185597,2,0,L|296:120,1,32.5
312,140,185858,2,0,L|332:180,1,32.5
344,208,186119,2,0,P|352:260|340:280,1,65
280,320,186641,2,0,P|248:344|216:352,2,65
212,268,187425,1,0,0:0:0:0:
128,252,187686,2,0,P|136:192|152:176,1,65
184,120,188208,2,0,P|216:72|240:64,1,65
300,32,188731,2,0,P|348:16|368:16,1,65
424,72,189253,6,0,P|440:128|436:140,1,65
428,168,189645,1,0,0:0:0:0:
420,208,189776,2,0,P|400:248|376:264,1,65
312,304,190298,2,0,P|272:328|244:332,2,65
304,220,191082,1,0,0:0:0:0:
384,248,191343,2,0,P|404:204|396:172,1,65
400,104,191865,2,0,P|364:56|340:48,1,65
340,136,192387,1,0,0:0:0:0:
280,76,192649,2,0,P|244:68|208:64,1,65
180,228,193432,5,0,0:0:0:0:
180,228,193693,2,0,L|144:168,1,65
64,196,194216,2,0,L|104:260,1,65
164,304,194738,2,0,P|200:316|240:316,2,65
112,236,195522,2,0,P|88:184|88:168,1,65
96,136,195913,1,0,0:0:0:0:
116,96,196044,2,0,P|152:68|176:60,1,65
252,52,196566,2,0,L|308:96,1,65
228,128,197089,2,0,L|168:188,1,65
232,244,197611,6,0,P|280:224|296:208,1,65
344,152,198134,2,0,P|372:108|372:84,1,65
320,32,198656,2,0,P|276:16|244:16,1,65
180,44,199178,2,0,P|128:88|116:108,1,65
128,168,199701,2,0,L|160:224,2,65
84,96,200484,1,0,0:0:0:0:
168,104,200745,2,0,L|116:36,2,65
212,176,201529,1,0,0:0:0:0:
