osu file format v14

[General]
AudioFilename: Todestrieb.mp3
AudioLeadIn: 0
PreviewTime: 41906
Countdown: 0
SampleSet: Soft
StackLeniency: 0.7
Mode: 3
LetterboxInBreaks: 0
SpecialStyle: 0
WidescreenStoryboard: 0

[Editor]
Bookmarks: 54230
DistanceSpacing: 1.3
BeatDivisor: 4
GridSize: 4
TimelineZoom: 1.9

[Metadata]
Title:Todestrieb
TitleUnicode:Todestrieb
Artist:Rche
ArtistUnicode:Rche
Creator:SanadaYukimura
Version:Normal
Source:beatmania IIDX
Tags:19 Lincle BEMANI KONAMI REFLEC BEAT groovin'!! Upper Tomosuke Funaki Zektbach 傲慢 傲慢ちゃん entelecheia PENDUAL MeowPaz
BeatmapID:921512
BeatmapSetID:424754

[Difficulty]
HPDrainRate:7
CircleSize:4
OverallDifficulty:7
ApproachRate:5
SliderMultiplier:1.4
SliderTickRate:1

[Events]
//Background and Video events
0,0,"rche.jpg",0,0
//Break Periods
//Storyboard Layer 0 (Background)
//Storyboard Layer 1 (Fail)
//Storyboard Layer 2 (Pass)
//Storyboard Layer 3 (Foreground)
//Storyboard Sound Samples
Sample,26338,0,"0008.wav",70

[TimingPoints]
393,324.324324324324,4,2,1,20,1,0
41906,-100,4,2,1,20,0,1
62663,-100,4,2,1,20,0,0
104176,-100,4,2,1,20,0,1
114555,-100,4,2,1,20,0,0

[HitObjects]
64,192,393,5,0,0:0:0:70:0008.wav
448,192,393,1,0,0:0:0:0:
192,192,879,1,0,0:0:0:0:
448,192,1365,1,0,0:0:0:0:
320,192,1852,1,0,0:0:0:0:
64,192,2338,1,0,0:0:0:0:
448,192,2663,1,0,0:0:0:0:
192,192,2987,1,0,0:0:0:0:
320,192,3474,1,0,0:0:0:0:
64,192,3960,1,0,0:0:0:0:
192,192,4447,1,0,0:0:0:0:
448,192,4933,1,0,0:0:0:0:
64,192,5257,1,0,0:0:0:0:
320,192,5582,1,0,0:0:0:0:
192,192,6068,1,0,0:0:0:0:
448,192,6555,1,0,0:0:0:0:
64,192,7041,1,0,0:0:0:0:
448,192,7528,1,0,0:0:0:0:
192,192,7852,1,0,0:0:0:0:
320,192,8176,1,0,0:0:0:0:
64,192,8663,1,0,0:0:0:0:
448,192,9149,1,0,0:0:0:0:
192,192,9636,1,0,0:0:0:0:
448,192,10122,1,0,0:0:0:0:
320,192,10447,1,0,0:0:0:0:
192,192,10771,1,4,0:0:0:0:
64,192,10771,1,0,0:0:0:0:
448,192,11257,128,0,11744:0:0:0:0:
320,192,11744,128,0,12230:0:0:0:0:
192,192,12230,128,0,12717:0:0:0:0:
448,192,12717,1,0,0:0:0:0:
64,192,12879,1,0,0:0:0:0:
320,192,13041,1,0,0:0:0:0:
192,192,13203,1,0,0:0:0:0:
448,192,13365,1,0,0:0:0:0:
64,192,13852,128,0,14338:0:0:0:0:
192,192,14338,128,0,14825:0:0:0:0:
320,192,14825,128,0,15311:0:0:0:0:
64,192,15311,1,0,0:0:0:0:
448,192,15474,1,0,0:0:0:0:
192,192,15636,1,0,0:0:0:0:
320,192,15798,1,0,0:0:0:0:
192,192,15960,1,0,0:0:0:70:0008.wav
64,192,15960,1,0,0:0:0:0:
448,192,16447,128,0,16933:0:0:0:0:
320,192,16933,128,0,17420:0:0:0:0:
192,192,17420,128,0,17906:0:0:0:0:
448,192,17906,1,0,0:0:0:0:
64,192,18068,1,0,0:0:0:0:
320,192,18230,1,0,0:0:0:0:
192,192,18392,1,0,0:0:0:0:
448,192,18555,1,0,0:0:0:0:
64,192,19041,128,0,19528:0:0:0:0:
192,192,19528,128,0,20014:0:0:0:0:
320,192,20014,128,0,20501:0:0:0:0:
64,192,20501,1,0,0:0:0:0:
448,192,20663,1,0,0:0:0:0:
192,192,20825,1,0,0:0:0:0:
320,192,20987,1,0,0:0:0:0:
448,192,21149,5,2,0:0:0:0:
64,192,21149,1,4,0:0:0:0:
64,192,21474,1,2,0:0:0:0:
320,192,21798,1,2,0:0:0:0:
192,192,22122,1,2,0:0:0:0:
448,192,22447,1,2,0:0:0:0:
64,192,22771,1,2,0:0:0:0:
320,192,23095,1,2,0:0:0:0:
192,192,23420,1,2,0:0:0:0:
448,192,23744,1,2,0:0:0:0:
448,192,24068,1,2,0:0:0:0:
192,192,24392,1,2,0:0:0:0:
320,192,24717,1,2,0:0:0:0:
64,192,25041,1,2,0:0:0:0:
448,192,25365,1,2,0:0:0:0:
192,192,25690,1,2,0:0:0:0:
320,192,26014,1,2,0:0:0:0:
64,192,26338,1,2,0:0:0:0:
64,192,26663,1,2,0:0:0:0:
320,192,26987,1,2,0:0:0:0:
192,192,27311,1,2,0:0:0:0:
448,192,27636,1,2,0:0:0:0:
64,192,27960,1,2,0:0:0:0:
192,192,28284,1,2,0:0:0:0:
320,192,28609,1,2,0:0:0:0:
448,192,28933,1,2,0:0:0:0:
448,192,29257,1,2,0:0:0:0:
192,192,29582,1,2,0:0:0:0:
320,192,29906,1,2,0:0:0:0:
448,192,30230,1,4,0:0:0:0:
64,192,30230,1,2,0:0:0:0:
192,192,30392,1,2,0:0:0:0:
64,192,30555,1,4,0:0:0:0:
320,192,30555,1,2,0:0:0:0:
448,192,30879,128,2,31528:0:0:0:0:
192,192,31528,1,2,0:0:0:0:
64,192,31528,1,0,0:0:0:70:000O.wav
448,192,32825,1,0,0:0:0:70:000P.wav
64,192,33474,1,0,0:0:0:0:
320,192,34122,1,0,0:0:0:70:000Q.wav
192,192,34771,1,0,0:0:0:0:
64,192,35420,1,0,0:0:0:70:000R.wav
448,192,36068,1,0,0:0:0:0:
192,192,36717,128,0,38014:0:0:0:70:000S.wav
448,192,38014,128,0,39311:0:0:0:70:000T.wav
64,192,39311,128,0,40609:0:0:0:70:000U.wav
320,192,40609,1,0,0:0:0:70:000V.wav
448,192,40609,1,4,0:0:0:0:
192,192,40933,1,0,0:0:0:0:
64,192,40933,1,0,0:0:0:0:
448,192,41420,1,2,0:0:0:0:
192,192,41582,1,2,0:0:0:0:
320,192,41744,1,2,0:0:0:0:
448,192,41906,1,2,0:0:0:0:
64,192,41906,1,4,0:0:0:0:
192,192,42068,1,8,0:0:0:0:
320,192,42230,1,2,0:0:0:0:
448,192,42230,1,0,0:0:0:0:
64,192,42555,1,2,0:0:0:0:
448,192,42879,1,2,0:0:0:0:
192,192,42879,1,0,0:0:0:0:
64,192,43203,1,2,0:0:0:0:
320,192,43365,1,8,0:0:0:0:
192,192,43528,1,2,0:0:0:0:
448,192,43528,1,0,0:0:0:0:
320,192,43852,1,2,0:0:0:0:
64,192,44176,1,2,0:0:0:0:
192,192,44176,1,0,0:0:0:0:
448,192,44501,1,2,0:0:0:0:
192,192,44663,1,8,0:0:0:0:
320,192,44825,1,2,0:0:0:0:
448,192,44825,1,0,0:0:0:0:
64,192,45149,1,2,0:0:0:0:
448,192,45474,1,2,0:0:0:0:
192,192,45474,1,0,0:0:0:0:
320,192,45798,1,2,0:0:0:0:
64,192,45960,1,8,0:0:0:0:
448,192,46122,1,2,0:0:0:0:
192,192,46122,1,0,0:0:0:0:
64,192,46447,1,2,0:0:0:0:
192,192,46771,1,2,0:0:0:0:
320,192,46771,1,0,0:0:0:0:
448,192,47095,1,2,0:0:0:0:
320,192,47257,1,8,0:0:0:0:
192,192,47420,1,2,0:0:0:0:
64,192,47420,1,0,0:0:0:0:
320,192,47744,1,2,0:0:0:0:
64,192,48068,1,2,0:0:0:0:
448,192,48068,1,0,0:0:0:0:
320,192,48392,1,2,0:0:0:0:
192,192,48555,1,8,0:0:0:0:
448,192,48717,1,2,0:0:0:0:
320,192,48717,1,0,0:0:0:0:
64,192,49041,1,2,0:0:0:0:
192,192,49365,1,2,0:0:0:0:
448,192,49365,1,0,0:0:0:0:
64,192,49690,1,2,0:0:0:0:
448,192,49852,1,8,0:0:0:0:
192,192,50014,1,2,0:0:0:0:
64,192,50014,1,0,0:0:0:0:
320,192,50338,1,2,0:0:0:0:
448,192,50663,1,2,0:0:0:0:
192,192,50663,1,0,0:0:0:0:
64,192,50987,1,2,0:0:0:0:
320,192,51149,1,8,0:0:0:0:
192,192,51311,1,2,0:0:0:0:
448,192,51311,1,0,0:0:0:0:
320,192,51636,1,2,0:0:0:0:
64,192,51960,1,2,0:0:0:0:
192,192,51960,1,0,0:0:0:0:
320,192,52284,1,4,0:0:0:0:
448,192,52284,128,2,53582:0:0:0:0:
64,192,52609,1,2,0:0:0:0:
192,192,52609,1,0,0:0:0:0:
320,192,52933,1,2,0:0:0:0:
64,192,53257,1,2,0:0:0:0:
192,192,53257,1,0,0:0:0:0:
192,192,53582,128,2,54879:0:0:0:0:
320,192,53582,1,0,0:0:0:0:
448,192,53906,1,2,0:0:0:0:
320,192,53906,1,0,0:0:0:0:
64,192,54230,1,2,0:0:0:0:
448,192,54555,1,2,0:0:0:0:
320,192,54555,1,0,0:0:0:0:
320,192,54879,128,2,56176:0:0:0:0:
64,192,54879,1,0,0:0:0:0:
448,192,55203,1,2,0:0:0:0:
192,192,55203,1,0,0:0:0:0:
64,192,55528,1,2,0:0:0:0:
448,192,55852,1,2,0:0:0:0:
192,192,55852,1,0,0:0:0:0:
64,192,56176,128,2,57474:0:0:0:0:
192,192,56176,1,0,0:0:0:0:
448,192,56501,1,2,0:0:0:0:
320,192,56501,1,0,0:0:0:0:
192,192,56825,1,2,0:0:0:0:
320,192,57149,1,2,0:0:0:0:
448,192,57149,1,0,0:0:0:0:
448,192,57474,128,2,58771:0:0:0:0:
192,192,57474,1,0,0:0:0:0:
320,192,57798,1,2,0:0:0:0:
64,192,57798,1,0,0:0:0:0:
192,192,58122,1,2,0:0:0:0:
320,192,58447,1,2,0:0:0:0:
64,192,58447,1,0,0:0:0:0:
192,192,58771,128,2,60068:0:0:0:0:
64,192,58771,1,0,0:0:0:0:
448,192,59095,1,2,0:0:0:0:
320,192,59095,1,0,0:0:0:0:
64,192,59420,1,2,0:0:0:0:
448,192,59744,1,2,0:0:0:0:
320,192,59744,1,0,0:0:0:0:
64,192,60068,1,2,0:0:0:0:
192,192,60392,1,2,0:0:0:0:
448,192,60392,1,0,0:0:0:0:
320,192,60717,1,2,0:0:0:0:
192,192,61041,1,2,0:0:0:0:
64,192,61041,1,0,0:0:0:0:
448,192,61365,1,2,0:0:0:0:
320,192,61690,1,2,0:0:0:0:
64,192,61690,1,0,0:0:0:0:
192,192,62014,1,2,0:0:0:0:
320,192,62176,1,2,0:0:0:0:
64,192,62338,1,2,0:0:0:0:
448,192,62338,1,0,0:0:0:0:
192,192,62501,1,2,0:0:0:0:
320,192,62663,1,0,0:0:0:70:000W.wav
448,192,62663,1,0,0:0:0:0:
64,192,63960,1,0,0:0:0:0:
448,192,64609,1,0,0:0:0:0:
64,192,65257,1,0,0:0:0:0:
320,192,65906,1,0,0:0:0:70:000X.wav
192,192,66555,1,0,0:0:0:70:000Y.wav
64,192,66555,1,0,0:0:0:0:
448,192,67852,1,0,0:0:0:0:
320,192,67852,1,0,0:0:0:0:
64,192,69149,1,0,0:0:0:70:000Z.wav
448,192,69149,1,0,0:0:0:0:
320,192,69798,1,0,0:0:0:70:0010.wav
192,192,70447,1,0,0:0:0:70:0011.wav
64,192,70447,1,0,0:0:0:0:
320,192,71095,1,0,0:0:0:70:0012.wav
448,192,71744,1,0,0:0:0:70:0013.wav
192,192,71744,1,0,0:0:0:0:
64,192,73041,1,0,0:0:0:0:
448,192,73041,1,0,0:0:0:0:
192,192,73365,1,0,0:0:0:0:
320,192,73690,1,0,0:0:0:0:
448,192,74014,1,0,0:0:0:0:
192,192,74338,1,0,0:0:0:0:
64,192,74338,1,0,0:0:0:0:
448,192,74663,1,0,0:0:0:0:
320,192,74987,1,0,0:0:0:0:
192,192,75311,1,0,0:0:0:0:
448,192,75636,1,0,0:0:0:0:
320,192,75636,1,0,0:0:0:0:
64,192,75960,1,0,0:0:0:0:
192,192,76284,1,0,0:0:0:0:
320,192,76609,1,0,0:0:0:0:
448,192,76933,1,0,0:0:0:0:
64,192,76933,1,0,0:0:0:0:
192,192,77257,1,0,0:0:0:0:
320,192,77582,1,0,0:0:0:0:
192,192,77906,1,0,0:0:0:0:
64,192,78230,1,0,0:0:0:0:
448,192,78230,1,0,0:0:0:0:
320,192,78555,1,0,0:0:0:0:
64,192,78879,1,0,0:0:0:0:
192,192,79203,1,0,0:0:0:0:
320,192,79528,1,0,0:0:0:0:
448,192,79528,1,0,0:0:0:0:
64,192,79852,1,0,0:0:0:0:
448,192,80176,1,0,0:0:0:0:
320,192,80501,1,0,0:0:0:0:
192,192,80825,1,0,0:0:0:0:
64,192,80825,1,0,0:0:0:0:
448,192,81149,1,0,0:0:0:0:
320,192,81474,1,0,0:0:0:0:
192,192,81798,1,0,0:0:0:0:
320,192,82122,1,0,0:0:0:0:
64,192,82122,128,0,83420:0:0:0:0:
448,192,82447,1,0,0:0:0:0:
192,192,82771,1,0,0:0:0:0:
320,192,83095,1,0,0:0:0:0:
192,192,83420,1,2,0:0:0:0:
448,192,83420,1,0,0:0:0:0:
64,192,83744,1,2,0:0:0:0:
320,192,84068,1,2,0:0:0:0:
192,192,84392,1,2,0:0:0:0:
320,192,84717,1,2,0:0:0:0:
64,192,85041,1,2,0:0:0:0:
448,192,85365,1,2,0:0:0:0:
64,192,85690,1,2,0:0:0:0:
320,192,86014,1,2,0:0:0:0:
192,192,86338,1,2,0:0:0:0:
448,192,86663,1,2,0:0:0:0:
64,192,86987,1,2,0:0:0:0:
448,192,87311,1,2,0:0:0:0:
320,192,87636,1,2,0:0:0:0:
64,192,87960,1,2,0:0:0:0:
448,192,88284,1,2,0:0:0:0:
64,192,88609,1,2,0:0:0:0:
320,192,88933,1,2,0:0:0:0:
64,192,89257,1,2,0:0:0:0:
448,192,89582,1,2,0:0:0:0:
192,192,89906,1,2,0:0:0:0:
320,192,90230,1,2,0:0:0:0:
64,192,90555,1,2,0:0:0:0:
448,192,90879,1,2,0:0:0:0:
192,192,91203,1,2,0:0:0:0:
320,192,91528,1,2,0:0:0:0:
64,192,91852,1,2,0:0:0:0:
448,192,92176,1,2,0:0:0:0:
192,192,92501,1,2,0:0:0:0:
448,192,92825,1,2,0:0:0:0:
64,192,93149,1,2,0:0:0:0:
192,192,93311,1,2,0:0:0:0:
320,192,93474,1,2,0:0:0:0:
448,192,93798,1,2,0:0:0:0:
64,192,93798,1,4,0:0:0:0:
192,192,94122,1,2,0:0:0:0:
320,192,94447,1,2,0:0:0:0:
192,192,94771,1,2,0:0:0:0:
64,192,95095,1,2,0:0:0:0:
448,192,95095,1,0,0:0:0:0:
320,192,95420,1,2,0:0:0:0:
192,192,95744,1,2,0:0:0:0:
64,192,96068,1,2,0:0:0:0:
320,192,96392,1,2,0:0:0:0:
448,192,96392,1,0,0:0:0:0:
192,192,96717,1,2,0:0:0:0:
320,192,97041,1,2,0:0:0:0:
448,192,97365,1,2,0:0:0:0:
192,192,97690,1,2,0:0:0:0:
320,192,97690,1,0,0:0:0:0:
64,192,98014,1,2,0:0:0:0:
192,192,98338,1,2,0:0:0:0:
320,192,98663,1,2,0:0:0:0:
448,192,98987,1,2,0:0:0:0:
64,192,98987,1,0,0:0:0:0:
192,192,99311,1,2,0:0:0:0:
448,192,99636,1,2,0:0:0:0:
320,192,99960,1,2,0:0:0:0:
192,192,100284,1,2,0:0:0:0:
64,192,100284,1,0,0:0:0:0:
448,192,100609,1,2,0:0:0:0:
320,192,100933,1,2,0:0:0:0:
64,192,101257,1,2,0:0:0:0:
192,192,101582,1,2,0:0:0:0:
448,192,101582,1,0,0:0:0:0:
320,192,101906,1,2,0:0:0:0:
192,192,102230,1,2,0:0:0:0:
64,192,102555,1,2,0:0:0:0:
320,192,102879,1,2,0:0:0:0:
448,192,102879,1,0,0:0:0:0:
192,192,103203,1,2,0:0:0:0:
64,192,103203,1,0,0:0:0:0:
320,192,103528,1,2,0:0:0:0:
448,192,103528,1,0,0:0:0:0:
192,192,103852,1,2,0:0:0:0:
64,192,103852,1,0,0:0:0:0:
64,192,104176,1,4,0:0:0:0:
448,192,104176,1,2,0:0:0:0:
320,192,104338,1,8,0:0:0:0:
192,192,104501,1,2,0:0:0:0:
64,192,104501,1,0,0:0:0:0:
448,192,104825,1,2,0:0:0:0:
64,192,105149,1,2,0:0:0:0:
320,192,105149,1,0,0:0:0:0:
192,192,105474,1,2,0:0:0:0:
320,192,105636,1,8,0:0:0:0:
64,192,105798,1,2,0:0:0:0:
448,192,105798,1,0,0:0:0:0:
192,192,106122,1,2,0:0:0:0:
64,192,106447,1,2,0:0:0:0:
448,192,106447,1,0,0:0:0:0:
320,192,106771,1,2,0:0:0:0:
64,192,106933,1,8,0:0:0:0:
448,192,107095,1,2,0:0:0:0:
192,192,107095,1,0,0:0:0:0:
64,192,107420,1,2,0:0:0:0:
320,192,107744,1,2,0:0:0:0:
448,192,107744,1,0,0:0:0:0:
192,192,108068,1,2,0:0:0:0:
64,192,108230,1,8,0:0:0:0:
448,192,108392,1,2,0:0:0:0:
192,192,108392,1,0,0:0:0:0:
320,192,108717,1,2,0:0:0:0:
64,192,109041,1,2,0:0:0:0:
192,192,109041,1,0,0:0:0:0:
320,192,109365,1,2,0:0:0:0:
64,192,109528,1,8,0:0:0:0:
320,192,109690,1,2,0:0:0:0:
448,192,109690,1,0,0:0:0:0:
64,192,110014,1,2,0:0:0:0:
192,192,110338,1,2,0:0:0:0:
320,192,110338,1,0,0:0:0:0:
448,192,110663,1,2,0:0:0:0:
320,192,110825,1,8,0:0:0:0:
192,192,110987,1,2,0:0:0:0:
64,192,110987,1,0,0:0:0:0:
448,192,111311,1,2,0:0:0:0:
64,192,111636,1,2,0:0:0:0:
320,192,111636,1,0,0:0:0:0:
192,192,111960,1,2,0:0:0:0:
320,192,112122,1,8,0:0:0:0:
192,192,112284,1,2,0:0:0:0:
64,192,112284,1,0,0:0:0:0:
320,192,112609,1,2,0:0:0:0:
448,192,112933,1,2,0:0:0:0:
64,192,112933,1,0,0:0:0:0:
64,192,113257,1,2,0:0:0:0:
192,192,113257,1,4,0:0:0:0:
448,192,113582,1,2,0:0:0:0:
320,192,113582,1,4,0:0:0:0:
64,192,113906,1,2,0:0:0:0:
192,192,113906,1,4,0:0:0:0:
64,192,114230,1,4,0:0:0:0:
448,192,114230,128,2,114555:0:0:0:0:
320,192,114555,1,4,0:0:0:0:
64,192,114555,128,0,117149:0:0:0:70:001F.wav
448,192,115852,1,0,0:0:0:70:001G.wav
320,192,117149,1,0,0:0:0:70:001H.wav
192,192,118447,1,0,0:0:0:70:001I.wav
64,192,119744,1,0,0:0:0:70:001J.wav
192,192,121041,1,0,0:0:0:70:001K.wav
320,192,122338,1,0,0:0:0:70:001L.wav
448,192,123636,1,0,0:0:0:70:001M.wav
64,192,124933,1,0,0:0:0:70:0008.wav
192,192,124933,1,0,0:0:0:0:
